#TITLE:Light Emitting Diode;
#SUBTITLE:Rhythms 100%;
#ARTIST:Neko;
#TITLETRANSLIT:;
#SUBTITLETRANSLIT:;
#ARTISTTRANSLIT:;
#CREDIT:;
#BANNER:../fallback-bn.png;
#BACKGROUND:../fallback-bg.png;
#LYRICSPATH:;
#CDTITLE:;
#MUSIC:led.ogg;
#OFFSET:0.001;
#SAMPLESTART:66.785;
#SAMPLELENGTH:12.000;
#SELECTABLE:YES;
#BPMS:0.000=172.132,156.000=344.260,160.000=172.130;
#STOPS:156.000=0.174
,157.000=0.174
,158.000=0.174
,159.000=0.174
;
#BGCHANGES:;
// cache tags:
#FIRSTBEAT:16.000;
#LASTBEAT:260.000;
#SONGFILENAME:Songs/SSSC PACK/[KDM! and Monst3rjoe ] - Light Emitting Diode/led.sm;
#HASMUSIC:1;
#HASBANNER:1;
#MUSICLENGTH:91.951;
// end cache tags

//---------------dance-single - Monst3rjoe and KDM!----------------
#NOTES:
     dance-single:
     Monst3rjoe and KDM!:
     Challenge:
     14:
     1.000,1.000,0.163,0.207,1.000,775.000,15.000,19.000,58.000,0.000:

0000
0000
0000
0000
,
0000
0000
0000
0000
,
0000
0000
0000
0000
,
0000
0000
0000
0000
,
0001
0010
0100
1000
0001
0010
0100
2000
0000
3000
0000
0000
0000
0000
1001
0000
,
1001
0000
0000
0000
0000
0000
0110
0000
0000
0000
0110
0000
1001
0000
1000
0100
,
0010
0001
1000
0100
0010
0001
1000
0100
0010
0001
0100
0010
1000
0001
0100
0010
,
1000
0001
0010
0100
1000
0001
0000
1000
0000
0001
0000
1000
0001
0000
0000
0000
,
0001
1000
0001
1000
0001
0010
0100
1000
0010
0100
0001
0010
0100
1000
0100
1000
,
0100
1000
0100
0010
0001
0010
0100
1000
0100
1000
0010
0100
0001
0010
0100
0010
,
0001
1000
0100
0010
0100
1000
0001
0100
0001
0100
0001
0100
0001
0010
0100
0010
,
0100
0010
0100
1000
0001
1000
0001
1000
0010
0100
0001
0000
0001
0000
0001
0000
,
1000
0100
1000
0100
1000
0100
0010
0001
0010
0100
1000
0100
1000
0100
1000
0001
,
1000
0001
1000
0010
0100
0001
0010
0100
0010
0100
1000
0001
1000
0010
0100
0010
,
1000
0001
0010
0001
1000
0001
0100
0001
0100
0001
0100
0001
0010
0100
1000
0100
,
0010
0001
0010
0001
0010
0100
0010
0100
0010
0100
1000
0000
1000
0000
1000
0000
,
0001
0100
0001
0100
0001
0100
0001
0010
0100
0010
0100
0010
0100
1000
0100
1000
,
0100
1000
0100
0010
0001
0010
0100
1000
0010
0100
0001
1000
0100
1000
0100
1000
,
0010
0100
0010
0100
0010
1000
0001
1000
0001
1000
0001
1000
0001
0010
0100
1000
,
0100
0010
0100
1000
0010
0100
0001
0010
0100
1000
0001
0000
0001
0000
0001
0000
,
1000
0001
0100
0001
0100
0001
0010
0100
1000
0001
1000
0010
0100
0001
0010
0001
,
0010
0001
0010
0001
0100
0010
1000
0100
0010
0001
0100
0010
0100
0001
0010
0100
,
1000
0100
0010
0100
1000
0100
0010
0001
0010
0100
0010
0001
0010
0100
1000
0100
,
0010
0100
1000
0001
0100
0010
0000
1000
0000
0010
0000
0100
0001
0000
0000
0000
,
0100
0001
0100
0001
0100
0000
0000
0000
0001
0000
0010
0000
0000
0000
0010
0000
0001
0000
0000
0000
0010
0000
0100
0000
0000
0000
1000
0000
0000
0000
0001
0000
,
0010
0000
0000
0000
0100
0000
0000
0000
0010
0000
0001
0000
1000
0000
0000
0000
1000
0000
0000
0000
0100
0000
0000
0000
1000
0100
1000
0100
1000
0000
0000
0000
,
1000
0100
0010
0001
0010
0000
0100
0000
1000
0000
0100
1000
0100
1000
0010
0100
,
0001
0100
0001
0000
0101
0000
0001
0000
1010
0000
0010
0100
0010
0000
0100
0000
,
0001
0100
0001
0100
0001
0000
0000
0000
0100
0000
0010
0000
0000
0000
0100
0000
0010
0000
0000
0000
1000
0000
0001
0000
0000
0000
0100
0000
0000
0000
0010
0000
,
1000
0000
0000
0000
0100
0000
0000
0000
0010
0000
0001
0000
1000
0000
0000
0000
0010
0000
0000
0000
0100
0000
0000
0000
0001
0100
0001
0100
0001
0000
0000
0000
,
1000
0100
0010
0001
0010
0000
0001
0000
1000
0000
0001
0010
0100
1000
0100
0010
,
0001
1000
0001
0000
0011
0000
0001
0000
0100
0000
0001
1000
0001
0000
1000
0000
,
0001
0100
0001
0100
0001
0000
0000
0000
1000
0000
0100
0000
0000
0000
0010
0000
0001
0000
0000
0000
0010
0000
0100
0000
0000
0000
1000
0000
0000
0000
0001
0000
,
0010
0000
0000
0000
0100
0000
0000
0000
1000
0000
0001
0000
1000
0000
0000
0000
0100
0000
0000
0000
0010
0000
0000
0000
0001
0100
0001
0100
0001
0000
0000
0000
,
0010
0100
1000
0100
0010
0000
0001
0000
1000
0000
1000
0001
0100
0001
0010
0001
,
1000
0001
0010
0000
0110
0000
1000
0000
0001
0000
0100
0010
1000
0000
0001
0000
,
1000
0100
1000
0100
1000
0000
0000
0000
0001
0000
0010
0000
0000
0000
0100
0000
1000
0000
0000
0000
0001
0000
0010
0000
0000
0000
0100
0000
0000
0000
1000
0000
,
0001
0000
0000
0000
0010
0000
0000
0000
0100
0000
1000
0000
0001
0000
0000
0000
0100
0000
0000
0000
0001
0000
0000
0000
0100
0001
0100
0001
0100
0000
0000
0000
,
0001
0100
0010
1000
0010
0000
0100
0000
0001
0000
0010
0000
0001
0000
1000
0000
,
1MM1
MM11
11MM
1MM1
,
1000
0001
2000
3000
0000
0000
0001
1000
0002
0003
0000
0000
1000
0001
2000
0000
,
0000
0000
0000
0000
0000
3000
0000
000M
0M00
00M0
M000
0M00
M000
00M0
0M00
0000
,
0001
0100
0020
0030
0000
0000
1000
0010
0200
0300
0000
0000
0001
1000
0M02
0000
,
M000
0000
0M00
0003
00M0
M000
0000
00M0
1000
0100
0020
0030
0001
2000
3000
0000
,
0001
0010
0200
0300
0000
0000
1000
0100
0020
0030
0000
0000
0001
1000
0002
0003
,
0M00
M000
0M02
00M0
M000
M000
0M00
00M3
0000
M0M0
0M00
000M
M0M0
0M00
000M
0M00
,
1000
0001
2000
3000
0001
0200
0300
0000
0001
1000
0002
0003
2000
3000
0002
0000
,
M000
MM00
0000
00M0
0M00
M003
00M0
0000
11MM
0000
0000
0000
M1M1
0000
0000
0000
,
0001
0100
0010
1000
0100
0010
0001
0010
0100
1000
0001
0100
0010
1000
0100
0010
,
0100
1000
0001
0010
0100
0010
0001
1000
0100
0010
0001
0100
0010
1000
0100
0010
,
0001
0010
0100
1000
0001
0100
0010
1000
0100
0010
0001
1000
0001
0010
0100
1000
,
0001
0100
0001
0100
0001
0000
0100
0000
0001
0000
0100
0000
0010
0000
1000
0000
0100
0000
0010
0000
0001
0000
1000
0000
0001
0000
0100
0000
0010
0000
1000
0000
,
0001
0100
0010
1000
0100
0010
0001
0010
0100
1000
0001
0100
0010
1000
0100
0010
,
0100
1000
0001
0010
0100
0010
0001
1000
0100
0010
0001
0100
0010
1000
0100
0010
,
0001
0010
0100
1000
0001
0100
0010
1000
0100
0010
0001
1000
0001
0010
0100
1000
,
0100
0010
0001
1000
0001
1000
0010
1000
0010
1000
0001
0000
0001
0000
0001
0000
,
1000
0010
0100
0001
1000
0100
0010
0001
1000
0001
0010
0100
1000
0001
0100
0010
,
1000
0001
1000
0100
0010
0001
1000
0001
0100
0010
1000
0001
1000
0010
0100
0001
,
1000
0100
0010
0100
1000
0001
0100
0010
1000
0100
0010
0001
1000
0010
0100
0001
,
1000
0001
1000
0001
1000
0000
0100
0000
0010
0000
0001
0000
1000
0100
1000
0100
1000
0000
0001
0100
0001
0000
1000
0000
1000
0000
0001
0000
0100
0000
0001
0000
,
1000
0100
0010
0001
1000
0001
0010
0100
1000
0001
0100
0010
1000
0001
1000
0010
,
0100
0001
1000
0100
1000
0001
0010
0100
1000
0001
0010
0001
1000
0100
0010
0001
,
1000
0100
1000
0100
1000
0001
0010
0100
1000
0001
0100
0010
1000
0001
0100
0010
,
1000
0100
1000
0100
1000
0000
0100
0000
1000
0000
0001
0000
0100
0001
0100
0001
0100
0000
0010
1000
0010
0000
0100
0000
0100
0000
0010
0000
1000
0000
0002
0000
,
0003
M000
00M0
0M00
000M
M000
00M0
0M00
,
000M
0000
0000
0000
;
