#TITLE:Fer Sure -R3mix-;
#SUBTITLE:Flash Exclusives ^_^;
#ARTIST:Medic Droid (Dj S3rl Remix);
#TITLETRANSLIT:;
#SUBTITLETRANSLIT:;
#ARTISTTRANSLIT:;
#CREDIT:;
#BANNER:fersure-bn.gif;
#BACKGROUND:fersure-bg.gif;
#LYRICSPATH:;
#CDTITLE:;
#MUSIC:Fer Sure - DJ S3RL Remix.ogg;
#OFFSET:-0.172;
#SAMPLESTART:40.234;
#SAMPLELENGTH:12.000;
#SELECTABLE:YES;
#BPMS:0.000=150.000,335.000=300.000,336.000=150.000,348.000=300.000,351.000=150.000,351.500=151.000,352.000=150.000,359.000=300.000,359.500=150.000,366.750=299.900,367.000=150.000;
#STOPS:335.000=0.100
,335.500=0.100
,348.000=0.100
,348.500=0.100
,349.000=0.100
,349.500=0.100
,350.000=0.040
,350.250=0.040
,350.500=0.120
,359.000=0.060
,359.250=0.040
,366.750=0.040
;
#BGCHANGES:;
// cache tags:
#FIRSTBEAT:0.000;
#LASTBEAT:498.000;
#SONGFILENAME:Songs/lvsb tourney pack/[]Flash[] Fer Sure - DJ S3RL Remix-ITGREADY/Fer Sure - DJ S3RL Remix.sm;
#HASMUSIC:1;
#HASBANNER:0;
#MUSICLENGTH:105.000;
// end cache tags

//---------------dance-single - Awesomeness----------------
#NOTES:
     dance-single:
     Awesomeness:
     Challenge:
     12:
     1.000,1.000,0.105,0.886,1.000,1334.000,11.000,93.000,0.000,0.000:

0010
0000
0002
0000
0100
0003
0100
0000
0010
0000
1000
0000
0200
0000
0000
0000
,
1300
0000
0200
0000
0010
0000
0300
0000
0021
0000
0000
0030
0002
0000
0000
0000
,
0003
0001
0000
0002
0000
0000
0103
0000
,
0020
0000
0000
0000
2030
0000
0000
0000
3002
0000
0000
0000
4000
0003
0000
0000
,
3001
0000
1000
0100
1000
0000
0100
0010
0100
0000
0010
0001
0010
0000
0001
0100
,
0001
0000
1000
0010
1000
0000
0010
0100
0010
0000
1000
0001
1000
0000
0100
0010
,
0001
0000
0010
0001
0100
0000
0010
1000
0001
0000
1000
0001
0100
0000
0001
1000
,
0100
0000
0010
0001
1000
0000
0001
1000
0010
0000
0010
1000
0100
0010
0100
1000
,
0001
0000
1000
0001
0100
0000
0001
0100
0001
0000
1000
0010
1000
0000
0010
0100
,
0010
0000
1000
0001
1000
0000
0100
0010
0100
0000
0010
0001
1000
0001
0010
0001
,
1000
0000
0010
0100
0010
0000
1000
0001
0010
0000
0100
1000
0100
0000
0010
0000
,
0001
1000
0001
2000
0000
3000
0001
1000
,
0001
0000
0001
0100
0001
0000
1000
0010
1000
0000
0001
1000
0001
0000
1000
0100
,
1000
0000
0100
0010
0100
0000
0010
0001
0010
0000
0001
0100
0001
1000
0010
1000
,
0001
0001
1000
0100
1000
1000
0100
0010
,
1000
0000
0010
0000
0001
0000
1000
0000
0001
0000
0001
0000
0100
0001
0100
0001
,
2000
0000
3000
0100
0010
0001
2000
0001
,
0000
3002
0000
0103
0010
1000
0002
1000
,
0000
0003
2000
0000
0000
0000
3000
0000
0100
0000
0010
0000
0001
0000
0010
0000
,
0000
0200
0000
0310
0000
0200
1000
0000
,
1300
0000
0001
0100
0001
0000
1000
0010
1000
0000
0001
0100
0001
0000
1000
0100
,
1000
0000
0100
0010
0100
0000
0010
0001
0010
0000
0001
0100
0010
1000
0001
0100
,
0001
1000
0010
0100
0001
0000
2000
0000
,
3001
0000
0010
0000
0100
0000
1000
0000
0100
0000
0000
0000
2001
0000
0000
3000
,
0001
0000
0100
0010
1000
0000
0010
1000
0010
0000
0100
0010
1000
0000
0001
1000
,
0100
0000
0010
0100
1000
0000
0100
0010
0001
0000
0010
0001
1000
0001
0100
0001
,
1000
0000
0010
0100
0010
0000
1000
0001
1000
0000
0100
0010
0100
0000
0010
0001
,
0010
0000
0001
0100
0001
0000
1000
0001
1000
0000
0010
0100
0001
1000
0100
0010
,
0100
0000
1000
0001
1000
0000
0001
0010
0001
0000
0010
0100
0010
0000
0100
1000
,
0100
0000
1000
0010
0100
0000
0001
1000
0100
0000
0010
0100
1000
0001
0100
0001
,
1000
0001
0010
0100
1000
0000
1000
0000
,
0010
0100
0001
0100
0001
0000
0110
0000
,
0010
1000
0100
0100
0010
0001
0200
0000
,
0301
1000
0100
0000
4100
0000
3001
0000
,
1000
0000
0001
0100
0001
0000
1000
0000
1000
0000
0100
0000
0010
0000
0001
0000
,
1000
0000
0001
0100
0001
0000
1000
0010
1000
0000
0010
0100
0010
0000
1000
0100
,
0020
0000
0000
0030
0002
0000
1003
0200
,
0000
0000
0320
0001
0030
0200
0000
0020
,
0300
0000
0000
0000
2030
0000
0200
3000
0000
0000
0020
0000
0300
0000
0002
0000
,
0030
0000
0000
0000
0203
0000
0020
0300
0000
0000
2000
0000
0030
0000
3100
0000
,
1000
0100
0010
0001
2000
0000
3001
0200
,
0000
0000
0000
0300
0020
0000
0200
0000
0030
0000
2000
0000
0300
0000
3200
0000
,
0000
0000
0000
0300
0010
0000
2000
0000
0000
0000
3200
0000
0000
0000
0020
0300
,
0000
0000
0000
0030
0100
0000
0002
0000
0000
0003
0100
0000
0020
0000
0000
0030
,
0001
0010
0100
1000
0010
0100
0001
1000
0100
0010
0100
0010
0100
1000
0010
0100
,
0001
1000
0100
0010
0100
1000
0100
1000
0001
1000
0001
0010
0001
1000
0001
0100
,
0001
1000
0001
0100
0010
1000
0010
1000
0100
1000
0100
0010
0100
0010
0001
0010
,
0001
1000
0010
0100
0001
1000
0100
0010
0100
1000
0001
0010
0001
1000
0001
0100
,
0010
0100
0010
1000
0010
1000
0100
0010
0001
1000
0001
0010
0100
1000
0100
0010
,
0001
1000
0001
0010
0100
0010
0001
1000
0001
0100
0010
1000
0100
0010
0001
1000
,
0001
1000
0001
0100
0001
0100
0001
1000
0010
1000
0010
0100
0010
0100
0010
1000
,
0100
1000
0100
0010
0100
0010
0001
1000
0001
0010
0100
1000
0010
0100
0001
1000
,
0100
0010
0001
1000
0010
0100
0001
0010
0100
1000
0001
0010
0001
0100
0010
1000
,
0100
0010
0001
0100
0010
1000
0100
0010
0001
0010
0001
1000
0001
0010
0001
0100
,
0010
1000
0100
0010
0001
1000
0001
0100
0001
1000
0100
0010
0001
1000
0010
0100
,
0001
1000
0100
0010
0100
1000
0001
0100
0001
1000
0100
0010
0001
1000
0001
1000
,
0010
0100
0001
1000
0100
0010
0100
1000
0100
0010
0001
1000
0010
0100
0001
1000
,
0100
0010
0001
1000
0001
0100
0001
0010
0100
1000
0010
0100
0010
1000
0001
1000
,
0001
0010
0100
1000
0100
0010
0100
1000
0001
0100
0010
0100
0010
1000
0010
1000
,
0100
0010
0100
0001
0100
0010
0100
1000
0001
0100
0010
0100
1000
0100
0001
1000
,
0100
0000
0000
0000
0100
0000
2000
0000
0000
3000
0020
0000
0000
0030
2000
0000
,
0000
3000
0200
0000
0000
0300
0020
0000
0000
0000
0031
0000
0100
0000
0020
0000
,
0000
0000
2030
0000
0000
0000
3200
0000
0000
0300
0100
0000
0010
0000
0002
0000
,
0000
0003
0002
0103
0020
0000
1030
0000
,
0001
0010
0100
0010
0001
0010
0100
0010
0001
0010
0100
0010
0001
1000
0001
1000
,
0010
0000
0000
0010
2000
0000
3002
0003
,
1000
0010
0100
0010
1000
0010
0100
0010
1000
0010
0100
0001
1000
0100
0010
0001
,
1000
0000
0001
0010
0200
0000
1300
0000
,
0100
0010
0001
1000
0001
0100
0010
1000
0001
0010
0100
1000
0100
0010
0001
1000
,
0001
0100
0010
1000
0100
0010
0001
0100
0001
0010
0001
0100
0001
0010
0001
0100
,
0010
1000
0100
1000
0010
1000
0100
1000
0001
0100
0001
1000
0001
0010
0001
1000
,
0001
0100
0001
0010
0100
1000
0010
0100
0001
1000
0001
0010
0100
1000
0100
0010
,
0001
1000
0001
0100
0001
1000
0100
1000
0010
0100
0001
1000
0100
0010
0100
1000
,
0100
0010
0100
1000
0001
0100
0010
0100
0001
0100
0001
1000
0100
0010
0100
1000
,
0001
0100
0001
0100
0001
0100
0001
0100
0010
1000
0010
1000
0010
1000
0010
1000
,
0100
0010
0001
0100
0001
1000
0001
0010
0100
1000
0010
0100
0001
1000
0100
0010
,
0100
0100
1000
0001
0100
0100
0010
0000
,
1001
0002
0010
0003
0002
0003
2000
3000
,
0000
0200
0000
0320
0000
0030
0002
0000
,
0003
0002
0000
2003
0000
3000
0001
1000
,
0001
0000
0100
0001
0100
0000
0001
1000
0001
0000
1000
0010
1000
0000
0010
0100
,
0010
0000
1000
0001
1000
0000
0001
0010
0001
0000
0010
0100
0010
0100
1000
0100
,
1000
0000
0001
0100
0001
0000
1000
0010
0100
0000
0001
1000
0001
0000
1000
0100
,
0010
0000
0000
0000
0001
0000
1000
0000
0001
0000
0000
0000
0001
0000
1000
0000
0010
0000
0000
0000
1000
0000
0100
0000
0020
0030
0000
0000
0020
0030
0000
0000
,
0020
0030
0000
0000
0001
0000
1000
0000
0100
0000
0000
0000
1000
0000
0100
0000
0010
0000
0000
0000
0001
0000
0010
0000
0100
0000
0000
0000
0010
0000
0001
0000
,
1000
0000
0001
0100
0010
0000
1000
0010
0100
0000
0001
1000
0100
0010
0100
0010
,
0100
0000
0010
0001
0100
0000
0001
1000
0010
0000
0100
0001
1000
0000
0100
0010
,
0001
0000
0000
0000
0000
0000
0010
0000
0000
0000
0000
0000
0001
0000
0000
0000
0000
0000
1000
0000
0000
0000
0000
0000
0010
0000
0000
0100
0000
0000
0010
0000
0000
0000
0000
0000
1000
0000
0100
0000
1000
0000
0100
0000
0000
0000
0000
0000
,
0010
0010
0001
0001
0100
0100
0010
1000
,
0001
0000
1000
0000
0001
0000
1000
0000
0100
0000
0000
0000
1000
0001
1000
0000
,
0001
0100
0010
0100
0010
0100
0001
1000
,
0100
0000
0010
0000
0001
0000
0100
0000
1001
0000
0000
1000
0100
0000
0000
0000
,
0010
0001
0100
0010
2010
3000
1100
0100
,
0010
0001
0100
0001
1001
0001
1000
0000
,
0100
0100
0010
0010
0001
0001
1000
0001
,
4000
0004
0000
0000
0000
0000
0000
0000
0000
0000
0000
0000
3003
0000
0000
0000
,
1000
0100
0010
0001
0100
0001
0010
0001
1000
0010
0100
0001
1000
0001
0010
0100
,
1000
0100
0010
0100
1000
0001
0100
0001
1000
0001
0010
0001
0010
0001
0100
0001
,
1000
0001
1000
0010
0100
0010
0100
0010
1000
0001
0100
0001
1000
0001
1000
0100
,
0010
0100
0010
0001
0010
0001
0010
0100
1000
0010
0100
0001
1000
0100
0010
0001
,
1000
0001
0100
0001
0010
0001
0100
0001
0010
0001
0100
0001
0010
0001
0100
0001
,
1000
0010
1000
0100
1000
0010
1000
0100
1000
0010
1000
0010
1000
0001
1000
0100
,
0010
0001
1000
0100
0010
0001
1000
0010
0100
0001
1000
0010
0100
0001
1000
0010
,
1000
0001
1000
0100
0010
0001
0100
0001
0010
0100
1000
0010
0100
0001
1000
0100
,
0010
0001
1000
0001
0100
0001
0010
0001
1000
0001
0100
0001
1000
0001
0100
0001
,
1000
0010
1000
0001
1000
0100
1000
0001
1000
0100
1000
0100
1000
0001
1000
0010
,
0100
0001
1000
0100
0010
0001
0100
0001
0010
0001
0100
0001
1000
0010
0100
0001
,
1000
0100
0010
0001
1000
0100
0010
0001
1000
0100
0010
0100
1000
0100
0010
0001
,
1000
0001
0100
0010
0100
0001
0100
0010
1000
0001
0010
0001
1000
0001
0100
0001
,
1000
0001
1000
0100
1000
0001
1000
0001
0010
0001
1000
0100
0010
0001
0010
0001
,
0100
0001
1000
0010
0100
0001
1000
0001
0010
0100
1000
0100
0010
0100
0001
0100
,
0010
0100
0001
0100
0010
0001
0100
0010
0100
1000
0100
0010
0100
1000
0100
0001
,
1000
0000
0000
0000
0001
0000
2000
0000
0000
3000
0002
0000
0000
0003
0200
0000
,
0000
0300
0020
0000
0000
0000
2030
0000
0000
3000
0100
0000
0010
0000
0002
0000
,
0000
0003
0002
0000
0000
0000
0203
0000
0000
0300
0001
0000
0100
0000
0020
0000
,
0000
0000
0000
0000
0030
0000
1000
0000
0200
0000
0000
0000
0320
0000
0000
0030
,
0001
0010
0100
1000
0010
0100
0001
1000
0100
0010
0100
1000
0100
0010
0001
1000
,
0001
0100
0010
1000
0010
1000
0100
0010
0001
0100
0001
0010
0001
1000
0100
1000
,
0010
0100
0001
1000
0100
0010
0001
1000
0001
0010
0100
1000
0001
0100
0010
1000
,
0100
0010
0001
0010
0100
1000
0001
0100
0010
1000
0100
1000
0001
0100
0010
1000
,
0002
0000
0003
0000
0001
0000
0200
0000
0000
0300
0020
0000
0000
0030
2000
0000
,
0000
3000
0200
0000
0000
0300
0020
0000
0000
0030
0001
0000
1000
0000
0020
0000
,
0000
0000
0000
0030
0100
0000
0002
0000
0000
0000
1000
0003
0100
0000
0020
0000
,
0000
0000
0000
0000
0000
0030
0100
0000
0020
0000
0000
0000
0002
0030
0000
0000
,
2000
0000
3003
0000
;
