#TITLE:Intro Stage_X;
#SUBTITLE:(Megaman X4);
#ARTIST:Capcom Sound Team;
#TITLETRANSLIT:;
#SUBTITLETRANSLIT:;
#ARTISTTRANSLIT:;
#CREDIT:Jason D. Gersztyn;
#BANNER:Intro Stage-banner.JPG;
#BACKGROUND:Intro Stage-bg.jpg;
#LYRICSPATH:;
#CDTITLE:PhoenixW-cdtitle.JPG;
#MUSIC:04 - X4 - OPENING STAGE_X.mp3;
#OFFSET:-0.054;
#SAMPLESTART:34.822;
#SAMPLELENGTH:12.000;
#SELECTABLE:YES;
#BPMS:0.000=157.117;
#STOPS:;
#BGCHANGES:;
// cache tags:
#FIRSTBEAT:1.000;
#LASTBEAT:308.500;
#SONGFILENAME:Songs/keyboard/04 - X4 - OPENING STAGE_X/04 - X4 - OPENING STAGE_X.sm;
#HASMUSIC:1;
#HASBANNER:1;
#MUSICLENGTH:122.600;
// end cache tags

//---------------dance-single - ----------------
#NOTES:
     dance-single:
     :
     Hard:
     9:
     0.601,0.786,0.424,0.759,0.094,371.000,52.000,93.000,36.000,16.000:
0000
0000
1000
0000
0001
0010
0000
0100
,
1000
0010
1000
0000
0001
0000
0010
0000
0001
0000
0010
0000
0100
0000
1000
0000
,
0001
0100
0010
1000
0010
1000
0001
0100
,
0010
1000
0001
0100
0001
0100
0010
1000
,
0001
0010
0100
1000
0100
1000
0010
0001
,
0010
1000
0010
0100
0010
0100
0001
0010
,
0100
1000
0010
0001
0010
0001
0100
0010
,
1000
0001
0100
0010
0100
0010
1000
0100
,
0001
0010
0100
1000
0100
1000
0001
0100
,
0001
1000
0010
0000
0200
0000
0000
0302
,
0000
0113
0000
0000
2000
0000
0000
3020
,
0000
1031
0000
0000
0002
0000
0000
0023
,
0000
0230
0000
0000
0000
0000
2300
0000
,
0010
0100
0010
0000
0100
0000
3000
0000
0020
0000
0000
0000
0000
0000
0230
0000
,
0000
0311
0000
0000
0200
0000
0000
0320
,
0000
1130
0000
0000
0002
0000
0000
2003
,
0000
0000
3020
0000
0000
0000
0000
0000
0000
0000
2030
0000
0001
0100
0001
0000
,
0010
0100
0010
0000
3100
0000
0000
0000
0110
0000
0000
0000
0101
0000
0000
0000
,
1010
0000
0000
0000
0110
0000
0000
0000
1001
0000
0000
0000
0000
1000
000M
0000
,
0100
0000
0010
0000
2002
0000
0000
0000
0000
0000
3000
0000
0103
M000
0000
0010
,
000M
1000
0202
0000
0000
0000
00M3
0000
,
0320
2030
00M0
3002
,
0000
0000
0013
0000
0220
0000
0000
0000
0000
0000
0330
0000
0001
0000
0000
0100
,
0000
0000
0010
0000
2020
0000
0000
0000
0000
0000
3000
0000
0130
0000
00M0
0001
,
0000
0010
0022
0000
0000
0000
0003
0000
,
0230
23M0
0000
3002
,
0000
0103
0220
0000
0000
0330
2000
0000
,
0000
3020
0000
0M00
,
0130
0001
2000
0000
0M00
0000
0000
0000
,
3010
0100
0002
0000
0000
0000
00M0
0000
,
0013
0100
2000
0000
00M0
0000
3020
0000
,
0000
0M30
0201
0000
,
0310
1000
0002
0000
0000
0000
M000
0000
,
1003
0010
0200
0000
000M
0000
2310
0000
,
0000
3011
M101
0011
,
2002
0000
3003
0010
0001
0010
0100
1000
,
0010
0100
0001
0010
0001
0010
0100
1000
,
0001
0100
1000
0001
1000
0001
0010
0100
,
1000
0001
0100
0010
0100
0010
1000
0010
,
0100
0001
0010
1000
0010
1000
0100
0001
,
0010
0100
1000
0010
1000
0010
0100
0001
,
0010
0100
1000
0001
1000
0001
0100
0010
,
1000
0100
0001
0010
0001
0010
0100
0010
,
1000
0000
0001
0000
1000
0000
0100
0000
1000
0000
0100
0000
0000
0010
0M00
0000
,
0001
0000
1000
0000
0220
0000
0001
0000
0000
0001
0030
0000
0310
000M
0000
0100
,
M000
0001
2020
0000
0000
0000
3M00
0000
,
0230
0302
0M00
2003
,
0000
0000
3100
0000
0220
0000
0000
0000
0000
0000
0330
0000
1000
0000
0000
0010
,
0000
0000
0100
0000
0202
0000
1000
0000
0000
1000
0003
0000
0310
0000
0M00
1000
,
0000
0100
2200
0000
0000
0000
3000
0000
,
0320
0M32
0000
2003
,
0000
3010
0220
0000
0000
0330
0002
0000
,
0000
0203
0000
00M0
,
0310
1000
0002
0000
00M0
0000
0000
0000
,
0103
0010
2000
0000
0000
0000
0M00
0000
,
3100
0010
0002
0000
0M00
0000
0203
0000
,
0000
03M0
1020
0000
,
0130
0001
2000
0000
0000
0000
000M
0000
,
3001
0100
0020
0000
M000
0000
0132
0000
,
0000
1013
11M0
1010
,
2002
0000
3003
0000
02M0
0000
0000
0020
,
0000
1331
0000
0000
200M
0000
0000
0002
,
0000
3113
0000
0000
2000
0000
0000
3020
,
0000
0032
0000
0000
00M0
0000
0203
0000
,
0000
0000
0300
0000
002M
0000
0000
2000
,
0000
3131
0000
0000
M002
0000
0000
0020
,
0000
1133
0000
0000
0200
0000
0000
0302
,
0000
0023
0000
0000
0M00
0000
2030
0000
,
0000
0000
3000
0010
1010
1000
1100
0100
,
0110
0010
0011
0001
0101
0100
0110
0010
,
1000
0100
1000
0000
1001
0000
0001
0000
0011
0000
0010
0000
1010
0000
0010
0000
,
0110
0000
0100
0000
1100
0000
0100
0000
0101
0000
0100
0000
0010
1000
0010
0000
,
0100
0001
0100
0000
1001
0000
1000
0000
0010
0000
0100
0000
0001
0000
0010
0000
,
0100
0010
0101
0010
1000
0100
0001
0010
,
1000
0100
1010
1000
0100
0001
0100
1000
,
0010
0000
0100
0000
0001
0000
1000
0000
0010
0000
0001
0000
0010
0000
1000
0010
,
1000
0010
1000
0010
1000
0010
2000
0000
0000
0000
0000
0000
0000
0000
0000
0000
,
0000
3000
0000
0000
0000
0000
0000
0000
;

//---------------dance-single - Copied from----------------
#NOTES:
     dance-single:
     Copied from:
     Medium:
     7:
     0.523,0.661,0.522,0.832,0.069,283.000,64.000,102.000,0.000,4.000:
0000
0000
0000
0000
1001
0000
0000
0000
0110
0000
0000
0000
1001
0000
0100
0010
,
0100
0010
0100
0000
0000
0000
0000
0000
1001
0000
0000
0000
1010
0000
0000
0000
,
1100
0101
0011
1001
,
0110
0011
0110
1100
,
1001
0000
0000
0000
0110
0000
0000
0000
0101
0000
0000
0000
1001
0000
0010
1000
,
0100
0010
0001
0000
1001
0000
0000
0000
1010
0000
0000
0000
0110
0000
0000
0000
,
1100
1001
0011
0110
,
0101
1010
1001
1100
,
1001
0000
0000
0000
0011
0000
0000
0000
0110
0000
0000
0000
1000
0001
1000
0000
,
0100
0010
0100
0000
0000
0000
0000
0000
0200
0000
0000
0000
0000
0000
0302
0000
,
0000
0103
0000
0000
2000
0000
0000
3020
,
0000
0031
0000
0000
0002
0000
0000
0023
,
0000
0230
0000
0000
0000
0000
2300
0000
,
0010
0010
0100
3000
0020
0000
0000
0230
,
0000
0301
0000
0000
0200
0000
0000
0320
,
0000
1030
0000
0000
0002
0000
0000
2003
,
0000
3020
0000
0000
0000
2030
0001
0001
,
0010
0010
3100
0000
0110
0000
0101
0000
,
1010
0000
0000
0000
0110
0000
0000
0000
1001
0000
0000
0000
0000
1000
0000
0000
,
0100
0000
0010
0000
2002
0000
0000
0000
0000
0000
3000
0000
0103
0000
0000
0010
,
0000
1000
0202
0000
0000
0000
0003
0000
,
0320
2030
0000
3002
,
0000
0000
0013
0000
0220
0000
0000
0000
0000
0000
0330
0000
0001
0000
0000
0100
,
0000
0000
0010
0000
2020
0000
0000
0000
0000
0000
3000
0000
0130
0000
0000
0001
,
0000
0010
0022
0000
0000
0000
0003
0000
,
0230
2300
0000
3002
,
0000
0103
0220
0000
0000
0330
2000
0000
,
0000
3020
0000
0000
,
0130
0001
2000
0000
0000
0000
0000
0000
,
3010
0100
0002
0000
0000
0000
0000
0000
,
0013
0100
2000
0000
0000
0000
3020
0000
,
0000
0030
0201
0000
,
0310
1000
0002
0000
0000
0000
0000
0000
,
1003
0010
0200
0000
0000
0000
2310
0000
,
0000
3011
0101
0011
,
2002
0000
3003
0000
0020
0000
0000
0100
,
0000
0031
0000
0000
0002
0000
0000
1000
,
0000
0013
0000
0000
0002
0000
0000
0203
,
0000
2300
0000
0000
0000
0000
3020
0000
,
0000
0000
0030
0000
0200
0000
0000
0001
,
0000
0310
0000
0000
2000
0000
0000
0100
,
0000
3010
0000
0000
0020
0000
0000
2030
,
0000
3200
0000
0000
0000
0000
0302
0000
,
0000
0000
0000
0000
0003
0000
0000
0000
0000
0000
0000
0000
0000
0010
0000
0000
,
0001
0000
1000
0000
0220
0000
0000
0000
0000
0000
0030
0000
0310
0000
0000
0100
,
0000
0001
2020
0000
0000
0000
3000
0000
,
0230
0302
0000
2003
,
0000
0000
3100
0000
0220
0000
0000
0000
0000
0000
0330
0000
1000
0000
0000
0010
,
0000
0000
0100
0000
0202
0000
0000
0000
0000
0000
0003
0000
0310
0000
0000
1000
,
0000
0100
2200
0000
0000
0000
3000
0000
,
0320
0032
0000
2003
,
0000
3010
0220
0000
0000
0330
0002
0000
,
0000
0203
0000
0000
,
0310
1000
0002
0000
0000
0000
0000
0000
,
0103
0010
2000
0000
0000
0000
0000
0000
,
3100
0010
0002
0000
0000
0000
0203
0000
,
0000
0300
1020
0000
,
0130
0001
2000
0000
0000
0000
0000
0000
,
3001
0100
0020
0000
0000
0000
0132
0000
,
0000
1013
1100
1010
,
2002
0000
3003
0000
0200
0000
0000
0010
,
0000
0301
0000
0000
2000
0000
0000
0001
,
0000
3010
0000
0000
2000
0000
0000
3020
,
0000
0032
0000
0000
0000
0000
0203
0000
,
0000
0000
0300
0000
0020
0000
0000
0001
,
0000
0130
0000
0000
0002
0000
0000
0010
,
0000
1003
0000
0000
0200
0000
0000
0302
,
0000
0023
0000
0000
0000
0000
2030
0000
,
0000
0000
3000
0010
1000
0100
1000
0010
,
0100
0001
0010
0001
0100
0010
1000
0001
,
1000
0100
1000
0000
0010
0000
0100
0000
0001
0000
0010
0000
0100
0000
1000
0000
,
0010
0000
0100
0000
0001
0000
1000
0000
0010
0000
0100
0000
0010
1000
0010
0000
,
0100
0001
0100
0000
1001
0000
1000
0000
0010
0000
0100
0000
0001
0000
0010
0000
,
0100
0010
0101
0010
1000
0100
0001
0010
,
1000
0100
1010
1000
0100
0001
0100
1000
,
0010
0100
0001
1000
0100
0010
2020
0000
,
0000
0000
0000
0000
,
0000
3030
0000
0000
0000
0000
0000
0000
;

//---------------dance-single - Copied from----------------
#NOTES:
     dance-single:
     Copied from:
     Easy:
     5:
     0.417,0.472,0.277,0.914,0.033,212.000,34.000,112.000,0.000,5.000:
0000
0000
1000
0000
0010
0100
0000
0100
,
0001
1001
0200
0000
0000
0000
0000
0000
,
0000
0320
0000
0000
,
0000
2030
0000
0000
,
0000
3002
0000
0200
,
0000
0323
0000
0000
,
0000
2030
0000
0000
,
0000
3002
0000
0000
,
0000
2003
0000
0200
,
0000
0000
3300
0000
0200
0000
0000
0302
,
0000
0103
0000
0000
2000
0000
0000
3020
,
0000
0031
0000
0000
0002
0000
0000
0023
,
0000
0230
0000
0000
0000
0000
2300
0000
,
0000
0000
0000
3000
0020
0000
0000
0230
,
0000
0301
0000
0000
0200
0000
0000
0320
,
0000
1030
0000
0000
0002
0000
0000
2003
,
0000
3020
0000
0000
0000
2030
0000
0000
,
0000
3000
0110
0101
,
1010
0000
0000
0000
0110
0000
0000
0000
1001
0000
0000
0000
0000
1000
0000
0000
,
0100
0000
0010
0000
2002
0000
0000
0000
0000
0000
3000
0000
0103
0000
0000
0010
,
0000
1000
0202
0000
0000
0000
0003
0000
,
0320
2030
0000
3002
,
0000
0000
0013
0000
0220
0000
0000
0000
0000
0000
0330
0000
0001
0000
0000
0100
,
0000
0000
0010
0000
2020
0000
0000
0000
0000
0000
3000
0000
0130
0000
0000
0001
,
0000
0010
0022
0000
0000
0000
0003
0000
,
0230
2300
0000
3002
,
0000
0103
0220
0000
0000
0330
2000
0000
,
0000
3020
0000
0000
,
0130
0001
2000
0000
0000
0000
0000
0000
,
3010
0100
0002
0000
0000
0000
0000
0000
,
0013
0100
2000
0000
0000
0000
3020
0000
,
0000
0030
0201
0000
,
0310
1000
0002
0000
0000
0000
0000
0000
,
1003
0010
0200
0000
0000
0000
2310
0000
,
0000
3011
0101
0011
,
2002
0000
3003
0000
0020
0000
0000
0100
,
0000
0031
0000
0000
0002
0000
0000
1000
,
0000
0013
0000
0000
0002
0000
0000
0203
,
0000
2300
0000
0000
0000
0000
3020
0000
,
0000
0000
0030
0000
0200
0000
0000
0001
,
0000
0310
0000
0000
2000
0000
0000
0100
,
0000
3010
0000
0000
0020
0000
0000
2030
,
0000
3200
0000
0000
0000
0000
0302
0000
,
0000
0000
0000
0000
0003
0000
0000
0000
0000
0000
0000
0000
0000
0010
0000
0000
,
0001
0000
1000
0000
0220
0000
0000
0000
0000
0000
0030
0000
0310
0000
0000
0100
,
0000
0001
2020
0000
0000
0000
3000
0000
,
0230
0302
0000
2003
,
0000
0000
3100
0000
0220
0000
0000
0000
0000
0000
0330
0000
1000
0000
0000
0010
,
0000
0000
0100
0000
0202
0000
0000
0000
0000
0000
0003
0000
0310
0000
0000
1000
,
0000
0100
2200
0000
0000
0000
3000
0000
,
0320
0032
0000
2003
,
0000
3010
0220
0000
0000
0330
0002
0000
,
0000
0203
0000
0000
,
0310
1000
0002
0000
0000
0000
0000
0000
,
0103
0010
2000
0000
0000
0000
0000
0000
,
3100
0010
0002
0000
0000
0000
0203
0000
,
0000
0300
1020
0000
,
0130
0001
2000
0000
0000
0000
0000
0000
,
3001
0100
0020
0000
0000
0000
0132
0000
,
0000
1013
1100
1010
,
2002
0000
3003
0000
0200
0000
0000
0010
,
0000
0301
0000
0000
2000
0000
0000
0001
,
0000
3010
0000
0000
2000
0000
0000
3020
,
0000
0032
0000
0000
0000
0000
0203
0000
,
0000
0000
0300
0000
0020
0000
0000
0001
,
0000
0130
0000
0000
0002
0000
0000
0010
,
0000
1003
0000
0000
0200
0000
0000
0302
,
0000
0023
0000
0000
0000
0000
2030
0000
,
0000
3001
0001
0010
,
0100
1000
1000
0001
,
0010
0100
0100
0010
,
1000
0010
0010
0100
,
0001
1001
0001
0100
,
0010
0110
0010
0100
,
0001
0101
0100
0010
,
0100
0001
1000
2020
,
0000
0000
0000
0000
,
0000
3030
0000
0000
0000
0000
0000
0000
;
