#TITLE:Destiny lovers;
#SUBTITLE:;
#ARTIST:くにたけみゆき;
#TITLETRANSLIT:;
#SUBTITLETRANSLIT:;
#ARTISTTRANSLIT:Kunitake Miyuki;
#CREDIT:;
#BANNER:Destiny Lovers.png;
#BACKGROUND:Destiny lovers-bg.png;
#LYRICSPATH:;
#CDTITLE:!cartoonTitle.png;
#MUSIC:Destiny Lovers.mp3;
#OFFSET:-0.960;
#SAMPLESTART:35.087;
#SAMPLELENGTH:12.000;
#SELECTABLE:YES;
#BPMS:0.000=170.000;
#STOPS:;
#BGCHANGES:;
// cache tags:
#FIRSTBEAT:8.000;
#LASTBEAT:256.750;
#SONGFILENAME:Songs/Definitive Keyboard Megapack/Destiny Lovers(Cartoon)/Destiny Lovers.sm;
#HASMUSIC:1;
#HASBANNER:1;
#MUSICLENGTH:96.293;
// end cache tags

//---------------dance-single - ----------------
#NOTES:
     dance-single:
     :
     Easy:
     10:
     1.000,1.000,1.000,0.561,1.000,622.000,239.000,54.000,0.000,98.000:

0000
0000
0000
0000
,
0000
0000
0000
0000
,
1011
0100
0111
0000
1110
1000
1101
0000
,
0001
0100
0001
1000
0001
0000
1000
0010
1000
0001
1000
0000
0010
0000
0100
0000
,
0001
0100
0100
0200
0000
0300
0010
1000
,
0001
0100
0100
0200
0000
0300
0100
0001
,
1000
0000
0000
0000
0110
0000
0000
0000
0000
0000
0100
0000
0020
0000
0000
0030
,
1010
0100
1010
0001
1010
0000
0101
0010
0101
1000
0101
0000
0010
0000
0100
0000
,
0110
1001
0110
1001
0110
0000
1001
0110
1001
0110
1001
0000
0001
0000
0100
0000
,
0011
1100
0011
1100
0011
0000
1100
0011
1100
0011
1100
0000
0010
0000
0100
0000
,
0011
1000
0110
0001
1100
0000
1100
0001
0110
1000
0011
0000
0001
0000
1000
0000
,
1010
0000
0000
0000
0000
0000
0000
0001
1000
0001
1000
0001
1000
0001
1000
0020
,
1131
0011
0110
1001
1100
0011
0110
0011
,
0110
1100
0011
0110
0101
1100
0011
1100
,
0110
0011
0110
0011
1100
0011
1001
0110
,
0110
0110
0011
1100
1100
0110
1001
0110
,
0011
1001
0110
0101
0011
0011
1100
1010
,
0110
1010
0110
1010
0101
0011
0101
1100
,
1111
0000
1111
0110
1111
0000
0111
0000
,
1110
0000
1111
1001
1111
0000
1100
0000
,
1011
0011
0110
1001
0110
0101
1100
0110
,
1111
0110
1010
0101
0011
1100
0011
1010
,
1111
0110
0011
1010
1010
0011
0110
1001
,
1111
1001
0110
0011
0101
0110
1001
0110
,
1111
0011
0110
1001
0110
1010
0101
0011
,
1111
0110
0011
0011
0110
1001
0110
1010
,
1111
0000
1111
0110
1111
0000
1011
0000
,
1011
0000
1111
1100
1111
2200
0000
0000
,
3311
1000
1101
0100
0111
1000
1110
1000
,
0111
1000
1011
0010
1101
1000
0111
1000
,
0111
0100
1110
0100
1011
0100
1101
0001
,
2211
0000
0000
3322
0000
0000
2233
0000
,
3311
0010
1101
0010
0111
1000
1101
0001
,
1101
0100
1011
0100
1011
1000
0111
0001
,
1101
0000
0001
1000
0001
0000
0111
0000
1000
0001
1000
0000
1110
0001
1000
0000
,
0220
0000
0000
0000
0000
0000
0000
0000
0000
0000
0000
0000
0000
0000
0000
0000
0000
0000
0000
0000
0000
0000
0000
0000
0000
0000
0000
0000
0330
0000
0000
0000
0000
0000
0000
0000
0000
0000
0000
0000
0000
0000
0000
0000
0000
0000
0000
0000
0002
0003
0000
0000
0000
0000
0000
0000
2000
3000
0000
0000
0001
0000
0000
0000
,
1110
0001
0010
0100
1000
0100
1011
0100
0010
0100
0001
1000
0010
0001
0010
0100
,
1011
0100
0010
0100
0010
0001
1110
0001
0010
0001
0010
0100
1000
0001
0010
1000
,
0111
1000
0010
0100
0001
0010
0100
0010
1101
0010
0100
1000
0100
0010
0100
0010
,
1101
0010
0100
1000
0100
0010
1101
0010
0100
0010
1000
0100
1011
0100
0001
0010
,
1101
0010
0100
0010
0100
1000
0111
1000
0010
0100
1000
0100
0010
0100
1000
0100
,
1011
0100
0010
0100
1000
0001
1110
0001
1000
0100
0010
0001
0010
0001
1000
0010
,
1101
0010
0001
0100
1000
0100
0010
0001
1110
0001
1000
0010
0001
0200
0000
0300
,
2012
0000
0000
0000
0100
0000
0000
0000
0010
0000
0000
0000
0100
0000
0000
0000
0010
0000
0000
0000
0000
0000
0000
0000
0010
0000
0000
0000
0100
0000
0000
0000
0010
0000
0000
0000
0100
0000
0000
0000
3013
0000
0000
0000
0000
0000
0000
0000
0000
0000
0000
0000
0002
0003
0000
0000
0000
0000
0000
0000
2000
3000
0000
0000
,
0111
1000
0100
0010
0001
0100
1011
0100
1000
0010
0001
0100
0010
1000
0010
0001
,
1110
0001
1000
0010
0100
1000
0111
1000
0001
0100
0010
1000
0001
0010
0100
0001
,
1110
0001
0100
1000
0100
0001
0100
0010
1101
0010
1000
0100
0010
0001
0100
1000
,
0111
1000
0100
0010
0001
0010
1101
0010
1000
0010
0001
0100
1011
0100
1000
0001
,
1110
0001
0100
1000
0010
1000
0111
1000
0001
1000
0010
0100
0001
0010
1000
0100
,
1011
0100
0001
0010
0100
0010
1101
0010
0100
0010
0001
0010
0100
1000
0100
0001
,
1120
0000
0000
0000
0000
0000
0000
0000
0030
0000
0000
2000
0000
0000
3000
0002
,
1000
0010
1000
0010
0000
1000
0010
1000
0010
1000
0000
1000
0010
1000
0000
0010
,
1000
0010
1000
0010
0000
1000
0010
1000
0010
1000
0000
1000
0010
1003
0000
0000
,
1120
0000
0000
0000
0000
0000
0000
0000
0000
0000
0000
0000
0000
0000
0000
0000
0000
0000
0000
0000
0000
0000
0030
0000
0021
0000
0000
0000
0000
0000
0000
0000
0000
0000
0000
0000
0000
0000
0000
0030
0020
0000
0000
0000
0000
0000
0000
0000
0000
0000
0000
0000
0000
0030
1020
0000
0000
0000
0000
0000
0000
0000
0000
0000
,
0000
0000
0000
0000
0000
0000
0000
0000
0000
0000
0000
0000
0000
0000
0000
0000
0000
0000
0000
0000
0000
0000
0000
0000
0030
0000
0000
0000
0001
0000
0000
0000
0000
0100
0000
0000
0000
0000
0000
0000
1000
0000
0010
0000
0100
0000
0001
0000
,
1000
0001
0100
1000
0010
0001
0100
1000
0100
0010
0001
0100
0010
0001
0010
0100
1000
0100
0010
0001
0100
0010
0001
0010
,
0100
1000
0100
0010
0001
0100
0010
0001
0100
1000
0010
0000
2002
0000
0000
3003
0000
0000
2002
0000
0000
3003
0000
0000
,
2202
3303
0010
0000
0001
0000
0100
0000
1000
0000
0100
0000
2022
3033
0100
0000
0001
0000
0010
0000
0100
0000
1000
0000
0001
0000
0010
0000
0100
0000
0010
0000
,
2202
3303
0010
0000
0100
0000
0010
0000
0001
0000
0100
0000
2022
3033
0100
0000
0001
0000
0100
0000
0010
0000
0100
0000
0002
0000
0000
0000
0000
0000
0000
0000
,
2203
0000
0000
0000
0000
0000
0000
0000
0000
0000
0000
0000
3300
0000
0000
0000
2002
0000
0000
0000
3003
0000
0002
0000
0000
0003
0000
0000
2000
0000
3110
0000
,
0002
1100
0013
0101
0000
0110
1000
0101
0010
1100
0000
1010
0100
1010
0000
0110
,
0001
0110
1000
0101
0000
1010
0100
0011
0100
1010
0000
1001
0100
0011
1000
0011
,
2000
0000
0000
0000
,
0002
0000
0000
0000
,
0000
0000
0000
3003
0000
0000
0000
0000
0000
0000
0000
0000
0000
0000
0000
0000
;
