#TITLE:Galvanotaxis;
#SUBTITLE:;
#ARTIST:AKIO;
#TITLETRANSLIT:;
#SUBTITLETRANSLIT:;
#ARTISTTRANSLIT:;
#CREDIT:;
#BANNER:Galvanotaxis.png;
#BACKGROUND:Galvanotaxis-bg.png;
#LYRICSPATH:;
#CDTITLE:!tear-cdtitle.png;
#MUSIC:AKIO - Galvanotaxis.mp3;
#OFFSET:-0.186;
#SAMPLESTART:124.000;
#SAMPLELENGTH:15.000;
#SELECTABLE:YES;
#BPMS:0.000=185.000;
#STOPS:;
#BGCHANGES:;
// cache tags:
#FIRSTBEAT:0.000;
#LASTBEAT:608.000;
#SONGFILENAME:Songs/Fabulously Fresh Flock of Fantastic Files F5/(Tear) Galvanotaxis/Galvanotaxis.sm;
#HASMUSIC:1;
#HASBANNER:1;
#MUSICLENGTH:197.963;
// end cache tags

//---------------dance-single - ----------------
#NOTES:
     dance-single:
     :
     Hard:
     12:
     1.000,1.000,1.000,0.338,1.000,1497.000,291.000,67.000,0.000,0.000:  // measure 1
1000
1000
1000
1000
,  // measure 2
0010
0010
0010
0010
,  // measure 3
0100
0100
0100
0100
,  // measure 4
0001
0001
0001
0011
,  // measure 5
1000
1000
1000
1000
,  // measure 6
0100
0100
0100
0100
,  // measure 7
0010
0010
0010
0010
,  // measure 8
0001
0001
0001
0011
,  // measure 9
1001
0000
0000
0000
0000
0000
0110
0000
0000
0000
0000
0000
1000
0000
0000
0000
1100
0000
0000
0000
0000
1010
0000
0000
,  // measure 10
0001
1000
0101
0000
0001
0100
0011
0000
,  // measure 11
0110
0000
1000
0000
0010
1000
0110
0000
,  // measure 12
0001
0000
1000
0000
0101
0000
1000
0000
0001
0000
0100
0001
0010
0000
0000
0000
,  // measure 13
1100
0000
0000
0000
0001
0000
1000
0001
0010
0000
1001
0000
0100
0000
1001
0000
,  // measure 14
0010
0000
0100
0010
1000
0000
0011
0000
1000
0000
0100
0000
0110
0000
0000
0000
,  // measure 15
1001
0000
0010
0000
1100
0010
0101
0000
,  // measure 16
1000
0000
0110
0000
1000
0000
0001
0010
0100
1000
0001
0100
0001
1000
0100
0010
,  // measure 17
1001
0000
0000
0000
0110
0000
1000
0001
0100
0010
1000
0000
0001
0000
0100
0000
,  // measure 18
0011
0000
1000
0001
0110
0000
0000
0000
1000
0000
0011
0000
0100
0000
0000
0000
,  // measure 19
0110
0000
0000
0000
0000
0000
0000
0000
0000
0000
0000
0000
0001
0000
0000
0000
0000
0000
1000
0000
0100
0000
0010
0000
0001
0000
0000
0000
0000
0000
0110
0000
0000
0000
0000
0000
0001
0000
0000
0000
0000
0000
1000
0000
0000
0100
0000
0000
,  // measure 20
1000
0001
0110
0001
1000
0100
1010
0000
,  // measure 21
1001
0000
0000
0000
0100
0000
0001
0100
0010
0000
1100
0000
0010
0000
0101
0000
,  // measure 22
1000
0000
0001
0100
0001
0000
0110
0000
0001
0000
1000
0000
1100
0000
0000
0000
,  // measure 23
0110
0000
1000
0000
0110
0001
1000
0000
,  // measure 24
0110
0000
0001
0000
1000
0000
0001
0100
0010
1000
0100
1000
0001
0100
0010
0100
,  // measure 25
1001
0000
0100
0000
1010
0001
0100
0000
,  // measure 26
1010
0000
0001
0000
0100
0000
0011
0000
0100
0000
1000
0000
0110
0000
0001
1000
,  // measure 27
0100
0000
0011
0000
0011
1000
0100
0011
,  // measure 28
1000
0000
0001
1000
0100
0000
0010
0000
0001
0000
0100
0000
1001
0000
0000
0000
,  // measure 29
1010
0000
0001
0000
1010
0001
0100
0000
,  // measure 30
1010
0000
0100
0001
1000
0000
0100
0000
0010
0000
0001
0000
0110
0000
0000
0000
,  // measure 31
0110
0000
1000
0000
0110
1000
0100
0000
,  // measure 32
0110
0000
0000
0000
0000
0000
2000
0000
3200
0000
2300
0000
3020
0000
0000
0030
,  // measure 33
0110
0000
0000
0000
1100
0000
0001
0000
1000
0100
1000
0001
0100
0000
0010
0100
,  // measure 34
0001
0010
0001
0000
1000
0100
0010
0001
0100
0010
0100
0001
1000
0000
0001
0010
,  // measure 35
0001
0000
0000
0000
0000
0000
1000
0000
0100
0000
0010
0000
0001
0000
0000
0000
0000
0000
0100
0000
0000
0000
0000
0000
0010
0000
0000
1000
0000
0000
0001
0000
0000
0000
0000
0000
0010
0000
0000
0000
0000
0000
0100
0000
0000
0010
0000
0000
,  // measure 36
0001
0100
0010
0000
1000
0010
0100
0001
0010
0001
0100
0010
1000
0000
0100
1000
,  // measure 37
0010
0000
0100
0000
0001
0000
1000
0100
1000
0001
0100
0000
0010
0100
0001
1000
,  // measure 38
0100
0000
0000
0000
0000
0000
0010
0000
0001
0000
0100
0000
0010
0000
0000
0000
0000
0000
1000
0000
0000
0100
0000
0000
1000
0000
0000
0010
0000
0000
0100
0000
0000
0000
0000
0000
0001
0000
0000
0010
0000
0000
0001
0000
0000
0100
0000
0000
,  // measure 39
0010
0000
0000
0000
0100
0000
0001
0000
1000
0100
1000
0000
0010
0000
0100
0001
,  // measure 40
0100
0010
1000
0000
0010
0100
0010
1000
0001
0000
1000
0100
0010
0100
2000
0000
,  // measure 41
3010
0000
0000
0000
0000
0000
1000
0000
0100
0000
0010
0000
0001
0000
0000
0100
0000
0000
0000
0000
0000
0010
0000
0000
0100
0000
0000
0001
0000
0000
1000
0000
0000
0000
0000
0000
0100
0000
0000
0000
0000
0000
0010
0000
0000
0001
0000
0000
,  // measure 42
1000
0000
0010
0000
0100
0000
0001
0010
0001
0100
0001
0010
0001
0000
0100
0010
,  // measure 43
1000
0000
0100
0000
1000
0000
0010
0100
0010
0100
0010
0000
1000
0000
0100
0010
,  // measure 44
0001
0100
0010
0000
1000
0001
0100
0001
0010
0100
0010
0001
0100
0000
0010
1000
,  // measure 45
0001
0000
0100
0000
0010
0000
1000
0100
0010
0001
0100
0000
0010
0100
0001
1000
,  // measure 46
0100
0000
0000
0000
0000
0000
0010
0000
0001
0000
0100
0000
0010
0000
0000
0000
0000
0000
1000
0000
0000
0100
0000
0000
1000
0000
0000
0010
0000
0000
0100
0000
0000
0000
0000
0000
0001
0000
0000
0100
0000
0000
0010
0000
0000
0100
0000
0000
,  // measure 47
0001
0000
1000
0000
0010
0000
1000
0000
0100
1000
0010
0000
0100
0000
0001
0010
,  // measure 48
0100
0000
0000
1000
0000
0000
0010
0000
0000
0000
0000
0000
0100
0000
0000
0001
0000
0000
1000
0000
0000
0100
0000
0000
1000
0000
0000
0000
0000
0000
0001
0000
0010
0000
0100
0000
1000
0000
0000
0000
0000
0000
0001
0000
0000
0100
0000
0000
,  // measure 49
0010
0000
0000
0000
1000
0000
0100
0010
0001
0100
0010
0000
1000
0000
0200
0300
,  // measure 50
1000
0000
0010
0100
0002
0003
0000
0000
1000
0000
0010
0000
0100
0000
0000
0000
,  // measure 51
0001
0000
0000
0000
0000
0000
0000
0000
0000
0000
0000
0000
0010
0000
0000
0000
0000
0000
0100
0000
1000
0000
0010
0000
0100
0000
0000
0000
0000
0000
0002
0000
0000
0003
0000
0000
1000
0000
0000
0000
0000
0000
0010
0000
0000
0100
0000
0000
,  // measure 52
0002
0003
1000
0000
0010
0000
0101
0000
1000
0000
0010
0000
1100
0000
0000
0000
,  // measure 53
0101
0000
0000
0000
0110
0000
1000
0001
0010
0000
1100
0000
0001
0000
2000
3000
,  // measure 54
0010
0000
0100
0001
0010
0000
0101
0000
1000
0000
0010
0000
1100
0000
0000
0000
,  // measure 55
1010
0000
1001
0000
0110
1000
0011
0000
,  // measure 56
0200
0300
0010
0000
1100
0000
0002
0000
0203
0000
0320
0000
2030
0000
0000
3000
,  // measure 57
0110
0000
1001
0000
0100
1010
0100
0000
,  // measure 58
0011
0000
1000
0000
0101
0000
1000
0000
0000
0000
0010
0000
0110
0000
1000
0001
,  // measure 59
0100
0000
0011
0000
1010
0001
0000
0110
,  // measure 60
0000
0000
0001
1000
0100
0000
1000
0000
0011
0000
0100
0000
1010
0000
0000
0000
,  // measure 61
1100
0000
0101
0000
0011
0100
0010
0000
,  // measure 62
1001
0000
0100
0010
1000
0000
0110
0000
0001
0000
1000
0000
0101
0000
0000
0000
,  // measure 63
1000
0000
1010
0000
1000
0010
1100
0001
,  // measure 64
0200
0000
0320
0000
0230
0000
0302
0000
2003
0000
3020
0000
0000
0000
0000
0030
,  // measure 65
1100
0000
0000
0000
0000
0000
0001
0000
0010
0000
0100
0000
1000
0000
0000
0000
0000
0000
0011
0000
0000
1000
0000
0000
0100
0000
0000
1000
0000
0000
0011
0000
0000
0000
0000
0000
0110
0000
0000
0000
0000
0000
1000
0000
0000
0001
0000
0000
,  // measure 66
0100
0000
0000
0001
0000
0000
1100
0000
0000
0000
0000
0000
0010
0000
0000
0100
0000
0000
0001
0000
0000
1000
0000
0000
0100
0000
0000
1000
0000
0000
0010
0000
0100
0000
0001
0000
1000
0000
0000
0000
0000
0000
0010
0000
0000
0100
0000
0000
,  // measure 67
1001
0000
0100
0010
1100
0000
0001
0100
0010
1000
0100
1000
0010
0000
0100
0001
,  // measure 68
1000
0100
1000
0000
0001
0010
0001
0100
0010
1000
0100
1000
0010
0000
0100
0001
,  // measure 69
1000
0000
0000
0000
0100
0000
1000
0100
0010
0001
0100
0000
0010
1000
0001
0010
,  // measure 70
0001
0000
0000
0000
0000
0000
1000
0000
0100
0000
0010
0000
0001
0000
0000
0000
0000
0000
1000
0000
0000
0001
0000
0000
0110
0000
0000
1000
0000
0000
0001
0000
0000
0000
0000
0000
0100
0000
0000
0010
0000
0000
0100
0000
0000
0001
0000
0000
,  // measure 71
1100
0000
0000
0000
0011
0000
0100
0001
1000
0100
0010
0000
0100
0000
1000
0001
,  // measure 72
0010
0001
0100
0000
0010
1000
0100
1000
0001
0000
0100
0010
1000
0001
0010
0100
,  // measure 73
1001
0000
0000
0000
0110
0000
1000
0100
1000
0001
0110
1000
0011
0000
0100
0010
,  // measure 74
1100
0000
0001
0000
0011
0000
1000
0010
0100
0001
1000
0100
1000
0000
0001
0010
,  // measure 75
0001
0000
0100
0000
1010
0000
0001
0100
0010
1000
0001
0000
0110
0000
1000
0100
,  // measure 76
1000
0000
0000
0010
0000
0000
0100
0000
0000
0000
0000
0000
0001
0000
0000
0010
0000
0000
0001
0000
0000
0100
0000
0000
0001
0000
0000
1000
0000
0000
0001
0000
0010
0000
0100
0000
1000
0000
0000
0001
0000
0000
0000
0000
0000
0100
0000
0000
,  // measure 77
0010
0000
1000
0000
1100
0000
0001
0010
0100
1000
0010
0000
1000
0100
1000
0001
,  // measure 78
0010
0000
0000
0000
0000
0000
0100
0000
1000
0000
0001
0000
0100
0000
0000
0000
0000
0000
0010
0000
0000
0100
0000
0000
0001
0000
0000
1000
0000
0000
0100
0000
0000
0000
0000
0000
0010
0000
0000
0001
0000
0000
1000
0000
0000
0100
0000
0000
,  // measure 79
1010
0000
0000
0000
0011
0000
0100
0000
0010
1000
0001
0000
0100
0000
0010
0100
,  // measure 80
0001
0000
0000
0010
0000
0000
0001
0000
0000
0000
0000
0000
1000
0000
0000
0010
0000
0000
0100
0000
0000
0010
0000
0000
1000
0000
0000
0000
0000
0000
0001
0000
0010
0000
0100
0000
1000
0000
0000
0000
0000
0000
0001
0000
0000
0100
0000
0000
,  // measure 81
0010
0000
0000
0000
0000
0000
0000
0000
0000
0000
0000
0000
1100
0000
0000
0000
0000
0000
0001
0000
0000
0000
0000
0000
1010
0000
0000
0000
0000
0000
0001
0000
0010
0000
0100
0000
1000
0000
0000
0000
0000
0000
0001
0000
0000
0010
0000
0000
,  // measure 82
0001
0000
0110
0000
1000
0010
0110
0000
,  // measure 83
1000
0000
0000
0000
0110
0000
1000
0100
0010
0001
1000
0000
0010
0000
0100
0000
,  // measure 84
0001
0000
1000
0000
0110
0000
0001
0000
1000
0000
0010
0000
1100
0000
0001
0100
,  // measure 85
0011
0000
0110
0000
0011
0100
0010
1001
,  // measure 86
0100
0000
0001
0010
0001
0000
1100
0000
0010
0000
0100
0000
0011
0000
1000
0000
,  // measure 87
0110
0000
0000
0000
0011
0000
0000
0000
1100
0000
0001
0000
0110
0000
1000
0100
,  // measure 88
1010
0000
0001
0000
1100
0000
0002
0000
1000
0103
1002
0103
1002
0100
0000
1003
,  // measure 89
0110
0000
0000
0000
1100
0000
0000
0000
0011
0000
2000
3000
0011
0000
2000
3000
,  // measure 90
0011
0000
1000
0000
0010
0000
1100
0000
0000
0000
0001
0000
0101
0000
1000
0100
,  // measure 91
1000
0000
0110
0000
0001
1000
0010
1100
,  // measure 92
0001
0000
0000
0000
0000
0000
0100
0000
0000
0010
0000
0000
0100
0000
0000
0000
0000
0000
0001
0000
0000
0000
0000
0000
1010
0000
0000
0000
0000
0000
0001
0000
0010
0000
0100
0000
1000
0000
0000
0000
0000
0000
0001
0000
0000
0000
0000
0000
,  // measure 93
0110
0000
0000
0000
0101
0000
0000
0000
1100
0000
0002
0003
1100
0000
0001
0000
,  // measure 94
0200
0300
0001
1000
0100
0000
0011
0000
1000
0000
0100
0000
1010
0000
0100
0000
,  // measure 95
1001
0000
0011
0000
0101
1000
0110
1000
,  // measure 96
0010
0000
2000
0000
3002
0000
0203
0000
0010
0000
0000
0000
0000
0000
0000
0300
,  // measure 97
1010
0000
0001
0000
0110
0000
0001
0000
1000
0100
1000
0010
1100
0000
0001
0010
,  // measure 98
0001
0100
0011
0000
1000
0100
0010
0001
0110
0000
1000
0100
0011
0000
1000
0001
,  // measure 99
0110
0000
0000
0000
0000
0000
1000
0000
0100
0000
0010
0000
0001
0000
0000
0000
0000
0000
1000
0000
0000
0100
0000
0000
1000
0000
0000
0001
0000
0000
0110
0000
0000
0000
0000
0000
0110
0000
0000
0000
0000
0000
1000
0000
0000
0100
0000
0000
,  // measure 100
0010
0001
1100
0000
0001
1000
0100
0010
0100
1000
0010
0100
0011
0000
1000
0100
,  // measure 101
1000
0000
0010
0000
1001
0000
0100
0010
1000
0100
0011
0000
1000
0010
0100
0010
,  // measure 102
1001
0000
0000
0000
0000
0000
0100
0000
0010
0000
1000
0000
0100
0000
0000
0000
0000
0000
0010
0000
0000
0001
0000
0000
1100
0000
0000
0001
0000
0000
0110
0000
0000
0000
0000
0000
1000
0000
0000
0001
0000
0000
0010
0000
0000
0001
0000
0000
,  // measure 103
0110
0000
1000
0000
0101
0000
1000
0100
1000
0010
0101
0000
0101
0000
1000
0100
,  // measure 104
0010
0001
0110
0000
1000
0001
0100
0001
1100
0000
0001
0100
0001
1000
0110
1000
,  // measure 105
0011
0000
0000
0000
0000
0000
1000
0000
0100
0000
0010
0000
0001
0000
0000
0100
0000
0000
0000
0000
0000
0010
0000
0000
1000
0000
0000
0010
0000
0000
1100
0000
0000
0000
0000
0000
0011
0000
0000
0000
0000
0000
1000
0000
0000
0001
0000
0000
,  // measure 106
0110
0000
0001
0000
1100
0000
0010
0001
1000
0100
1000
0001
0110
0000
1000
0010
,  // measure 107
1100
0000
0010
0000
0101
0000
1000
0010
0100
0001
1010
0000
1010
0000
0100
0001
,  // measure 108
1000
0100
0011
0000
0100
0001
1010
0000
0100
0010
1000
0001
1100
0000
0001
1000
,  // measure 109
0011
0000
1000
0000
0110
0000
0001
1000
0100
1000
0110
0000
0001
0100
0010
1000
,  // measure 110
0110
0000
0000
0000
0000
0000
0001
0000
0010
0000
0100
0000
1000
0000
0000
0000
0000
0000
0001
0000
0000
0100
0000
0000
0001
0000
0000
1000
0000
0000
0110
0000
0000
0000
0000
0000
0011
0000
0000
1000
0000
0000
0100
0000
0000
1000
0000
0000
,  // measure 111
0011
0000
1000
0000
0110
0000
1001
0000
0100
0010
1000
0100
1010
0000
0001
0010
,  // measure 112
0001
1000
0110
0000
0001
1000
0010
0100
0010
0001
0010
0100
0001
1000
0100
1000
,  // measure 113
0011
0000
0000
0000
0000
0000
1100
0000
0000
0000
0000
0000
0001
0000
0010
0000
0100
0000
1000
0000
0000
0010
0000
0000
0100
0000
0000
0001
0000
0000
1100
0000
0000
0000
0000
0000
0011
0000
0000
0000
0000
0000
0100
0000
0000
0010
0000
0000
,  // measure 114
0100
0000
0000
0001
0000
0000
1100
0000
0000
0000
0000
0000
0001
0000
0000
0100
0000
0000
0010
0000
0000
1000
0000
0000
0100
0000
0000
1000
0000
0000
0001
0000
0010
0000
0100
0000
1001
0000
0000
0000
0000
0000
0100
0000
0000
0010
0000
0000
,  // measure 115
1001
0000
0000
0000
0000
0000
1000
0000
0100
0000
0010
0000
1001
0000
0000
0000
0000
0000
0100
0000
0000
0001
0000
0000
0010
0000
0000
0001
0000
0000
1100
0000
0000
0000
0000
0000
0011
0000
0000
0000
0000
0000
0100
0000
0000
0010
0000
0000
,  // measure 116
1000
0010
1100
0000
0001
0100
0010
0100
1000
0100
0010
1000
0011
0000
1000
0001
,  // measure 117
1010
0000
0001
0000
1100
0000
0001
0010
0100
1000
0110
0000
1000
0100
1000
0010
,  // measure 118
1100
0000
0000
0000
0000
0000
0001
0000
0010
0000
0100
0000
1000
0000
0000
0000
0000
0000
0001
0000
0000
0100
0000
0000
0001
0000
0000
1000
0000
0000
0110
0000
0000
0000
0000
0000
1100
0000
0000
0001
0000
0000
0010
0000
0000
0001
0000
0000
,  // measure 119
1100
0000
0000
0000
0011
0000
0101
0000
1000
0010
1100
0000
1010
0000
0001
0100
,  // measure 120
0010
1000
0011
0000
1000
0010
0100
0010
1001
0000
0100
0010
1000
0100
0010
0001
,  // measure 121
1100
0000
0000
0000
0000
0000
0001
0000
0010
0000
0100
0000
1000
0000
0000
0000
0000
0000
0001
0000
0000
0100
0000
0000
0010
0000
0000
1000
0000
0000
0110
0000
0000
0000
0000
0000
0110
0000
0000
0000
0000
0000
1000
0000
0000
0100
0000
0000
,  // measure 122
0011
0000
0000
0000
0000
0000
1000
0000
0100
0000
0010
0000
0001
0000
0000
0000
0000
0000
1000
0000
0000
0100
0000
0000
1000
0000
0000
0010
0000
0000
0100
0000
0000
0001
0000
0000
1100
0000
0000
0000
0000
0000
0010
0000
0000
0001
0000
0000
,  // measure 123
0110
0000
1000
0000
0110
0000
0001
0010
0100
1000
0110
0000
1001
0000
0100
0010
,  // measure 124
1000
0001
1100
0000
0001
0100
0001
1000
0010
0100
0001
0010
1100
0000
0001
0100
,  // measure 125
0011
0000
1000
0000
0110
0000
0001
1000
0100
1000
0011
0000
1000
0010
0100
0010
,  // measure 126
1001
0000
0000
0000
0000
0000
0100
0000
0001
0000
1000
0000
0100
0000
0000
0000
0000
0000
0010
0000
0000
0001
0000
0000
0100
0000
0000
0010
0000
0000
1001
0000
0000
0000
0000
0000
0100
0000
0000
0010
0000
0000
1000
0000
0000
0001
0000
0000
,  // measure 127
0110
0000
0000
0000
1100
0000
0001
0000
0100
0010
1001
0000
1001
0000
0100
0001
,  // measure 128
1000
0000
0000
0010
0000
0000
1001
0000
0000
0000
0000
0000
0100
0000
0000
0001
0000
0000
0010
0000
0000
0100
0000
0000
0011
0000
0000
0000
0000
0000
1000
0000
0100
0000
0010
0000
0001
0000
0000
0100
0000
0000
0000
0000
0000
0010
0000
0000
,  // measure 129
1000
0000
0001
0000
0110
0000
1000
0000
0100
0010
0001
0100
1010
0000
0001
1000
,  // measure 130
0100
1000
0011
0000
1000
0100
0010
0001
0100
0010
1000
0001
0110
0000
1000
0100
,  // measure 131
0011
0000
0000
0000
0000
0000
1000
0000
0100
0000
0010
0000
0001
0000
0000
0000
0000
0000
1000
0000
0000
0000
0000
0000
0010
0000
0000
0100
0000
0000
0011
0000
0000
0000
0000
0000
0011
0000
0000
0000
0000
0000
1000
0000
0000
0100
0000
0000
,  // measure 132
1000
0010
1001
0000
0100
0010
1000
0100
0010
0001
0100
0010
1001
0000
0100
0010
,  // measure 133
1001
0000
0000
0000
0110
0000
0001
1000
0010
0100
0011
0000
1000
0100
0010
0001
,  // measure 134
0110
0000
0000
0000
0000
0000
1000
0000
0100
0000
0010
0000
1001
0000
0000
0000
0000
0000
0100
0000
0000
0001
0000
0000
0010
0000
0000
0001
0000
0000
1100
0000
0000
0000
0000
0000
0011
0000
0000
0100
0000
0000
0010
0000
0000
1000
0000
0000
,  // measure 135
0110
0000
0001
0000
1100
0000
0001
0100
0001
1000
0110
0000
0110
0000
1000
0100
,  // measure 136
0010
0001
1100
0000
0001
0100
0001
0010
1100
0000
0001
0100
0001
1000
0110
0001
,  // measure 137
1100
0000
0000
0000
0000
0000
0001
0000
0010
0000
0100
0000
1001
0000
0000
0100
0000
0000
0010
0000
0000
0100
0000
0000
1000
0000
0000
0001
0000
0000
1100
0000
0000
0000
0000
0000
1100
0000
0000
0000
0000
0000
0001
0000
0000
0100
0000
0000
,  // measure 138
1010
0000
0100
0000
0011
0000
1000
0100
1000
0010
0100
0010
1100
0000
0001
1000
,  // measure 139
0110
0000
0001
0000
0110
0000
1000
0001
0100
0010
1001
0000
1001
0000
0100
0010
,  // measure 140
1000
0001
0110
0000
1000
0100
0010
0100
1000
0010
0100
0001
1100
0000
0001
0100
,  // measure 141
0011
0000
0000
0000
1001
0000
0100
0001
1000
0100
0011
0000
1000
0010
0100
0010
,  // measure 142
1100
0000
0000
0000
0000
0000
0001
0000
0010
0000
0100
0000
1000
0000
0000
0000
0000
0000
0001
0000
0000
0100
0000
0000
0001
0000
0000
1000
0000
0000
0110
0000
0000
0000
0000
0000
1000
0000
0000
0001
0000
0000
0100
0000
0000
0001
0000
0000
,  // measure 143
1100
0000
0000
0000
0011
0000
0101
0000
1000
0100
0011
0000
0011
0000
1000
0001
,  // measure 144
0100
0010
1100
0000
0001
0100
0010
0100
1001
0000
0100
0010
1000
0001
0100
0001
,  // measure 145
2100
3000
0002
0003
0200
0300
0020
0030
0000
0000
0000
0000
2000
3000
0200
1300
,  // measure 146
0020
0030
0200
0300
0000
0000
0000
0000
0002
0103
0020
0030
2000
3000
0200
0300
,  // measure 147
2000
0000
0000
3000
0020
0030
0200
0301
0010
0100
0000
0000
2000
0000
3000
0000
,  // measure 148
0000
0000
0200
0000
0300
0000
2000
0000
0000
0000
3000
0000
0000
0000
0010
0100
,  // measure 149
0002
0003
2000
3000
0200
0300
2000
3000
0000
0000
0000
0000
0020
0030
0200
0300
,  // measure 150
0002
0003
2000
3000
0000
0000
0000
0000
0200
0300
0020
0030
0002
0003
2000
3000
,  // measure 151
0020
0000
0000
0030
0020
0030
0200
0300
0001
1000
0100
1000
0020
0030
0000
0000
,  // measure 152
0000
0000
0200
0300
0000
0000
0002
0000
0000
0000
0000
0000
0000
0000
0000
0000
,  // measure 153
0003
0000
0000
0000
;
