#TITLE:Kaeshite! Knee Socks;
#SUBTITLE:;
#ARTIST:Aya Hirano;
#TITLETRANSLIT:;
#SUBTITLETRANSLIT:;
#ARTISTTRANSLIT:;
#CREDIT:Darkmage;
#BANNER:kneesocks-bn.png;
#BACKGROUND:kneesocks-bg.png;
#LYRICSPATH:;
#CDTITLE:!darkmagetitle2.png;
#MUSIC:Kaeshite! Knee Socks.ogg;
#OFFSET:-2.405;
#SAMPLESTART:61.700;
#SAMPLELENGTH:22.000;
#SELECTABLE:YES;
#BPMS:0.000=180.000;
#STOPS:;
#BGCHANGES:0.000=kneesocks-bg.png=1.000=0=0=1,
99999=-nosongbg-=1.000=0=0=0 // don't automatically add -songbackground-
;
// cache tags:
#FIRSTBEAT:4.000;
#LASTBEAT:712.000;
#SONGFILENAME:Songs/Archmage and Dark0wl Hammer of Thor UltraHyperMegaPack/Kaeshite! Knee Socks/Kaeshite! Knee Socks.sm;
#HASMUSIC:1;
#HASBANNER:1;
#MUSICLENGTH:105.000;
// end cache tags

//---------------dance-single - Darkmage----------------
#NOTES:
     dance-single:
     Darkmage:
     Hard:
     12:
     1.000,1.000,1.000,0.057,1.000,1200.000,308.000,6.000,0.000,0.000:
0000
0000
0000
0000
,
1001
0000
0000
0000
,
0000
0000
0000
0000
,
1001
0000
0000
0000
,
0000
0000
0000
0000
0000
0000
1000
0100
0010
0000
0001
0000
1000
0000
0000
0000
,
1001
0011
0000
0011
,
0000
0011
0000
0011
,
1001
0011
0000
0011
,
1001
0100
0000
0000
0010
0010
0000
0000
,
1001
0100
1000
0001
0010
0001
1000
0100
,
1000
0010
0100
0010
1000
0001
0010
0001
,
0110
0001
0100
0010
1000
0001
0010
0001
,
1000
0100
1000
0100
1000
0100
1000
0100
0010
0001
0010
0001
0010
0001
0010
0001
,
1000
0010
1000
0010
1000
0010
1000
0010
1000
0010
1000
0010
1000
0010
1000
0010
,
0100
0001
0100
0001
0100
0001
0100
0001
0010
0001
0010
0001
0010
0001
0010
0001
,
1000
0001
1000
0001
1000
0001
1000
0001
1000
0001
1000
0001
1000
0001
1000
0001
,
0000
0011
1100
1010
0000
0101
0000
1001
,
0000
1000
0010
0000
1000
0100
0010
0001
,
1000
0000
0001
0010
0000
0001
0000
1000
,
0000
0001
0100
0000
0010
1000
0000
0001
,
0110
0000
0110
0000
1000
0100
0010
0001
,
0000
1000
0010
0000
0000
0001
0010
0100
,
0001
0000
0100
0000
1000
0010
0001
0010
,
0000
0100
0001
0000
0000
1100
0011
1100
,
0000
0011
0000
0101
0000
1010
0110
0101
,
1001
1000
0010
0000
1000
0000
0001
0010
,
0001
0000
1000
0010
0000
0001
0000
0010
,
0000
0100
0001
0000
1000
0100
1000
0001
,
0110
0000
0110
0000
0001
0010
0100
1000
,
0000
0001
0100
0000
0000
0010
1000
0010
,
0001
0000
0010
0000
0100
0001
1000
0100
,
0000
0001
0100
0000
0000
1010
0000
0101
,
0000
0000
0011
0000
0110
0000
1100
0000
0000
0000
0001
0000
0010
0000
0001
1000
,
0001
0000
1010
0000
1100
0000
0000
0001
,
0100
0010
0100
1000
0100
0010
1000
0000
,
0001
0000
0001
1000
0000
1000
0010
0000
,
0010
0100
0000
0100
0001
1000
0001
1000
,
0101
0000
0011
0000
0101
0000
0000
1000
,
0100
0010
0100
0001
0100
0010
0001
0000
,
1001
1100
0011
0101
,
1001
1010
0101
0011
,
1100
0000
1100
0011
0000
0011
0101
0000
,
0101
0000
1010
0000
0000
0000
1010
0000
1100
0000
0000
0000
0001
0000
1000
0001
,
2000
0000
0000
0000
,
0000
0000
0000
0000
3001
0010
0100
1000
,
0011
0000
0011
0000
0011
0000
0001
0010
,
0000
0001
0100
0010
1000
0000
0000
1010
,
0101
0000
0101
0011
0000
1000
0000
0101
,
0000
0010
1000
0010
0001
0000
0000
0010
,
0101
0000
0110
0000
1010
0000
1000
0100
,
0000
1000
0000
0001
0000
1000
0100
0010
,
0000
0001
0010
0100
0000
1000
0010
0001
,
0000
0110
1001
0000
0110
1000
0001
0010
,
1100
0000
1100
0000
1100
0000
0001
0010
,
0000
0001
0100
0010
1000
0000
0000
0011
,
1100
0000
1010
0101
0000
1001
0000
0011
,
0000
1000
0100
0010
0001
0000
1001
0010
,
1100
0000
0011
0000
0101
0000
0010
0001
,
0000
0101
0000
1010
0000
0001
0100
0010
,
0000
1000
0010
0100
0000
0001
0010
1000
,
0000
0011
0101
0110
1010
0000
1001
0000
,
1001
0100
1000
0001
0100
0010
0100
0001
,
1000
0100
0010
0100
0010
0001
1000
0010
,
0101
0010
1000
0001
0010
0001
0100
0010
,
1000
0100
1000
0100
1000
0100
1000
0100
0010
0001
0010
0001
0010
0001
0010
0001
,
1000
0010
1000
0010
1000
0010
1000
0010
1000
0010
1000
0010
1000
0010
1000
0010
,
0100
0001
0100
0001
0100
0001
0100
0001
1000
0010
1000
0010
1000
0010
1000
0010
,
1000
0100
1000
0100
1000
0100
1000
0100
1000
0100
1000
0100
1000
0100
1000
0100
,
1000
0000
0100
0000
1000
0000
0100
0000
1000
0000
0100
0000
1000
0000
0000
0000
0000
0000
0000
0000
0000
0000
0000
0000
0000
0000
0000
0000
0000
0000
1000
0000
0000
0100
0000
0000
1000
0000
0000
0100
0000
0000
1000
0000
0100
0000
1000
0000
,
0100
1000
0001
0000
0101
0000
0001
0010
,
0001
0000
1000
0010
0000
0100
0000
0001
,
0000
1000
0100
0000
0010
0100
0000
1000
,
1100
0000
1100
0000
0001
0010
0001
0100
,
0000
0010
1000
0000
0000
0001
0010
0100
,
0010
0000
0001
0000
1000
0000
0001
0100
,
0000
0001
0010
0000
0000
0011
1001
1100
,
0000
0000
1010
0000
0000
0000
0101
0000
0000
0000
0001
0000
0010
0000
0100
0010
,
1001
0001
0100
0000
1010
0000
1000
0001
,
0010
0000
0001
0100
0000
0101
0000
0011
,
0000
1000
0100
0000
0010
0001
0000
1000
,
1010
0000
1010
0000
0010
0100
0001
1000
,
0000
0100
0010
0000
0000
0001
0010
0100
,
0001
0000
0100
0000
1000
0010
0001
0010
,
0000
1000
0100
0000
0000
0011
0000
0101
,
0000
0000
1001
0000
0110
0000
1010
0000
0000
0000
1000
0000
0010
0000
0100
0001
,
1010
0000
0101
0000
0011
0000
0000
1000
,
0001
0010
0100
0001
0100
0010
0001
0000
,
1000
0000
1000
0100
0000
0100
1000
0000
,
1000
0010
0000
0010
0100
0001
1000
0001
,
0110
0000
0011
0000
1100
0000
0000
0001
,
0010
0100
0001
0100
0010
0001
1000
0000
,
0101
0110
1010
1100
,
0011
0101
1001
1010
,
1010
0000
1010
0101
0000
0101
0011
0000
,
0011
0000
1100
0000
0000
0000
1100
0000
0110
0000
0000
0000
0110
0000
1000
0001
,
2000
0000
0001
0000
,
3001
0010
0001
0100
0010
1000
0010
0100
1000
0100
0010
1000
0001
0010
0100
1000
,
0101
0000
0101
0000
0101
0000
0100
0010
,
0000
1000
0001
0010
0100
0000
0000
1000
,
0011
0000
0001
1010
0000
1100
0000
0011
,
0000
1000
0100
0001
0100
0000
0011
1000
,
0110
0000
0101
0000
0011
0000
0101
0011
,
0000
1001
0000
1100
0000
0001
0010
0100
,
0000
0010
0100
1000
0000
1000
0010
0001
,
0000
0110
0000
1001
0110
1000
0100
0010
,
0011
0000
1001
0000
0101
0000
0101
0110
,
0000
1000
0001
0010
0001
0000
0000
1000
,
0110
0000
0001
1100
0000
0011
0000
0101
,
0000
0100
0010
1000
0001
0000
1010
0001
,
0110
0000
0110
0000
1001
0000
1001
0011
,
0000
1100
0000
1010
0000
0001
0100
1000
,
0000
0100
0010
1000
0000
0001
0010
0100
,
0000
0110
1100
0110
0011
0000
1001
0000
,
1000
0010
0100
0001
1000
0100
0010
0001
0010
0100
0001
0100
1000
0100
0010
0001
,
1000
0010
0100
0001
1000
0100
0010
0001
0010
0100
0001
0100
1000
0100
0010
0001
,
1000
0010
0100
0001
1000
0100
0010
0001
0010
0100
0001
0100
1000
0010
0100
0001
,
1000
0000
0010
0000
1000
0000
0010
0000
1000
0000
0010
0000
1000
0000
0000
0100
0000
0000
0010
0000
0000
0001
0000
0000
0010
0000
0000
0100
0000
0000
0001
0000
0000
0100
0000
0000
0010
0000
0001
0000
0010
0000
0001
0000
0010
0000
0001
0000
,
1000
0010
0100
0001
1000
0100
0010
0001
0010
0100
0001
0100
1000
0100
0010
0001
,
1000
0000
0000
0010
0000
0000
0100
0000
0000
0001
0000
0000
1000
0000
0000
0100
0000
0000
0010
0000
0000
0001
0000
0000
0010
0000
0100
0000
0010
0000
0100
0000
0010
0000
0100
0000
1000
0000
0000
0100
0000
0000
0010
0000
0000
0001
0000
0000
,
1000
0000
0000
0010
0000
0000
0100
0000
0000
0001
0000
0000
1000
0000
0000
0100
0000
0000
0010
0000
0000
0001
0000
0000
0010
0000
0100
0000
0001
0000
0100
0000
0010
0000
0001
0000
1000
0000
0010
0000
0100
0000
0002
0000
0000
0000
0000
0000
,
0000
0000
1003
0001
0100
0010
1000
0000
,
1010
0000
1010
0101
0000
0101
0011
0000
,
0011
1100
0000
1100
1010
0000
1001
0000
,
0101
0000
1000
0000
0100
0000
0000
0010
,
0000
0001
0000
1000
0010
0000
0100
0000
,
1010
0000
1010
1100
0000
1100
0110
0000
,
0110
0011
0000
0011
0101
0000
1001
0000
,
1010
1100
0011
0101
,
0110
1010
1001
0011
,
1100
0000
1100
0110
0000
0110
0011
0000
,
0101
0000
0110
0000
0000
0000
1010
0000
1001
0000
0000
0000
0100
0000
0001
1000
,
0002
0000
0000
0000
,
0000
0000
0000
0000
0000
0000
0000
0000
1003
0100
1000
0010
0100
0001
0010
0001
,
1000
0000
0000
0001
,
1000
0000
0000
0000
1100
0011
0101
0110
,
1001
0000
0110
0000
1001
0000
0001
0010
,
0000
0001
0100
1000
0100
0000
0000
0110
,
0101
0000
0011
1100
0000
1010
0000
0101
,
0000
1000
0001
0010
0001
0000
1000
0010
,
0101
0000
0110
0000
1010
0000
1100
0011
,
0000
0101
0000
1001
0000
1000
0100
0010
,
0000
0100
0010
0001
0000
0001
0100
1000
,
0000
0000
0000
0101
0000
0000
1010
0000
0000
0000
0000
0000
1000
0000
0000
0001
0000
0000
1000
0100
0010
0001
0010
0100
,
1001
0000
1010
0000
0101
0000
0001
0010
,
0000
0100
1000
0010
0001
0000
0000
0110
,
1010
0000
1100
0011
0000
1001
0000
0101
,
0000
0100
0010
1000
0001
0000
1100
0001
,
0110
0000
1010
0000
1100
0000
0011
0101
,
0000
1010
0000
1001
0000
0001
0010
0100
,
0000
0010
0100
1000
0000
0001
0010
1000
,
0000
1010
1001
0101
0110
0000
1001
0000
,
1000
0100
1000
0010
0100
0001
0010
0001
0100
0010
1000
0100
1000
0010
0100
0001
0010
0001
0100
0010
1000
0100
0010
0001
,
1001
0000
0000
0000
,
0000
0000
0000
0000
,
1001
0000
0000
0000
,
0000
0000
0000
0000
0000
0000
1000
0100
0010
0000
0001
0000
1000
0000
0000
0000
,
1001
0011
0000
0011
,
0000
0011
0000
0011
,
1001
0011
0000
0011
,
1001
0100
0000
0000
0010
0010
0000
0000
,
1001
0100
0010
0001
0010
0100
1000
0100
0010
0001
0010
0100
1000
0100
0010
0001
,
1000
0010
0100
0001
0100
0010
1000
0010
0100
0001
0100
0010
1000
0010
0100
0001
,
1010
0100
0001
0010
0001
0100
0010
1000
0010
0100
0001
0010
0001
0100
0010
1000
,
0100
0010
0100
1000
0010
0100
0010
1000
0100
0010
0001
0010
0100
1000
0001
1000
,
0101
0010
1000
0010
0100
0001
1000
0001
0100
0010
1000
0010
0100
0001
1000
0001
,
1000
0100
0010
0100
0010
0001
1000
0001
0010
0100
0010
0100
1000
0001
1000
0010
,
0101
0010
1000
0001
0010
0001
1000
0100
1000
0001
0010
0001
0100
0010
0100
0001
,
1000
0000
0000
0100
0000
0000
0010
0000
0000
0100
0000
0000
1000
0000
0000
0010
0000
0000
1000
0000
0000
0001
0000
0000
0100
0000
0000
0001
0000
0000
0010
0000
0000
0001
0000
0000
0100
0000
0000
0010
0000
0000
1000
0000
0100
0000
1000
0000
,
0101
0001
0101
1000
0101
0001
0101
1000
,
0110
0010
0110
1000
0110
0010
0110
0001
,
1010
0010
1010
0001
1010
0010
1010
0001
,
1100
0010
1100
0100
1100
0010
1100
0001
,
0101
0001
0110
0010
1100
0100
0110
0010
,
0101
0100
1010
0010
1001
1000
0110
0100
,
0011
0100
0011
1000
0110
0001
0110
1001
,
0000
0101
0101
0000
0101
0000
0101
0000
,
2002
0000
0000
0000
,
0000
0000
0000
0000
,
3003
0000
0000
0000
;
