#TITLE:Battle AX;
#SUBTITLE:;
#ARTIST:onoken;
#TITLETRANSLIT:;
#SUBTITLETRANSLIT:;
#ARTISTTRANSLIT:;
#CREDIT:;
#BANNER:axbn.png;
#BACKGROUND:ax-bg final.png;
#LYRICSPATH:;
#CDTITLE:reny.png;
#MUSIC:onoken - battle ax.mp3;
#OFFSET:1.402;
#SAMPLESTART:70.510;
#SAMPLELENGTH:12.000;
#SELECTABLE:YES;
#BPMS:0.000=80.000,18.000=160.000,82.000=320.000,84.000=160.000,112.000=320.000,116.000=160.000,144.000=80.000,146.000=160.000,174.000=320.000,178.000=160.000,222.000=320.000,226.000=160.000;
#STOPS:82.000=0.094
,82.500=0.094
,83.000=0.094
,83.500=0.094
,112.000=0.047
,112.250=0.047
,112.500=0.047
,112.750=0.047
,113.000=0.047
,113.250=0.047
,113.500=0.047
,113.750=0.047
,114.000=0.047
,114.250=0.047
,114.500=0.047
,114.750=0.047
,115.000=0.047
,115.250=0.047
,115.500=0.047
,115.750=0.047
,174.000=0.125
,174.750=0.125
,175.500=0.125
,176.250=0.125
,177.000=0.047
,177.250=0.047
,177.500=0.047
,177.750=0.047
,222.000=0.094
,222.500=0.094
,223.000=0.094
,223.500=0.094
,224.000=0.047
,224.250=0.047
,224.500=0.047
,224.750=0.047
,225.000=0.047
,225.250=0.047
,225.500=0.047
,225.750=0.047
,242.000=0.375
;
#BGCHANGES:;
// cache tags:
#FIRSTBEAT:10.000;
#LASTBEAT:243.000;
#SONGFILENAME:Songs/Community Keyboard Megapack - Volume 1/(Ren) Battle Axe/battle ax.sm;
#HASMUSIC:1;
#HASBANNER:1;
#MUSICLENGTH:98.687;
// end cache tags

//---------------dance-single - ----------------
#NOTES:
     dance-single:
     :
     Hard:
     11:
     1.000,1.000,1.000,0.071,1.000,641.000,159.000,7.000,0.000,0.000:  // measure 1
0000
0000
0000
0000
,  // measure 2
0000
0000
0000
0000
,  // measure 3
0000
0000
0000
0000
0002
0003
0002
0000
,  // measure 4
0000
0000
0000
0000
,  // measure 5
1003
0000
0000
0000
0000
0000
0000
0000
0001
0000
0000
0000
0000
0000
0000
0000
0000
0000
0000
0001
0000
1000
0000
0001
0000
0000
0000
0000
1000
0000
0001
0000
1000
0000
0000
0000
0000
0000
0000
0000
1000
0000
0000
0000
0000
0000
0000
0000
0101
0000
0000
0000
0000
0000
0000
0000
0001
0000
0000
0000
0100
0000
0000
0000
,  // measure 6
0010
1000
0100
0010
0101
0000
0000
0000
0010
0000
0010
0000
1100
0000
1000
0001
,  // measure 7
0100
0010
1000
0001
1010
0000
0000
0000
0100
0000
0100
0000
1010
0000
1000
0001
,  // measure 8
0010
0100
1000
0001
1100
0000
0000
0000
0001
0000
0001
0000
0011
0000
1000
0001
,  // measure 9
0010
0100
1000
0010
0100
0001
0010
0100
1001
0000
1001
0000
0110
0000
1000
0001
,  // measure 10
0010
0100
1000
0100
0011
0000
0000
0000
0110
0000
0110
0000
1001
0000
0001
1000
,  // measure 11
0010
0100
0001
0100
1010
0000
0000
0000
1100
0000
0101
0000
0110
0000
1000
0001
,  // measure 12
0100
1000
0100
0010
0101
0000
0000
0000
0101
0000
1100
0000
0110
0000
0001
1000
,  // measure 13
0100
0001
0100
0010
1000
0001
1000
0001
0110
0000
0001
1000
0001
0000
1000
0000
,  // measure 14
0110
0000
0001
1000
0001
1000
0010
0000
0010
0100
0010
0100
1001
0000
0010
0001
,  // measure 15
0100
0010
1000
0100
1001
0000
0010
0000
1001
0000
1100
0000
0101
0000
0010
0100
,  // measure 16
0010
1000
0001
0100
0101
0000
0010
0000
1001
0000
0101
0000
1100
0000
0010
0100
,  // measure 17
0010
0001
1000
0100
1100
0000
0010
0000
0110
0000
0110
0000
1001
0000
0010
1000
,  // measure 18
0100
0010
0001
0100
1010
0000
0100
0000
0110
0000
0110
0000
1001
0000
0010
0001
,  // measure 19
0100
0010
1000
0100
0011
0000
0100
0000
0001
0100
0010
1000
0100
0010
0001
0100
,  // measure 20
0010
1000
0100
0010
0001
0100
0010
1000
0001
0010
0100
1000
0010
0100
0001
0010
,  // measure 21
0100
1000
0010
0100
0001
0010
0100
0000
1001
0000
0110
0000
1001
0000
0110
0000
,  // measure 22
1001
0000
1000
0011
0000
1000
0101
0000
1000
0011
0000
1000
0101
0000
1000
0011
,  // measure 23
0000
0000
1001
0000
0001
1010
0000
0001
1100
0000
0001
1010
0000
0001
1100
0000
,  // measure 24
0000
0000
1001
0000
0010
1100
0000
0010
0101
0000
0010
1100
0000
0010
0101
0000
,  // measure 25
0000
0000
1001
0000
0100
1010
0000
0100
0011
0000
0100
1010
0000
0100
0011
0000
,  // measure 26
0000
0000
1001
0000
0101
1000
0000
1000
0011
0000
0011
1000
0000
1000
0101
0000
,  // measure 27
0000
0000
1001
0000
1100
0001
0000
0001
1010
0000
1010
0001
0000
0001
1100
0000
,  // measure 28
0000
0000
1001
0000
0110
0001
0000
1000
0110
0000
0110
1000
0000
0001
0110
0000
,  // measure 29
0001
1000
0001
1000
0001
1000
0001
1000
0010
0100
0010
0100
0010
0100
0010
0100
,  // measure 30
1001
0000
1001
0000
0110
0000
0001
0010
0100
1000
0010
0100
0001
0000
1000
0001
,  // measure 31
0110
0000
0110
0000
1001
0000
1000
0010
0100
0001
0010
0100
1000
0000
0010
0100
,  // measure 32
1001
0000
1001
0000
0110
0000
1000
0100
0010
0001
0100
0010
1000
0000
0001
1000
,  // measure 33
0110
0000
0110
0000
1001
0000
0001
0100
0010
1000
0100
0010
0001
0000
1000
0100
,  // measure 34
0011
0000
0011
0000
1100
0000
0010
0100
1000
0001
0100
0010
1000
0000
0001
0100
,  // measure 35
1010
0000
1010
0000
0101
0000
0010
0100
0001
1000
0100
0010
0001
0000
1000
0010
,  // measure 36
0101
0000
0101
0000
1010
0000
0100
0010
0001
1000
0010
0100
0001
0000
1000
0001
,  // measure 37
1000
0000
0001
0010
0100
0000
1000
0001
1000
0001
1000
0001
1000
0000
0001
1000
0110
0000
0000
0000
1001
0000
0000
0000
0110
0000
0000
0000
0001
0000
0100
0000
,  // measure 38
0010
1000
0100
0010
0001
0100
0010
1000
0110
0000
1001
0000
0110
0000
0010
1000
,  // measure 39
0100
0010
0001
0100
0010
1000
0001
0010
1001
0000
0110
0000
1001
0000
1000
0100
,  // measure 40
0010
0001
0100
0010
1000
0100
0010
0001
0110
0000
1001
0000
0110
0000
0010
0001
,  // measure 41
0100
0010
1000
0100
0010
0001
0100
0010
0011
0000
0110
0000
1100
0000
1000
0010
,  // measure 42
0100
0001
0100
0010
1000
0001
0010
0100
1010
0000
0110
0000
0101
0000
0001
0010
,  // measure 43
0100
1000
0100
0010
0001
1000
0010
0100
0011
0000
1001
0000
0101
0000
0100
0010
,  // measure 44
0100
0001
0010
0100
1000
0100
0010
0001
2000
0000
0000
3200
0000
0000
0320
0000
,  // measure 45
0000
0032
0000
0000
1003
0001
1000
0001
0100
0000
0000
0001
0100
0000
0100
0010
,  // measure 46
0000
0010
1000
0000
1000
0001
0000
0001
1000
0001
0000
0000
0101
0000
0000
0000
,  // measure 47
1000
0000
0000
0000
1100
0000
0000
0000
0100
0000
0000
1000
0100
0000
0100
0010
,  // measure 48
0000
0010
0001
0000
0001
1000
0000
1000
0001
1000
0000
0000
1100
0000
0000
0000
,  // measure 49
0001
0000
0000
0000
0101
0000
0000
0000
0010
0000
0000
0100
1000
0000
1000
0010
,  // measure 50
0000
0010
0100
0000
0100
0001
0000
0010
0100
0010
0000
0000
1001
0000
0000
0000
,  // measure 51
0100
0000
0000
0000
1001
0000
0000
0000
0010
0000
0000
0100
0001
0000
0001
0010
,  // measure 52
0000
0010
0100
0000
0100
1000
0000
0010
0100
0010
1000
0001
1000
0001
0000
0000
,  // measure 53
1000
0000
0010
0000
0100
0000
0010
0100
1001
0000
1010
0000
1100
0000
0001
0010
,  // measure 54
0100
1000
0010
0100
0011
0000
0100
0010
1001
0000
0011
0000
0101
0000
1000
0010
,  // measure 55
0100
0001
0010
0100
1010
0000
0001
1000
0110
0000
0110
0000
1001
0000
0001
0100
,  // measure 56
0010
1000
0100
0010
1001
0000
1001
0000
0110
0000
0110
0000
1001
0000
0110
0000
,  // measure 57
0001
0010
0100
1000
0001
0010
0100
1000
1001
0000
1010
0000
1100
0000
0001
0010
,  // measure 58
0100
1000
0010
0100
0011
0000
0100
0010
1001
0000
0011
0000
0101
0000
1000
0010
,  // measure 59
0100
0001
0010
0100
1010
0000
0001
1000
0110
0000
0110
0000
1001
0000
0001
0100
,  // measure 60
0010
1000
0100
0010
1001
0000
0001
0100
0010
1000
0100
0010
0001
1000
0010
0100
,  // measure 61
0001
0010
0100
1000
0010
0100
0001
1000
0200
0000
0000
0000
0300
0000
0000
0000
;
