#TITLE:Das Love Bop;
#SUBTITLE:;
#ARTIST:The Quick Brown Fox;
#TITLETRANSLIT:;
#SUBTITLETRANSLIT:;
#ARTISTTRANSLIT:;
#CREDIT:;
#BANNER:das love bn.png;
#BACKGROUND:das love bg.png;
#LYRICSPATH:;
#CDTITLE:;
#MUSIC:Das Love Bop.ogg;
#OFFSET:-0.041;
#SAMPLESTART:18.704;
#SAMPLELENGTH:12.000;
#SELECTABLE:YES;
#DISPLAYBPM:320.000;
#BPMS:0.000=320.000,416.000=160.000,478.000=80.000,479.000=320.000,607.000=160.000;
#STOPS:;
#BGCHANGES:;
// cache tags:
#FIRSTBEAT:30.000;
#LASTBEAT:638.000;
#SONGFILENAME:Songs/SPEEEDCOOOORE 2/Das Love Bop - [Tyler]/Das Love Bop.sm;
#HASMUSIC:1;
#HASBANNER:1;
#MUSICLENGTH:140.250;
// end cache tags

//---------------dance-single - T. Moore----------------
#NOTES:
     dance-single:
     T. Moore:
     Challenge:
     15:
     1.000,1.000,0.121,0.770,0.488,931.000,17.000,108.000,103.000,0.000:
0000
0000
0000
0000
,
0000
0000
0000
0000
,
0000
0000
0000
0000
,
0000
0000
0000
0000
,
0000
0000
0000
0000
,
0000
0000
0000
0000
,
0000
0000
0000
0000
,
0000
0000
0000
0000
0001
1000
0001
0100
,
0010
0010
0010
0010
,
0100
0000
0100
0000
0001
1000
0001
0010
,
0000
0100
1000
0001
0000
1000
0000
0010
,
0000
0100
0000
0000
0000
0001
0100
0010
,
0000
1000
0010
0100
0000
0001
0000
0010
,
0000
0001
0000
0000
0000
0100
0010
1000
,
0000
0010
0100
0001
0000
1000
0000
0100
,
0000
0100
0000
1000
0001
0100
0010
1000
,
0001
0001
0010
0010
,
0100
0000
0100
0000
1000
0001
0100
0010
,
0000
0100
0001
1000
0000
0100
0000
0010
,
0000
0100
0000
0000
0000
1000
0001
0100
,
0000
0001
1000
0010
0000
1000
0000
0100
,
0000
1000
0000
0000
0000
0001
0100
M010
,
0000
100M
0001
10M0
0000
010M
0M00
M010
,
M00M
0000
0000
0000
0000
0000
0000
0000
0000
0000
0000
0000
0000
0000
0000
0000
0000
0000
0000
0000
0000
0000
0000
0000
M4MM
0000
0000
0000
0000
0000
0000
0000
0000
0000
0000
0000
0000
0000
0000
0000
0000
0000
0000
0000
0000
0000
0000
0000
M0MM
0000
0000
0000
0000
0000
0000
0000
0000
0000
0000
0000
0000
0000
0000
0000
0000
0000
0000
0000
0000
0000
0000
0000
M0MM
0000
0000
0000
0000
0000
0000
0000
0000
0000
0000
0000
00M0
0000
0000
0000
000M
0000
0000
0000
0000
0000
0000
0000
M0M0
0000
0000
0000
0000
0000
0000
0000
000M
0000
0000
0000
00M0
0000
0000
0000
M000
0000
000M
0000
0000
0000
0000
0000
0300
0000
0000
0000
0000
0000
0000
0000
0000
0000
0000
0000
0000
0000
0000
0000
0000
0000
0000
0000
0000
0000
0000
0000
1000
0000
0000
0000
0000
0000
0000
0000
0000
0000
0000
0000
0000
0000
0000
0000
0000
0000
0000
0000
0000
0000
0000
0000
0001
0000
0000
0000
0000
0000
0000
0000
0000
0000
0000
0000
0000
0000
0000
0000
0000
0000
0000
0000
0000
0000
0000
0000
,
1000
0100
0100
0001
0100
0100
1000
0010
,
0010
0000
0001
0000
0010
0000
0100
0000
0000
0000
1000
0100
1000
0000
0000
0000
,
0002
2003
3020
0230
,
0302
2003
3020
0230
,
0301
0010
0100
1000
0010
0100
0001
0010
,
0100
1000
0010
0100
0001
0010
0001
0100
,
0020
2030
3200
0320
,
0034
0000
0000
0000
0000
0000
0000
0000
0003
0000
0000
0000
0000
0000
0000
0000
1000
0000
0000
0000
0000
0000
0000
0000
1000
0000
0000
0000
0000
0000
0000
0000
0004
0003
0000
0000
0000
0000
0000
0000
0004
0003
0000
0000
0000
0000
0000
0000
0020
0000
0000
0000
0000
0000
0000
0000
0000
0000
0000
0000
0000
0000
0000
0000
,
0031
0100
0100
1000
0100
0100
0001
0010
,
0010
0000
1000
0000
0010
0000
0100
0000
0000
0000
0001
0100
0001
0000
0000
0000
,
2000
3002
0023
0230
,
2300
3002
0023
0230
,
0310
0001
0100
0010
1000
0100
0010
0001
,
0100
0010
1000
0100
0010
0001
1000
0010
,
0200
0302
2003
3020
,
0230
0000
0000
0000
0000
0000
0000
0000
0302
0000
0000
0000
0000
0000
0000
0000
4003
0000
0000
0000
0000
0000
0000
0000
0000
0000
0000
0000
0000
0000
0000
3000
,
0001
0100
0100
0010
0100
0100
0001
0010
,
0010
0000
0100
0000
0001
0000
1000
0000
0000
0000
0001
1000
0001
0000
0000
0000
,
0200
0302
0023
0230
,
2300
3020
0230
0304
,
0013
0001
0100
0010
1000
0100
0010
0001
,
0100
0010
1000
0100
0010
0000
0004
0003
,
1002
0000
0000
0000
0000
0000
0000
0000
0000
0000
0000
0000
0000
0000
0003
0000
0021
0000
0000
0000
0000
0000
0000
0000
0000
0000
0000
0000
0000
0000
0000
0030
1200
0000
0000
0000
0000
0000
0000
0000
0000
0000
0000
0000
0000
0000
0000
0300
2001
0000
0000
0000
0000
0000
0000
0000
0000
0000
0000
0000
0000
0000
0000
0000
,
3040
0430
0340
4030
3400
0340
0034
0403
,
0301
1000
0100
0010
0100
0100
0001
0010
,
0100
0000
0100
0000
0001
0000
1000
0010
1000
0000
0001
0000
0010
0000
0100
0000
,
1000
0001
0010
0001
0100
0100
1000
0010
,
0100
0000
0100
0000
1000
0000
0001
0100
0001
0000
1000
0000
0010
0000
1000
0000
,
0100
0100
0001
0010
0100
0100
0010
1000
,
0100
0000
1000
0000
0100
0000
1000
0001
0100
0000
0100
0000
1000
0000
0001
0000
,
0010
0010
1000
0001
0100
0100
1000
0001
,
0010
0010
1000
0010
0100
0010
0100
0010
,
1000
0001
0010
0001
0100
0100
1000
0001
,
0010
0000
0010
0000
1000
0000
0001
1000
0100
0000
0100
0000
0001
0000
0010
0000
,
0010
1000
0001
1000
0100
0100
0001
1000
,
0010
0000
0010
0000
0001
0000
1000
0001
0100
0000
0100
0000
1000
0000
0010
0000
,
0100
0100
1000
0010
0100
0100
1000
0001
,
0010
0000
0001
0000
0010
0000
0001
1000
0100
0000
0100
0000
0001
0000
1000
0000
,
0010
0010
0001
1000
0100
0100
0001
1000
,
0010
0010
0001
1000
0001
1000
0010
0100
,
0002
0000
2003
0000
,
3002
0000
0000
0000
0003
0100
0010
1000
,
0000
0010
0100
0001
0000
1000
0000
0010
,
0000
1000
0000
0000
0000
0001
0100
0010
,
0000
0100
0001
1000
0000
0001
0000
0010
,
0000
0001
0000
0000
0000
1000
0100
0010
,
0000
0100
1000
0001
0000
1000
0000
0010
,
0000
MMMM
MMMM
MMMM
MMMM
MMMM
MMMM
MMMM
,
0001
1000
0100
0010
0001
1000
0001
0100
0001
1000
0010
1000
,
0400
0000
0310
0004
0000
1003
0040
0000
,
1030
0100
1000
0001
0400
0300
0004
0003
,
1000
0100
1000
0000
0001
0100
0001
0000
1000
0100
1000
0000
0004
0000
0000
0003
,
1000
0001
0100
0010
1000
0001
0100
0001
1000
0010
0100
0001
,
4000
3000
0400
0300
0040
0030
0004
0003
1000
0001
1000
0000
0010
0000
0100
0000
,
0001
1000
0001
1000
,
0001
0000
0000
0000
0000
0000
0000
0000
0000
0000
0000
0000
0000
0000
0000
0000
1000
0000
0000
0000
0000
0000
0000
0000
0000
0000
0000
0000
0000
0000
0000
0000
0001
0000
0000
0000
0000
0000
0000
0000
0000
0000
0000
0000
0000
0000
0000
0000
1000
0000
0000
0000
0000
0000
0000
0000
0000
0000
0000
0000
0000
0000
0000
0000
0001
0000
0000
0000
0000
0000
0000
0000
0000
0000
0000
0000
0000
0000
0000
0000
1000
0000
0000
0000
0000
0000
0000
0000
0000
0000
0000
0000
0000
0000
0000
0000
0004
0000
0000
0000
0000
0000
0000
0000
0000
0000
0000
0000
0000
0000
0000
0000
0000
0000
0003
0000
0000
0000
0000
0000
0000
0000
0000
0000
0000
0000
0000
0000
0000
0000
0000
0000
4000
0000
0000
0000
0000
0000
0000
0000
0000
0000
0000
0000
3000
0000
0000
0000
0000
0000
0000
0000
0000
0000
0000
0000
0000
0000
0000
0000
0000
0000
0000
0000
0000
0000
0000
0000
0004
0000
0000
0000
0000
0000
0003
0000
0000
0000
0000
0000
0000
0000
0000
0000
0000
0000
0000
0000
0000
0000
0000
0000
,
1000
0000
0010
0000
0100
0000
0001
0000
0100
0000
0010
0000
1000
0000
0000
0000
0000
0000
0001
0000
0000
1000
0000
0000
,
0000
0000
0010
0100
0010
0000
1000
0000
0001
0000
1000
0000
0200
0300
0000
0000
,
1000
0000
0000
0100
0000
0000
0040
0000
0000
0130
0000
0000
1000
0000
0001
0000
1000
0000
0001
0000
0100
0000
0010
0000
,
1000
0000
0000
0001
0000
0000
1000
0000
0010
0000
0100
0000
0001
0000
1000
0000
0001
0000
1000
0000
0000
0000
0000
0000
,
0004
0000
0000
0000
0003
0000
4000
0000
0000
3000
0000
0000
0040
0000
0000
0000
0030
0000
0000
0000
0000
0000
0000
0000
1000
0000
0000
0000
0000
0000
0010
0000
0000
0000
0000
0000
0100
0000
0000
0000
0000
0000
0001
0000
0000
0000
0000
0000
,
1000
0010
1000
0000
0001
0000
0100
0001
0100
0000
0010
0000
1000
0001
1000
0000
,
0001
0000
0000
0000
0000
0000
0000
0000
1000
0000
0000
0000
0000
0000
0000
0000
0100
0000
0000
0000
0000
0000
0000
0000
1000
0000
0000
0000
0000
0000
0000
0000
0001
0000
0000
0000
0000
0000
0000
0000
0100
0000
0000
0000
0000
0000
0000
0000
0020
0000
0030
0000
0000
0000
0000
0000
0200
0300
0000
0000
0000
0000
0000
0000
,
0001
1000
0100
1000
0MM2
MMM0
MMM0
MMM3
,
1000
0100
0100
0001
0100
0100
1000
0100
,
0100
0000
0001
0000
1000
0000
0001
1000
0001
0000
0100
0001
0100
0000
0010
0000
,
0200
0301
2000
3001
0020
0130
2000
3001
,
0200
0000
0310
0000
2000
0000
3001
0010
0200
0000
1300
0000
0002
0000
0103
0000
,
0010
1000
0100
0010
0001
0100
0010
1000
,
0100
0000
0010
0000
0001
0000
0100
0000
0001
1000
0001
0000
0010
0000
0100
0000
,
2000
3010
0200
0301
2000
3100
0020
0031
,
2000
3010
0200
0301
1000
0001
0010
0001
,
1000
0100
0100
0010
0100
0100
1000
0010
,
0010
0000
0001
0000
0100
0000
0001
1000
0001
0000
1000
0100
1000
0000
0001
0000
,
0200
0301
0020
0130
2000
3001
0200
0301
,
2000
0000
3100
0000
0020
0000
0031
0010
0200
0000
1300
0000
0002
0000
0103
0000
,
0010
1000
0100
0010
0001
0100
0010
1000
,
0100
0000
0010
0000
0001
0000
0100
0000
0001
1000
0001
0000
0010
0000
0100
0000
,
2000
3001
0200
0310
2000
3001
0020
0130
,
2000
0000
0000
0000
3001
0000
0000
0000
0200
0000
0000
0000
0340
0000
0000
0000
0000
0000
0000
0000
0000
0000
0000
0000
0000
0000
0000
0000
0000
0000
0000
0030
,
1010
1000
1000
1000
,
0100
0100
0010
0010
,
0001
0001
0001
0001
,
0001
0001
0001
0001
,
0100
0100
0100
0100
,
0100
0100
0100
0100
,
0010
0010
0010
0010
,
0010
0010
0010
0010
,
1001
1000
1000
1000
,
0100
0100
0010
0010
,
0001
0001
0001
0001
,
0001
0001
0001
0001
,
0100
0100
0100
0100
,
0100
0100
0100
0100
,
0010
0010
0010
0010
,
0010
0000
0010
0000
0010
0000
1000
0100
,
0100
0010
0100
0100
0010
0100
0100
0001
,
0010
0000
0001
1000
0001
0000
1000
0100
1000
0000
0001
0000
0020
0000
0130
0000
,
2000
3001
0200
0310
2000
3001
0020
0130
,
2000
0000
3001
0010
0002
0000
1003
0000
0010
1000
0010
0000
0100
0000
0001
0000
,
0010
0100
1000
0010
0100
0001
0010
0100
,
1000
0010
0100
0001
0010
0100
0020
0031
,
2000
3010
0200
0301
2000
3100
0020
0031
,
2000
3010
0200
0301
2000
3001
1000
0100
,
0100
0001
0100
0100
0010
0100
0100
0010
,
1000
0000
0001
1000
0001
0000
0100
0001
0100
0000
0010
0100
0020
0000
1030
0000
,
0002
0013
0200
1300
0002
0103
0020
1030
,
0002
0000
0013
0100
2000
0000
3001
0000
0200
0000
0310
0000
1000
0000
0010
0000
,
0100
0001
0010
0100
1000
0010
0100
0001
,
0010
0000
0100
0000
1000
0100
1000
0000
0001
0000
0100
0000
0020
0000
1030
0000
,
0002
0013
0200
1300
0002
0103
0020
1030
,
0002
0000
0000
0000
0000
0000
0000
0000
0000
0000
0000
0000
0000
0000
0000
0000
0000
0000
0000
0000
0000
0000
0000
0000
0013
0000
0000
0000
0000
0000
0000
0000
0000
0000
0000
0000
0000
0000
0000
0000
0000
0000
0000
0000
0000
0000
0000
0000
0400
0000
0000
0000
0000
0000
0000
0000
0000
0000
0000
0000
0000
0000
0000
0000
0000
0000
0000
0000
0000
0000
0000
0000
0000
0000
0000
0000
0000
0000
0000
0000
0000
0000
0000
0000
0000
0000
0000
0000
0000
0000
0000
0000
0000
0000
0000
0000
0000
0000
0000
0000
0000
0000
0000
0000
0000
0000
0000
0000
0000
0000
0000
0000
0000
0000
0000
0000
0000
0000
0000
0000
0000
0000
0000
0000
0000
0000
0000
0000
0000
0000
0000
0000
0000
0000
0000
0000
0000
0000
0300
0000
0000
0000
0000
0000
1000
0000
0000
0000
0000
0000
0000
0000
0000
0000
0000
0000
0000
0000
0000
0000
0001
0000
0000
0000
0000
0000
0000
0000
0000
0000
0000
0000
0000
0000
0000
0000
1000
0000
0000
0000
0000
0000
0000
0000
0000
0000
0000
0000
0000
0000
0000
0000
,
0100
0010
0001
1000
0001
1000
0010
0100
0001
4000
0000
0000
,
3010
0400
0000
0301
4000
0000
3001
0010
,
0001
0000
1000
0000
0040
0000
0030
0000
4000
0000
3000
0000
0001
0100
0001
0000
,
1000
0000
0000
0100
0000
0000
1000
0000
0000
0000
0000
0000
0001
0000
0000
0100
0000
0000
0001
0000
0000
0000
0000
0000
4000
0000
0000
0000
0000
0000
0000
0000
0000
3000
0000
0000
0001
0000
0000
0000
1000
0000
0000
0000
0010
0000
0000
0000
,
0100
0000
0000
0000
0001
0000
0000
0000
1000
0000
0000
0000
0010
0000
0000
0000
1000
0000
0000
0000
0001
0000
0000
0000
0100
0000
0000
0000
0010
0000
0000
0000
1000
0000
0000
0000
0004
0000
0000
0003
0000
0000
0040
0000
0000
0030
0000
0000
,
0400
0300
4000
3000
0001
1000
0001
0000
0100
0000
0010
0000
1000
0000
0000
0000
,
0001
0000
0000
1000
0000
0000
0001
0000
0000
1000
0001
1000
,
0001
0000
0000
0000
0000
0000
0000
0000
0000
0000
0000
0000
0000
0000
0000
0000
1000
0000
0000
0000
0000
0000
0000
0000
0000
0000
0000
0000
0000
0000
0000
0000
0001
0000
0000
0000
0000
0000
0000
0000
0000
0000
0000
0000
0000
0000
0000
0000
4000
0000
0000
0000
0000
0000
0000
0000
0000
0000
0000
0000
0000
0000
0000
0000
0000
0000
3000
0000
0000
0000
0000
0000
0000
0000
0000
0000
0000
0000
0000
0000
0000
0000
0000
0000
0004
0000
0000
0000
0000
0000
0000
0000
0000
0000
0000
0000
0003
0000
0000
0000
0000
0000
0000
0000
0000
0000
0000
0000
0000
0000
0000
0000
0000
0000
0000
0000
0000
0000
0000
0000
4000
0000
0000
0000
0000
0000
3000
0000
0000
0000
0000
0000
0000
0000
0000
0000
0000
0000
0000
0000
0000
0000
0000
0000
0001
0000
0000
0000
0000
0000
0000
0000
0000
0000
0000
0000
0000
0000
0000
0000
0100
0000
0000
0000
0000
0000
0000
0000
0000
0000
0000
0000
0000
0000
0000
0000
0010
0000
0000
0000
0000
0000
0000
0000
0000
0000
0000
0000
0000
0000
0000
0000
,
1000
0000
0000
0000
0010
0000
0000
0000
0100
0000
0000
0000
0001
0000
0000
0000
0000
0000
0000
0000
0000
0000
0000
0000
1000
0000
0000
0000
0000
0000
0001
0000
0000
0000
0000
0000
0000
0000
0000
0000
0000
0000
0100
0000
0000
0010
0000
0000
,
0100
0000
0001
0000
1000
0000
0001
0000
0020
0030
0000
0000
0001
0000
0010
0000
,
0400
0000
0000
0310
0000
0000
0001
0000
1000
0000
0001
0000
1000
0000
0010
0000
0100
0000
0001
0000
0000
1000
0000
0000
,
0001
0000
0000
0000
0100
0000
0000
0000
0010
0000
0000
0000
1000
0000
0000
0000
0001
0000
0000
0000
1000
0000
0000
0000
0001
0000
0000
0000
0000
0000
0000
0000
0000
0000
0000
0000
4000
0000
0000
0000
3000
0000
0004
0000
0000
0003
0000
0000
,
0400
0000
0000
0000
0300
0000
0000
0000
0000
0000
0000
0000
0001
0000
0000
0000
0000
0000
0100
0000
0000
0000
0000
0000
0010
0000
0000
0000
0000
0000
1000
0000
0000
0000
0000
0000
0001
0000
0000
0100
0000
0000
0001
0000
0000
0000
0000
0000
,
1000
0000
0010
1000
0010
0000
0100
0000
0001
1000
0001
0000
1000
0000
0001
0000
,
0010
0000
0000
0000
0000
0000
0000
0000
0001
0000
0000
0000
0000
0000
0000
0000
1000
0000
0000
0000
0000
0000
0000
0000
0010
0000
0000
0000
0000
0000
0000
0000
0200
0000
0300
0000
0000
0000
0000
0000
0020
0030
0000
0000
0000
0000
0000
0000
1000
0000
0000
0000
0000
0000
0000
0000
0001
0000
0000
0000
0000
0000
0000
0000
,
0010
0001
2MM0
0MMM
0MMM
3000
20M2
0000
,
00M0
00M0
00M0
0M03
,
0M00
000M
000M
0M00
,
0M00
0M00
0M00
0M00
,
0M00
0M00
0M00
3000
,
M000
M000
M000
M000
,
M000
M000
M000
00M0
,
00M0
00M0
00M0
00M0
,
00M0
00M0
00M0
0000
;
