#TITLE:Hey Ya!;
#SUBTITLE:Sexuality Violation;
#ARTIST:OutKast;
#TITLETRANSLIT:;
#SUBTITLETRANSLIT:;
#ARTISTTRANSLIT:;
#CREDIT:;
#BANNER:Hey Ya!-bn.png;
#BACKGROUND:Hey Ya!-bg.png;
#LYRICSPATH:;
#CDTITLE:GazeboCD.png;
#MUSIC:Hey Ya!.ogg;
#OFFSET:0.107;
#SAMPLESTART:167.475;
#SAMPLELENGTH:17.373;
#SELECTABLE:YES;
#BPMS:0.000=158.967;
#STOPS:;
#BGCHANGES:;
// cache tags:
#FIRSTBEAT:4.000;
#LASTBEAT:532.000;
#SONGFILENAME:Songs/Sexuality Violation 2/Hey Ya! - [Gazebo]/Hey Ya!.sm;
#HASMUSIC:1;
#HASBANNER:1;
#MUSICLENGTH:208.862;
// end cache tags

//---------------dance-single - Gazebo----------------
#NOTES:
     dance-single:
     Gazebo:
     Challenge:
     17:
     1.000,1.000,0.057,0.383,1.000,1396.000,12.000,80.000,0.000,6.000:

0000
0000
0000
0000
,
1000
0000
0001
0000
0100
0010
1000
0000
,
2000
0000
3010
2000
0000
3001
0100
0001
,
0020
0000
0031
0020
0000
0130
1000
0100
,
0010
0000
0001
0000
0020
0000
0031
1000
,
0000
1000
0001
0000
0100
0000
0010
1000
,
0010
1000
0001
0000
1000
0000
0100
0000
,
0020
0000
0000
0031
2000
0000
3001
2000
,
0000
3010
0100
0010
2000
0000
3010
2000
,
0000
3001
0100
0001
0010
0000
0100
0000
,
0020
0000
0031
1000
0000
1000
0001
0000
,
0010
0000
0100
1000
0100
1000
0001
0000
,
1000
0000
0010
0000
0200
0000
0000
0301
,
2000
0000
3001
2000
0000
3100
0010
0100
,
2000
0000
3100
2000
0000
3001
0010
0001
,
0100
0000
0010
0000
0200
0000
0301
1000
,
0000
1000
0001
0000
0100
0000
0010
1000
,
0010
1000
0001
0000
1000
0000
0100
0000
,
0020
0000
0000
0031
2000
0000
3001
2000
,
0000
3010
0100
0010
2000
0000
3010
2000
,
0000
3001
0100
0001
0010
0000
0100
0000
,
0020
0000
0031
1000
0000
1000
0001
0000
,
0010
0000
0100
1000
0100
1000
0001
0000
,
1000
0100
1000
0100
0010
0001
1000
0001
1000
0100
0010
0001
0010
0001
1000
0010
1000
0001
0010
0001
1000
0100
1000
0001
,
0100
0001
0100
0010
1000
0001
0100
0001
0100
0010
1000
0001
1000
0001
0100
0010
1000
0001
1000
0001
0100
0010
0100
0001
,
1000
0000
0010
1000
0000
1000
0001
0000
,
1000
0001
0100
0001
0100
0010
1000
0010
0100
0001
1000
0001
0010
0100
1000
0001
1000
0100
0010
0001
0010
0100
1000
0001
,
1000
0001
0010
0100
1000
0001
0010
0001
1000
0100
0010
0001
1000
0000
0000
0000
0000
0000
0001
0000
0000
0100
0000
0000
,
0001
0000
0000
0100
0000
0000
0010
0000
0000
0000
0000
0000
1000
0010
1000
0010
0100
0001
1000
0001
1000
0010
0100
0001
,
0100
0001
1000
0100
1000
0001
0100
0001
1000
0010
1000
0001
0010
0001
0010
0100
1000
0001
0010
0001
0010
0100
1000
0001
,
1000
0001
0010
0100
1000
0001
1000
0001
0010
0100
0010
0001
1000
0000
0000
0000
0000
0000
0100
0000
0000
1000
0000
0000
,
0000
0000
0000
1000
0000
0000
0001
0000
0000
0000
0000
0000
1000
0001
0010
0001
0010
0100
1000
0100
0010
0001
1000
0001
,
0100
0010
1000
0001
1000
0010
0100
0001
0100
0010
1000
0001
1000
0001
0100
0010
1000
0001
0100
0001
1000
0010
0100
0001
,
1000
0000
0001
0010
0001
0010
0100
0000
,
1000
0100
1000
0100
0010
0001
1000
0001
1000
0100
0010
0001
0010
0001
1000
0010
1000
0001
0010
0001
1000
0100
1000
0001
,
0100
0001
0100
0010
1000
0001
0100
0001
0100
0010
1000
0001
1000
0001
0100
0010
1000
0001
1000
0001
0100
0010
0100
0001
,
1000
0000
0010
1000
0000
1000
0001
0000
,
1000
0001
0100
0001
0100
0010
1000
0010
0100
0001
1000
0001
0010
0100
1000
0001
1000
0100
0010
0001
0010
0100
1000
0001
,
1000
0001
0010
0100
1000
0001
0010
0001
1000
0100
0010
0001
1000
0000
0000
0000
0000
0000
0001
0000
0000
0100
0000
0000
,
0001
0000
0000
0100
0000
0000
0010
0000
0000
0000
0000
0000
1000
0010
1000
0010
0100
0001
1000
0001
1000
0010
0100
0001
,
0100
0001
1000
0100
1000
0001
0100
0001
1000
0010
1000
0001
0010
0001
0010
0100
1000
0001
0010
0001
0010
0100
1000
0001
,
1000
0001
0010
0100
1000
0001
1000
0001
0010
0100
0010
0001
1000
0000
0000
0000
0000
0000
0100
0000
0000
1000
0000
0000
,
0000
0000
0000
1000
0000
0000
0001
0000
0000
0000
0000
0000
1000
0001
0010
0001
0010
0100
1000
0100
0010
0001
1000
0001
,
0100
0010
1000
0001
1000
0010
0100
0001
0100
0010
1000
0001
1000
0001
0100
0010
1000
0001
0100
0001
1000
0010
0100
0001
,
1000
0000
0001
0010
0001
0010
0100
0000
,
1000
0001
0001
0010
0001
0100
0000
2010
,
0000
3001
0001
0100
0001
0010
0000
0100
,
1000
0100
1000
1000
0001
0010
0001
0001
,
0100
0010
0010
2000
0000
0000
3100
2000
,
0000
0000
3001
2000
0000
0000
3010
2000
,
0000
3100
4000
0000
3001
1000
1000
0100
,
1000
0010
0000
0102
0000
1003
1000
0010
,
1000
0100
0000
0010
0001
0010
0001
0001
,
1000
0100
1000
1000
0010
0100
0100
0002
,
0000
0000
0013
0002
0000
0000
1003
0002
,
0000
0000
0103
0002
0000
0013
0004
0000
,
1003
0010
0010
0100
0010
1000
0000
0002
,
0003
0002
2003
3200
2300
3200
0320
0031
,
1000
0010
0000
1000
0001
0010
0000
0001
,
0100
0010
0000
1000
0100
0010
0001
0100
,
0001
1000
0100
0010
0002
0000
2003
0000
,
3020
0000
0230
0302
0000
1003
0100
1000
,
0100
1000
0000
0012
0000
1003
0001
1000
,
0001
0100
0000
0100
0010
0100
0010
0100
,
0010
1000
0001
1000
0100
0010
0010
0000
,
0001
0002
0000
2000
0000
0000
0000
0000
,
0000
0000
3003
0000
,
0001
0100
0001
0100
0010
1000
0001
1000
0001
0100
0010
1000
0010
1000
0001
0010
0001
1000
0010
1000
0001
0100
0001
1000
,
0100
1000
0100
0010
0001
1000
0100
1000
0100
0010
0001
1000
0001
1000
0100
0010
0001
1000
0001
1000
0100
0010
0100
1000
,
0001
0000
0010
0001
0000
0001
1000
0000
,
0001
1000
0100
1000
0100
0010
0001
0010
0100
1000
0001
1000
0010
0100
0001
1000
0001
0100
0010
1000
0010
0100
0001
1000
,
0001
1000
0010
0100
0001
1000
0010
1000
0001
0100
0010
1000
0001
0000
0000
0000
0000
0000
1000
0000
0000
0100
0000
0000
,
1000
0000
0000
0100
0000
0000
0010
0000
0000
0000
0000
0000
0001
0010
0001
0010
0100
1000
0001
1000
0001
0010
0100
1000
,
0100
1000
0001
0100
0001
1000
0100
1000
0001
0010
0001
1000
0010
1000
0010
0100
0001
1000
0010
1000
0010
0100
0001
1000
,
0001
1000
0010
0100
0001
1000
0001
1000
0010
0100
0010
1000
0001
0000
0000
0000
0000
0000
0100
0000
0000
0001
0000
0000
,
0000
0000
0000
0001
0000
0000
1000
0000
0000
0000
0000
0000
0001
1000
0010
1000
0010
0100
0001
0100
0010
1000
0001
1000
,
0100
0010
0001
1000
0001
0010
0100
1000
0100
0010
0001
1000
0001
1000
0100
0010
0001
1000
0100
1000
0001
0010
0100
1000
,
0001
0000
1000
0010
1000
0010
0100
0000
,
0001
0100
0001
0100
0010
1000
0001
1000
0001
0100
0010
1000
0010
1000
0001
0010
0001
1000
0010
1000
0001
0100
0001
1000
,
0100
1000
0100
0010
0001
1000
0100
1000
0100
0010
0001
1000
0001
1000
0100
0010
0001
1000
0001
1000
0100
0010
0100
1000
,
0001
0000
0010
0001
0000
0001
1000
0000
,
0001
1000
0100
1000
0100
0010
0001
0010
0100
1000
0001
1000
0010
0100
0001
1000
0001
0100
0010
1000
0010
0100
0001
1000
,
0001
1000
0010
0100
0001
1000
0010
1000
0001
0100
0010
1000
0001
0000
0000
0000
0000
0000
1000
0000
0000
0100
0000
0000
,
1000
0000
0000
0100
0000
0000
0010
0000
0000
0000
0000
0000
0001
0010
0001
0010
0100
1000
0001
1000
0001
0010
0100
1000
,
0100
1000
0001
0100
0001
1000
0100
1000
0001
0010
0001
1000
0010
1000
0010
0100
0001
1000
0010
1000
0010
0100
0001
1000
,
0001
1000
0010
0100
0001
1000
0001
1000
0010
0100
0010
1000
0001
0000
0000
0000
0000
0000
0100
0000
0000
0001
0000
0000
,
0000
0000
0000
0001
0000
0000
1000
0000
0000
0000
0000
0000
0001
1000
0010
1000
0010
0100
0001
0100
0010
1000
0001
1000
,
0100
0010
0001
1000
0001
0010
0100
1000
0100
0010
0001
1000
0001
1000
0100
0010
0001
1000
0100
1000
0001
0010
0100
1000
,
0001
0000
1000
0100
0000
0100
1000
0001
,
0100
0000
0000
0000
0000
0000
0000
0000
0010
0000
0000
0000
0000
0000
0000
0000
0000
0000
0000
0000
0000
0000
0000
0000
0000
0000
0000
0000
0000
0000
0000
0000
0000
0000
0000
0000
0000
0000
0000
0000
0000
0000
0000
2222
0000
0000
0000
0000
0000
0000
0000
0000
0000
0000
0000
0000
0000
0000
0000
0000
0000
0000
0000
0000
,
3333
0000
0000
0000
0000
0000
0000
0000
0000
0000
0000
0000
0000
0000
0000
0000
0000
0000
0000
0000
0000
0000
0000
0000
0000
0000
0000
0000
0000
0000
0000
0000
0000
0000
0000
0000
0000
0000
0000
0000
0000
0000
0000
0000
0000
0000
0000
0000
0000
0000
0000
0000
0000
0000
0000
0000
0000
0000
0000
0000
0000
0000
0000
0000
0000
0000
0000
0000
0000
0000
0000
0000
0000
0000
0000
0000
0000
0000
0000
0000
0000
0000
0000
0000
0000
0000
0000
0000
0000
0000
0000
0000
0000
0000
0000
0000
0000
0000
0000
0000
0000
0000
0000
0000
0000
0000
0000
0000
0000
0000
0000
0000
0000
0000
0000
0000
0000
1000
0000
0000
0000
0000
0000
0000
0000
0000
0000
0000
0000
0000
0000
0000
0000
0000
0000
0000
0000
0000
0001
0000
0000
0000
0000
0000
0000
0000
0000
0000
0000
0000
0000
0000
0000
0000
0000
0000
0000
0000
0000
0000
0000
0000
0000
0000
0010
0000
0000
0000
0000
0000
0000
0000
0000
0000
0000
0000
0000
0000
0000
0000
0000
0000
0000
0000
0000
0000
0000
0000
0000
0000
0100
0000
,
0000
0000
0000
0000
0000
0000
0000
0000
0000
0000
0000
0000
0000
0000
0000
0000
0000
0000
0000
0000
0000
0000
0000
0000
0000
0000
0000
0000
0000
0000
0000
0000
0000
0000
0000
0000
0000
0000
0000
0000
0000
0000
0000
0000
0000
0000
0000
0000
1000
0000
0000
0000
0000
0000
0000
0000
0000
0000
0000
0000
0000
0000
0000
0000
0000
0000
0000
0000
0000
0000
0000
0000
0000
0000
0000
0000
0010
0000
0000
0000
0000
0000
0000
1000
0000
0000
0000
0000
0000
0000
0000
0000
0000
0000
0000
0000
0000
0000
0000
0000
0000
0000
0000
0000
0000
0000
0000
0000
0000
0000
0000
0000
0000
0000
0000
0000
0000
0000
0000
0000
0001
0000
0000
0000
0000
0000
0000
0000
0000
0000
0000
0000
0000
0000
0000
0000
0000
0000
0000
0000
0000
0000
0000
0000
0000
0000
0000
0000
0000
0000
0000
0000
0000
0000
0000
0000
0000
0000
0000
0000
0000
0000
0000
0000
0000
0000
0000
0000
0000
0000
0000
0000
0000
0000
0000
0000
0000
0000
0000
0000
0000
0000
0000
0000
0000
0000
0000
0000
0000
0000
0000
0000
,
2222
0000
0000
0000
0000
0000
0000
0000
0000
0000
0000
0000
0000
0000
0000
0000
3333
0000
0000
0000
0000
0000
0000
0000
2222
0000
0000
0000
0000
0000
0000
0000
0000
0000
0000
0000
0000
0000
0000
0000
3333
0000
0000
0000
0000
0000
0000
0000
0000
0000
0000
0000
0000
0000
0000
0000
1000
0000
0000
0000
0000
0000
0000
0100
,
0000
0000
0000
0000
0000
0000
0000
0000
0000
0000
0000
0000
0000
0000
0000
0000
0000
0000
0000
0000
0000
0000
0000
0000
0010
0000
0000
0000
0000
0000
0000
0000
0000
0000
0000
0000
0000
0000
0000
0000
0000
0000
0000
0000
0000
0000
0000
0000
0000
0000
0000
0000
0001
0000
0000
0000
0000
0000
0000
0000
0000
0000
0000
0000
0000
0000
0000
0000
0000
0000
0000
0000
0000
0000
0000
0000
0000
0000
0000
0000
0000
0000
0000
0000
0000
0000
0000
0000
0000
0000
0000
0000
0000
0000
0000
0000
0000
0000
0000
0000
0000
0000
0000
0000
0000
0000
0000
0000
0000
0000
0000
0000
0000
0000
0000
0000
0000
0000
0000
0000
0000
0000
0000
0000
0000
0000
0000
0000
0000
1000
0000
0000
0000
0000
0000
0000
0000
0000
0000
0000
0000
0000
0000
0000
0010
0000
0000
0000
0000
0000
0000
0000
0000
0000
0000
0000
0000
0000
0000
0000
0000
0000
0000
0000
0000
0000
0000
0000
0000
0000
0000
0000
0000
0000
0000
0000
0000
1000
0000
0000
0000
0000
0000
0000
0000
0000
0000
0000
0000
0000
0000
0000
,
0000
0000
0000
1000
0000
0000
0100
0000
0000
0010
0000
0001
0000
0000
1000
0001
0000
0000
0100
0000
0000
0000
0000
0000
,
0000
0000
0000
0000
0000
0000
0000
0000
0000
0000
0000
0000
0000
0000
0000
0000
0000
0000
0000
0000
0000
0000
0000
0000
0000
0000
0000
0000
0000
0000
0000
0000
0000
0000
2222
0000
0000
0000
0000
0000
0000
0000
0000
0000
0000
0000
0000
0000
0000
0000
0000
0000
0000
0000
0000
0000
0000
0000
0000
0000
0000
0000
0000
0000
0000
0000
0000
0000
0000
0000
0000
0000
3333
0000
0000
0000
0000
0000
0000
0000
0000
0000
0000
0000
0000
0000
0000
0000
0000
0000
0000
0000
0000
0000
0000
0000
2222
0000
0000
0000
0000
0000
0000
0000
0000
0000
0000
0000
0000
0000
0000
0000
0000
0000
0000
0000
0000
0000
0000
0000
0000
0000
0000
0000
0000
0000
0000
0000
0000
0000
0000
0000
0000
0000
0000
0000
0000
0000
0000
0000
0000
0000
0000
0000
3333
0000
0000
0000
0000
0000
0000
0000
0000
0000
0000
0000
0000
0000
0000
0000
0000
0000
0000
0000
0000
0000
0000
0000
0000
0000
0000
0000
0000
0000
0000
0000
0000
0000
0000
0000
0000
0000
0000
0000
0000
0000
0000
0000
0000
0000
0000
0000
,
0000
0100
0001
0010
0001
0100
0001
0010
,
0001
0100
0001
0010
0001
0100
0001
0010
,
0001
0100
0001
0010
0001
0100
0001
0010
,
0001
0100
0001
0010
0001
1000
1000
0010
,
0100
0001
0000
0000
0000
0000
2222
0000
,
0000
0000
0000
0000
3333
0000
0000
0000
0000
0000
0000
0000
0000
0000
0000
0000
0000
0000
0000
0000
0000
0000
0000
0000
0000
0000
0000
0000
0000
0000
0000
0000
0000
0000
0000
0000
0000
0000
0000
0000
0001
0000
0000
0000
0000
0010
0000
0000
0100
0000
0000
0000
0000
0000
0000
0000
0000
0000
1000
0000
0000
0000
0000
0000
,
0001
0000
0000
0000
0000
0000
0000
0000
0000
0000
0000
0000
0000
0000
0000
0000
0000
0000
0000
0000
0000
0000
0000
0000
0000
0000
0000
0000
0000
0000
0000
0000
0100
0000
0000
0000
0000
0000
0000
0000
0000
0000
0000
0000
0000
0000
0000
0000
0000
0000
0000
0000
0000
0000
0000
0000
0000
0000
0000
0000
0000
0000
0000
0000
0000
0000
0000
0000
0000
0000
0000
0000
0100
0000
0000
0000
0000
0000
0000
0000
0000
0000
0000
0000
0000
0000
0000
0000
0000
0000
0000
0000
0000
0000
0000
0001
0000
0000
0000
0000
0000
0000
0000
0000
0000
0000
0000
0000
0000
0000
0000
0000
0000
0000
0000
0000
0000
0000
0000
0000
0010
0000
0000
0000
0000
0000
0000
0000
0000
0000
0000
0000
0000
0000
0000
0000
0000
0000
0000
0000
0000
0000
0000
0000
0100
0000
0000
0000
0000
0000
0000
0000
0000
0000
0000
0000
0000
0000
0000
0000
0000
0000
0000
0000
0000
0000
0000
0000
1000
0000
0000
0000
0000
0000
0000
0000
0000
0000
0000
0000
0000
0000
0000
0000
0000
0000
0000
0000
0000
0000
0000
0000
,
0001
0000
0000
0000
0000
0000
0000
0000
0000
1000
0000
0000
0000
0000
0000
0000
0000
0000
0000
0000
0000
0000
0000
0000
0000
0000
0000
0000
0000
0000
0000
0000
0000
0000
0000
0000
0000
0000
0000
0000
0000
0000
0000
0000
0000
0000
0000
0000
0000
0000
0000
0000
0000
0000
0000
0000
0000
0000
0000
0000
0000
0000
0000
0000
,
0000
0000
0000
0000
0000
0000
0000
0000
0000
0000
0000
0000
0000
0000
0000
0000
0000
0000
0000
0000
0000
0000
0000
0000
0000
0000
0000
0000
0000
0000
0000
0000
0000
0000
0000
0000
0000
0000
0000
0000
0000
0000
0000
0000
0000
0000
0000
0000
0000
0000
0000
0000
0000
0000
0000
0000
0000
0000
0000
0000
0000
0000
0000
0001
0000
0000
0000
0000
0000
0000
0000
0000
0000
0000
0000
0000
0000
0010
0000
0000
0000
0000
0000
0000
0000
0000
0000
0000
0000
0000
0000
0000
0000
0000
0000
0000
0000
0000
0000
0000
0000
0000
0000
0000
0000
0000
0100
0000
0000
0000
0000
0000
0000
0000
0000
0000
0000
0000
0000
0000
0000
0000
0000
0000
0000
0000
0000
0000
0000
0000
0000
0000
0000
0000
0000
0000
0000
0000
0000
0000
0000
0000
0000
1000
0000
0000
0000
0000
0000
0000
0000
0000
0000
0000
0000
0000
0000
0000
0000
0001
0000
0000
0000
0000
0000
0000
0000
0000
0000
0000
0000
0000
1000
0000
0000
0000
0000
0000
0000
0000
0000
0000
0000
0000
0000
0000
0000
0000
0000
0000
0000
0000
,
0000
0000
0000
0010
0000
0000
0000
0000
0000
0000
0000
0000
0000
0000
0000
0000
0000
0000
0000
0000
0000
0000
0000
0000
0000
0000
0000
0000
0000
0000
0000
0000
0000
0000
0000
0000
0000
0000
0000
0000
0000
0000
0000
0000
0000
0000
0000
0000
0100
0000
0000
0000
0000
0000
0000
0000
0000
0000
0000
0000
0000
0000
0000
0000
0000
0000
0000
0000
0000
0000
0000
0000
0010
0000
0000
0000
0000
0000
0000
0000
0000
0000
0000
0000
0000
0000
0000
0000
0000
0000
0000
0000
0000
0000
0000
0000
1000
0000
0000
0000
0000
0000
0000
0000
0000
0000
0000
0000
0000
0000
0000
0000
0000
0000
0000
0000
0000
0000
0000
0000
0000
0000
0000
0000
0000
0000
0000
0000
0000
0000
0000
0001
0000
0000
0000
0000
0000
0000
0000
0000
0000
0000
0000
0000
0000
0000
0000
0000
0000
0000
0000
0000
0000
0000
0000
0000
0000
0000
0000
0000
0000
0000
0000
0000
0000
0000
0000
0000
0000
0000
0000
0000
0000
0000
0000
0000
0000
0000
0000
0000
0000
0000
0000
0000
0000
0000
0000
0000
0000
0000
0000
0000
,
0000
0000
0000
0000
0000
0000
0000
0000
0000
0000
0000
0000
0000
0000
0000
0000
0000
0000
0000
0000
0000
0000
0000
0000
0000
0000
0000
0000
0000
0000
0000
0000
0000
0000
0000
0000
0000
0000
0000
0000
0000
0000
0000
0000
0000
0000
0000
0000
0000
0000
0000
0000
0000
0000
0000
0000
0000
0000
0000
0000
0000
0000
0000
0000
0000
0000
0000
0000
0000
1000
0000
0000
0000
0000
0000
0000
0100
0000
0000
0000
0000
0000
0000
0000
0000
0000
0000
0000
0000
0000
0000
0000
0000
0000
0000
0010
0000
0000
0000
0000
0000
0000
0000
0000
0000
0000
0000
0000
0001
0000
0000
0000
0000
0000
0000
0000
0000
0000
0000
0000
0000
0000
0000
0000
0000
0100
0000
0000
0000
0000
0000
0000
0000
0000
0000
0000
0000
0000
0000
0000
0000
0000
0000
0000
0000
0000
0000
0000
0000
0000
0000
0000
0000
0000
0000
0000
0000
0000
0000
0000
0010
0000
0000
0000
0000
0000
0000
0000
0000
0000
0000
0000
0000
0000
0000
0000
0000
0000
0000
0000
0000
0000
0000
0000
0000
1000
0000
0000
0000
0000
0000
0000
,
0000
0000
0000
0000
0001
0000
0000
0000
0000
0010
0000
0000
0000
0000
0000
0000
0001
0000
0000
0000
0100
0000
0000
0000
0010
0000
0000
0000
0000
0000
1000
0000
,
0000
0000
0000
0000
0000
0000
0000
0000
0000
0000
0000
0000
0000
0000
0000
0000
0000
0000
0000
0000
0000
0000
0000
0000
0000
0000
0000
0000
0000
0000
0000
0000
0000
0000
0000
0000
0000
0000
0000
0000
0000
0000
0000
0000
0000
0000
0000
0000
0000
0000
0000
0000
0000
0000
0000
0000
0000
0000
0000
0000
0000
0000
0000
0000
0000
0000
0000
0000
0000
0000
0000
0000
0000
0000
0000
0000
0000
0000
0000
0000
0000
0000
0000
0000
0000
0000
0000
0000
0000
0000
0000
0000
0000
0000
0000
0000
0000
0000
0000
0000
0000
0010
0000
0000
0000
0000
0000
0000
0000
0000
0000
0000
0000
0000
0000
0000
0000
0000
0000
0000
0000
0000
0000
0000
0100
0000
0000
0000
0000
0000
0000
0000
0000
0000
0000
0000
0000
0000
0000
0000
0000
0000
0000
0000
0001
0000
0000
0000
0000
0000
0000
0000
0000
0000
0000
0000
0000
0000
0000
0000
0000
0000
0010
0000
0000
0000
0000
0000
0000
0000
0000
0000
0000
0000
0000
0000
0000
0000
0000
0000
0000
0000
0000
0000
0000
0000
0000
0000
0000
0000
0000
0000
,
0100
0000
0000
0000
0000
0000
0000
0000
0000
0000
0000
0000
0000
0000
0000
0000
0000
0000
0000
0000
0000
0000
0000
0000
0000
0000
0000
0000
0000
0000
0000
0000
0000
0000
0000
0000
0000
0000
0000
0000
0000
0000
0000
0000
0000
0000
0000
0000
0000
0000
0000
0000
0000
0000
0000
0000
0000
0000
0000
0000
0000
0000
0000
0000
0000
0000
0000
0000
0000
0000
0000
1000
0000
0000
0000
0000
0000
0000
0000
0000
0000
0000
0000
0000
0000
0000
0000
0000
0000
0000
0000
0000
0000
0000
0000
0000
0000
0000
0000
0001
0000
0000
0000
0000
0000
0000
0000
0000
0000
0000
0000
0000
0000
0000
0000
0000
0000
0000
0000
0000
0000
0000
0000
0000
0000
0000
0000
0000
0000
0000
0100
0000
0000
0000
0000
0000
0000
0000
0000
0000
0000
0000
0000
0000
0000
0000
0000
0000
0000
0000
0000
0000
0000
0000
0000
0000
0000
0000
0000
0000
0000
0000
0000
0010
0000
0000
0000
0000
0000
0000
0000
0000
0000
0000
0000
0000
0000
0000
0000
0000
0000
0000
0000
0000
0000
0000
0000
0000
0000
0000
0000
0000
,
1000
0000
0000
0000
0000
0000
0000
0000
0000
0000
0000
0000
0000
0022
0000
0033
0000
0000
0000
0000
1000
0000
0010
0000
0100
0000
0000
0000
0001
0000
0000
0000
,
1000
0100
1000
0000
0001
0000
1000
0100
1000
0000
0001
0100
0010
0000
1000
0000
,
0001
0100
0001
0000
1000
0000
0001
0100
0001
0000
1000
0100
0010
0000
0001
0000
,
1000
0100
1000
0000
0001
0000
1000
0100
1000
0000
0001
0100
0010
0000
1000
0000
,
0010
0100
0010
0000
1000
0000
0001
0000
1000
0100
1000
0000
0001
0000
1000
0100
,
1000
0000
0000
0000
0000
0000
0001
0000
0000
0100
0000
0000
0010
0000
0000
0000
0000
0000
1000
0000
0000
0000
0000
0000
0001
0000
0100
0000
0010
0000
1000
0000
0010
0000
1000
0000
0001
0000
0100
0000
0010
0000
0100
0000
0001
0000
1000
0000
,
0001
1000
0100
0010
0001
0010
0100
1000
0001
0010
0001
1000
0002
0000
0000
0000
0000
0000
0203
0000
0000
0000
0000
0000
,
0300
0000
0001
1000
0010
0000
1000
0000
0001
0010
0001
0000
1000
0000
0001
0010
,
0001
0000
1000
0010
0100
0000
0001
0000
1000
0010
1000
0000
0001
0000
1000
0010
,
1000
0000
0001
0010
0100
0000
1000
0000
0100
0010
0100
0000
1000
0000
0001
0000
,
1000
0010
1000
0000
0001
0000
1000
0010
1000
0000
0001
0010
0100
0000
1000
0000
,
0001
0010
0100
1000
0100
1000
0001
0010
0100
0010
0001
1000
0001
1000
0010
0100
0001
0100
0010
1000
0001
0100
0010
1000
,
0002
0000
0000
0000
0023
0000
0000
0000
0030
0000
0001
1000
0010
0000
1000
0000
,
0001
0100
0001
0000
1000
0000
0001
0100
0001
0000
1000
0100
0010
0000
0001
0000
,
1000
0100
1000
0000
0001
0000
1000
0100
1000
0000
0001
0100
0010
0000
1000
0000
,
0010
0100
0010
0000
1000
0000
0001
0000
1000
0100
1000
0000
0001
0000
1000
0100
,
1000
0000
0000
0000
0000
0000
0001
0000
0000
0100
0000
0000
0010
0000
0000
0000
0000
0000
1000
0000
0000
0000
0000
0000
0001
0000
0100
0000
0010
0000
1000
0000
0010
0000
1000
0000
0001
0000
0100
0000
0010
0000
0100
0000
0001
0000
1000
0000
,
0001
1000
0100
0010
0001
0010
0100
1000
0001
0010
0100
1000
0002
0000
0000
0000
0000
0000
0203
0000
0000
0000
0000
0000
,
0300
0000
0001
1000
0010
0000
1000
0000
0001
0010
0001
0000
1000
0000
0001
0010
,
0001
0000
1000
0010
0100
0000
0001
0000
1000
0010
1000
0000
0001
0000
1000
0010
,
1000
0000
0001
0010
0100
0000
1000
0000
0100
0010
0100
0000
1000
0000
0001
0000
,
1000
0010
1000
0000
0001
0000
1000
0010
1000
0000
0001
0010
0100
0000
1000
0000
,
0001
0010
0100
1000
0100
1000
0001
0010
0100
0010
0001
1000
0001
1000
0010
0100
0001
0100
0010
1000
0001
0100
0010
1000
,
0001
0000
0000
0000
;

//---------------dance-single - Gazebo----------------
#NOTES:
     dance-single:
     Gazebo:
     Hard:
     13:
     1.000,1.000,0.057,0.297,1.000,1415.000,12.000,62.000,0.000,0.000:
0000
0000
0000
0000
,
1000
0000
0001
0000
0100
0010
1000
0000
,
2000
0000
3010
2000
0000
3001
0100
0001
,
0020
0000
0031
0020
0000
0130
1000
0100
,
0010
0000
0001
0000
0020
0000
0031
1000
,
0000
1000
0001
0000
0100
0000
0010
1000
,
0010
1000
0001
0000
1000
0000
0100
0000
,
0020
0000
0000
0031
2000
0000
3001
2000
,
0000
3010
0100
0010
2000
0000
3010
2000
,
0000
3001
0100
0001
0010
0000
0100
0000
,
0020
0000
0031
1000
0000
1000
0001
0000
,
0010
0000
0100
1000
0100
1000
0001
0000
,
1000
0000
0010
0000
0200
0000
0000
0301
,
2000
0000
3001
2000
0000
3100
0010
0100
,
2000
0000
3100
2000
0000
3001
0010
0001
,
0100
0000
0010
0000
0200
0000
0301
1000
,
0000
1000
0001
0000
0100
0000
0010
1000
,
0010
1000
0001
0000
1000
0000
0100
0000
,
0020
0000
0000
0031
2000
0000
3001
2000
,
0000
3010
0100
0010
2000
0000
3010
2000
,
0000
3001
0100
0001
0010
0000
0100
0000
,
0020
0000
0031
1000
0000
1000
0001
0000
,
0010
0000
0100
1000
0100
1000
0001
0000
,
1000
0010
0100
0010
1000
0010
0100
0001
1000
0001
0010
0001
0100
0010
0100
0001
,
1000
0100
0010
0100
1000
0100
0010
0001
1000
0001
1000
0100
0010
0001
1000
0001
,
1000
0010
1000
0010
0100
0001
1000
0100
0010
0001
1000
0001
0100
0001
0010
0001
,
1000
0010
0100
0010
1000
0010
0100
0001
1000
0100
0010
0001
0010
0100
1000
0001
,
0010
0001
0010
0001
1000
0100
1000
0001
1000
0100
0010
0100
1000
0010
1000
0010
,
1000
0100
1000
0100
0010
0001
0010
0001
1000
0010
0100
0010
1000
0010
0100
0001
,
1000
0001
0010
0001
0100
0010
0100
0001
1000
0100
0010
0100
1000
0100
0010
0001
,
1000
0001
1000
0100
0010
0001
1000
0001
1000
0100
1000
0100
0010
0001
1000
0010
,
0100
0001
1000
0001
0010
0001
0100
0001
1000
0100
0010
0100
1000
0100
0010
0001
,
1000
0010
0100
0001
0100
0010
1000
0001
0100
0001
0100
0001
1000
0010
1000
0001
,
1000
0010
0100
0010
1000
0100
1000
0100
1000
0010
1000
0010
0100
0001
0100
0001
,
1000
0100
0010
0100
1000
0100
0010
0001
1000
0001
0100
0001
0010
0100
0010
0001
,
1000
0010
0100
0010
1000
0010
0100
0001
1000
0001
1000
0010
0100
0001
1000
0001
,
1000
0010
1000
0010
0100
0001
1000
0100
0010
0001
1000
0001
0100
0001
0010
0001
,
1000
0010
0100
0010
1000
0010
0100
0001
1000
0100
0010
0001
0010
0100
1000
0001
,
0010
0001
0010
0001
1000
0100
1000
0001
1000
0100
0010
0100
1000
0010
1000
0010
,
1000
0100
1000
0100
0010
0001
0010
0001
1000
0010
0100
0010
1000
0010
0100
0001
,
1000
0001
0010
0001
0100
0010
0100
0001
1000
0100
0010
0100
1000
0100
0010
0001
,
1000
0001
1000
0100
0010
0001
1000
0001
1000
0100
1000
0100
0010
0001
1000
0010
,
0100
0001
1000
0001
0010
0001
0100
0001
1000
0100
0010
0100
1000
0100
0010
0001
,
1000
0010
0100
0001
0100
0010
1000
0001
0100
0001
0100
0001
1000
0010
1000
0001
,
1000
0010
0100
0010
1000
0100
1000
0100
1000
0010
1000
0010
0100
0001
0100
0001
,
1000
0001
0001
0010
0001
0100
0000
2010
,
0000
3001
0001
0100
0001
0010
0000
0100
,
1000
0100
1000
1000
0001
0010
0001
0001
,
0100
0010
0010
2000
0000
0000
3100
2000
,
0000
0000
3001
2000
0000
0000
3010
2000
,
0000
3100
4000
0000
3001
1000
1000
0100
,
1000
0010
0000
0102
0000
1003
1000
0010
,
1000
0100
0000
0010
0001
0010
0001
0001
,
1000
0100
1000
1000
0010
0100
0100
0002
,
0000
0000
0013
0002
0000
0000
1003
0002
,
0000
0000
0103
0002
0000
0013
0004
0000
,
1003
0010
0010
0100
0010
1000
0000
0002
,
0003
0002
2003
3200
2300
3200
0320
0031
,
1000
0010
0000
1000
0001
0010
0000
0001
,
0100
0010
0000
1000
0100
0010
0001
0100
,
0001
1000
0100
0010
0002
0000
2003
0000
,
3020
0000
0230
0302
0000
1003
0100
1000
,
0100
1000
0000
0012
0000
1003
0001
1000
,
0001
0100
0000
0100
0010
0100
0010
0100
,
0010
1000
0001
1000
0100
0010
0010
0000
,
0001
0002
0000
2000
0000
0000
0000
0000
,
0000
0000
3003
0000
,
0001
0010
0100
0010
0001
0010
0100
1000
0001
1000
0010
1000
0100
0010
0100
1000
,
0001
0100
0010
0100
0001
0100
0010
1000
0001
1000
0001
0100
0010
1000
0001
1000
,
0001
0010
0001
0010
0100
1000
0001
0100
0010
1000
0001
1000
0100
1000
0010
1000
,
0001
0010
0100
0010
0001
0010
0100
1000
0001
0100
0010
1000
0010
0100
0001
1000
,
0010
1000
0010
1000
0001
0100
0001
1000
0001
0100
0010
0100
0001
0010
0001
1000
,
0100
1000
0001
0100
0001
1000
0010
1000
0001
0010
0100
0010
0001
0010
0100
1000
,
0001
1000
0010
1000
0100
0010
0100
1000
0001
0100
0010
0100
0001
0100
0010
1000
,
0001
1000
0001
0100
0010
1000
0001
1000
0001
0100
0001
0100
0010
1000
0001
0010
,
0100
1000
0001
1000
0010
1000
0100
1000
0001
0100
0010
0100
0001
0100
0010
1000
,
0001
0010
0100
1000
0100
0010
0001
1000
0100
1000
0100
1000
0001
0010
0001
1000
,
0001
0010
0100
0010
0001
0100
0001
1000
0010
1000
0001
0010
0001
1000
0100
1000
,
0001
0100
0010
0100
0001
0100
0010
1000
0001
1000
0100
1000
0010
0100
0010
1000
,
0001
0010
0100
0010
0001
0010
0100
1000
0001
1000
0001
0010
0100
1000
0001
1000
,
0001
0010
0001
0010
0100
1000
0001
0100
0010
1000
0001
1000
0100
1000
0010
1000
,
0001
0010
0100
0010
0001
0010
0100
1000
0001
0100
0010
1000
0010
0100
0001
1000
,
0010
1000
0010
1000
0001
0100
0001
1000
0001
0100
0010
0100
0001
0010
0001
0010
,
0100
1000
0010
1000
0010
0100
0001
1000
0001
0010
0100
0010
0001
0010
0100
1000
,
0001
1000
0010
1000
0100
0010
0100
1000
0001
0100
0010
0100
0001
0100
0010
1000
,
0001
1000
0001
0100
0010
1000
0001
1000
0001
0100
0001
0100
0010
1000
0001
0010
,
0100
1000
0001
1000
0010
1000
0100
1000
0001
0100
0010
0100
0001
0100
0010
1000
,
0001
0010
0100
1000
0100
0010
0001
1000
0100
1000
0100
1000
0001
0010
0001
1000
,
0001
0010
0100
0010
0001
0100
0001
1000
0001
0010
0100
1000
0001
1000
0010
1000
,
0001
0000
0000
0000
0000
0000
0000
0000
0100
0000
0000
0000
0000
0000
0000
0000
0000
0000
0000
0000
0000
0000
0000
0000
0000
0000
0000
0000
0000
0000
0000
0000
0000
0000
0000
0000
0000
0000
0000
0000
0000
0000
0000
2002
0000
0000
0000
0000
0000
0000
0000
0000
0000
0000
0000
0000
0000
0000
0000
0000
0000
0000
0000
0000
,
3003
0000
0000
0000
0000
0000
0000
0000
0000
0000
0000
0000
0000
0000
0000
0000
0000
0000
0000
0000
0000
0000
0000
0000
0000
0000
0000
0000
0000
0000
0000
0000
0000
0000
0000
0000
0000
0000
0000
0000
0000
0000
0000
0000
0000
0000
0000
0000
0000
0000
0000
0000
0000
0000
0000
0000
0000
0000
0000
0000
0000
0000
0000
0000
0000
0000
0000
0000
0000
0000
0000
0000
0000
0000
0000
0000
0000
0000
0000
0000
0000
0000
0000
0000
0000
0000
0000
0000
0000
0000
0000
0000
0000
0000
0000
0000
0000
0000
0000
0000
0000
0000
0000
0000
0000
0000
0000
0000
0000
0000
0000
0000
0000
0000
0000
0000
0000
1000
0000
0000
0000
0000
0000
0000
0000
0000
0000
0000
0000
0000
0000
0000
0000
0000
0000
0000
0000
0000
0001
0000
0000
0000
0000
0000
0000
0000
0000
0000
0000
0000
0000
0000
0000
0000
0000
0000
0000
0000
0000
0000
0000
0000
0000
0000
0010
0000
0000
0000
0000
0000
0000
0000
0000
0000
0000
0000
0000
0000
0000
0000
0000
0000
0000
0000
0000
0000
0000
0000
0000
0000
0100
0000
,
0000
0000
0000
0000
0000
0000
0000
0000
0000
0000
0000
0000
0000
0000
0000
0000
0000
0000
0000
0000
0000
0000
0000
0000
0000
0000
0000
0000
0000
0000
0000
0000
0000
0000
0000
0000
0000
0000
0000
0000
0000
0000
0000
0000
0000
0000
0000
0000
1000
0000
0000
0000
0000
0000
0000
0000
0000
0000
0000
0000
0000
0000
0000
0000
0000
0000
0000
0000
0000
0000
0000
0000
0000
0000
0000
0000
0010
0000
0000
0000
0000
0000
0000
1000
0000
0000
0000
0000
0000
0000
0000
0000
0000
0000
0000
0000
0000
0000
0000
0000
0000
0000
0000
0000
0000
0000
0000
0000
0000
0000
0000
0000
0000
0000
0000
0000
0000
0000
0000
0000
0001
0000
0000
0000
0000
0000
0000
0000
0000
0000
0000
0000
0000
0000
0000
0000
0000
0000
0000
0000
0000
0000
0000
0000
0000
0000
0000
0000
0000
0000
0000
0000
0000
0000
0000
0000
0000
0000
0000
0000
0000
0000
0000
0000
0000
0000
0000
0000
0000
0000
0000
0000
0000
0000
0000
0000
0000
0000
0000
0000
0000
0000
0000
0000
0000
0000
0000
0000
0000
0000
0000
0000
,
2002
0000
0000
0000
0000
0000
0000
0000
0000
0000
0000
0000
0000
0000
0000
0000
3003
0000
0000
0000
0000
0000
0000
0000
2002
0000
0000
0000
0000
0000
0000
0000
0000
0000
0000
0000
0000
0000
0000
0000
3003
0000
0000
0000
0000
0000
0000
0000
0000
0000
0000
0000
0000
0000
0000
0000
1000
0000
0000
0000
0000
0000
0000
0100
,
0000
0000
0000
0000
0000
0000
0000
0000
0000
0000
0000
0000
0000
0000
0000
0000
0000
0000
0000
0000
0000
0000
0000
0000
0010
0000
0000
0000
0000
0000
0000
0000
0000
0000
0000
0000
0000
0000
0000
0000
0000
0000
0000
0000
0000
0000
0000
0000
0000
0000
0000
0000
0001
0000
0000
0000
0000
0000
0000
0000
0000
0000
0000
0000
0000
0000
0000
0000
0000
0000
0000
0000
0000
0000
0000
0000
0000
0000
0000
0000
0000
0000
0000
0000
0000
0000
0000
0000
0000
0000
0000
0000
0000
0000
0000
0000
0000
0000
0000
0000
0000
0000
0000
0000
0000
0000
0000
0000
0000
0000
0000
0000
0000
0000
0000
0000
0000
0000
0000
0000
0000
0000
0000
0000
0000
0000
0000
0000
0000
1000
0000
0000
0000
0000
0000
0000
0000
0000
0000
0000
0000
0000
0000
0000
0010
0000
0000
0000
0000
0000
0000
0000
0000
0000
0000
0000
0000
0000
0000
0000
0000
0000
0000
0000
0000
0000
0000
0000
0000
0000
0000
0000
0000
0000
0000
0000
0000
1000
0000
0000
0000
0000
0000
0000
0000
0000
0000
0000
0000
0000
0000
0000
,
0000
0000
0000
1000
0000
0000
0100
0000
0000
0010
0000
0001
0000
0000
1000
0001
0000
0000
0100
0000
0000
0000
0000
0000
,
0000
0000
0000
0000
0000
0000
0000
0000
0000
0000
0000
0000
0000
0000
0000
0000
0000
0000
0000
0000
0000
0000
0000
0000
0000
0000
0000
0000
0000
0000
0000
0000
0000
0000
2002
0000
0000
0000
0000
0000
0000
0000
0000
0000
0000
0000
0000
0000
0000
0000
0000
0000
0000
0000
0000
0000
0000
0000
0000
0000
0000
0000
0000
0000
0000
0000
0000
0000
0000
0000
0000
0000
3003
0000
0000
0000
0000
0000
0000
0000
0000
0000
0000
0000
0000
0000
0000
0000
0000
0000
0000
0000
0000
0000
0000
0000
2002
0000
0000
0000
0000
0000
0000
0000
0000
0000
0000
0000
0000
0000
0000
0000
0000
0000
0000
0000
0000
0000
0000
0000
0000
0000
0000
0000
0000
0000
0000
0000
0000
0000
0000
0000
0000
0000
0000
0000
0000
0000
0000
0000
0000
0000
0000
0000
3003
0000
0000
0000
0000
0000
0000
0000
0000
0000
0000
0000
0000
0000
0000
0000
0000
0000
0000
0000
0000
0000
0000
0000
0000
0000
0000
0000
0000
0000
0000
0000
0000
0000
0000
0000
0000
0000
0000
0000
0000
0000
0000
0000
0000
0000
0000
0000
,
0000
0100
0001
0010
0001
0100
0001
0010
,
0001
0100
0001
0010
0001
0100
0001
0010
,
0001
0100
0001
0010
0001
0100
0001
0010
,
0001
0100
0001
0010
0001
1000
1000
0010
,
0100
0001
0000
0000
0000
0000
2002
0000
,
0000
0000
0000
0000
3003
0000
0000
0000
0000
0000
0000
0000
0000
0000
0000
0000
0000
0000
0000
0000
0000
0000
0000
0000
0000
0000
0000
0000
0000
0000
0000
0000
0000
0000
0000
0000
0000
0000
0000
0000
0001
0000
0000
0000
0000
0010
0000
0000
0100
0000
0000
0000
0000
0000
0000
0000
0000
0000
1000
0000
0000
0000
0000
0000
,
0001
0000
0000
0000
0000
0000
0000
0000
0000
0000
0000
0000
0000
0000
0000
0000
0000
0000
0000
0000
0000
0000
0000
0000
0000
0000
0000
0000
0000
0000
0000
0000
0100
0000
0000
0000
0000
0000
0000
0000
0000
0000
0000
0000
0000
0000
0000
0000
0000
0000
0000
0000
0000
0000
0000
0000
0000
0000
0000
0000
0000
0000
0000
0000
0000
0000
0000
0000
0000
0000
0000
0000
0100
0000
0000
0000
0000
0000
0000
0000
0000
0000
0000
0000
0000
0000
0000
0000
0000
0000
0000
0000
0000
0000
0000
0001
0000
0000
0000
0000
0000
0000
0000
0000
0000
0000
0000
0000
0000
0000
0000
0000
0000
0000
0000
0000
0000
0000
0000
0000
0010
0000
0000
0000
0000
0000
0000
0000
0000
0000
0000
0000
0000
0000
0000
0000
0000
0000
0000
0000
0000
0000
0000
0000
0100
0000
0000
0000
0000
0000
0000
0000
0000
0000
0000
0000
0000
0000
0000
0000
0000
0000
0000
0000
0000
0000
0000
0000
1000
0000
0000
0000
0000
0000
0000
0000
0000
0000
0000
0000
0000
0000
0000
0000
0000
0000
0000
0000
0000
0000
0000
0000
,
0001
0000
0000
0000
0000
0000
0000
0000
0000
1000
0000
0000
0000
0000
0000
0000
0000
0000
0000
0000
0000
0000
0000
0000
0000
0000
0000
0000
0000
0000
0000
0000
0000
0000
0000
0000
0000
0000
0000
0000
0000
0000
0000
0000
0000
0000
0000
0000
0000
0000
0000
0000
0000
0000
0000
0000
0000
0000
0000
0000
0000
0000
0000
0000
,
0000
0000
0000
0000
0000
0000
0000
0000
0000
0000
0000
0000
0000
0000
0000
0000
0000
0000
0000
0000
0000
0000
0000
0000
0000
0000
0000
0000
0000
0000
0000
0000
0000
0000
0000
0000
0000
0000
0000
0000
0000
0000
0000
0000
0000
0000
0000
0000
0000
0000
0000
0000
0000
0000
0000
0000
0000
0000
0000
0000
0000
0000
0000
0001
0000
0000
0000
0000
0000
0000
0000
0000
0000
0000
0000
0000
0000
0010
0000
0000
0000
0000
0000
0000
0000
0000
0000
0000
0000
0000
0000
0000
0000
0000
0000
0000
0000
0000
0000
0000
0000
0000
0000
0000
0000
0000
0100
0000
0000
0000
0000
0000
0000
0000
0000
0000
0000
0000
0000
0000
0000
0000
0000
0000
0000
0000
0000
0000
0000
0000
0000
0000
0000
0000
0000
0000
0000
0000
0000
0000
0000
0000
0000
1000
0000
0000
0000
0000
0000
0000
0000
0000
0000
0000
0000
0000
0000
0000
0000
0001
0000
0000
0000
0000
0000
0000
0000
0000
0000
0000
0000
0000
1000
0000
0000
0000
0000
0000
0000
0000
0000
0000
0000
0000
0000
0000
0000
0000
0000
0000
0000
0000
,
0000
0000
0000
0010
0000
0000
0000
0000
0000
0000
0000
0000
0000
0000
0000
0000
0000
0000
0000
0000
0000
0000
0000
0000
0000
0000
0000
0000
0000
0000
0000
0000
0000
0000
0000
0000
0000
0000
0000
0000
0000
0000
0000
0000
0000
0000
0000
0000
0100
0000
0000
0000
0000
0000
0000
0000
0000
0000
0000
0000
0000
0000
0000
0000
0000
0000
0000
0000
0000
0000
0000
0000
0010
0000
0000
0000
0000
0000
0000
0000
0000
0000
0000
0000
0000
0000
0000
0000
0000
0000
0000
0000
0000
0000
0000
0000
1000
0000
0000
0000
0000
0000
0000
0000
0000
0000
0000
0000
0000
0000
0000
0000
0000
0000
0000
0000
0000
0000
0000
0000
0000
0000
0000
0000
0000
0000
0000
0000
0000
0000
0000
0001
0000
0000
0000
0000
0000
0000
0000
0000
0000
0000
0000
0000
0000
0000
0000
0000
0000
0000
0000
0000
0000
0000
0000
0000
0000
0000
0000
0000
0000
0000
0000
0000
0000
0000
0000
0000
0000
0000
0000
0000
0000
0000
0000
0000
0000
0000
0000
0000
0000
0000
0000
0000
0000
0000
0000
0000
0000
0000
0000
0000
,
0000
0000
0000
0000
0000
0000
0000
0000
0000
0000
0000
0000
0000
0000
0000
0000
0000
0000
0000
0000
0000
0000
0000
0000
0000
0000
0000
0000
0000
0000
0000
0000
0000
0000
0000
0000
0000
0000
0000
0000
0000
0000
0000
0000
0000
0000
0000
0000
0000
0000
0000
0000
0000
0000
0000
0000
0000
0000
0000
0000
0000
0000
0000
0000
0000
0000
0000
0000
0000
1000
0000
0000
0000
0000
0000
0000
0100
0000
0000
0000
0000
0000
0000
0000
0000
0000
0000
0000
0000
0000
0000
0000
0000
0000
0000
0010
0000
0000
0000
0000
0000
0000
0000
0000
0000
0000
0000
0000
0001
0000
0000
0000
0000
0000
0000
0000
0000
0000
0000
0000
0000
0000
0000
0000
0000
0100
0000
0000
0000
0000
0000
0000
0000
0000
0000
0000
0000
0000
0000
0000
0000
0000
0000
0000
0000
0000
0000
0000
0000
0000
0000
0000
0000
0000
0000
0000
0000
0000
0000
0000
0010
0000
0000
0000
0000
0000
0000
0000
0000
0000
0000
0000
0000
0000
0000
0000
0000
0000
0000
0000
0000
0000
0000
0000
0000
1000
0000
0000
0000
0000
0000
0000
,
0000
0000
0000
0000
0001
0000
0000
0000
0000
0010
0000
0000
0000
0000
0000
0000
0001
0000
0000
0000
0100
0000
0000
0000
0010
0000
0000
0000
0000
0000
1000
0000
,
0000
0000
0000
0000
0000
0000
0000
0000
0000
0000
0000
0000
0000
0000
0000
0000
0000
0000
0000
0000
0000
0000
0000
0000
0000
0000
0000
0000
0000
0000
0000
0000
0000
0000
0000
0000
0000
0000
0000
0000
0000
0000
0000
0000
0000
0000
0000
0000
0000
0000
0000
0000
0000
0000
0000
0000
0000
0000
0000
0000
0000
0000
0000
0000
0000
0000
0000
0000
0000
0000
0000
0000
0000
0000
0000
0000
0000
0000
0000
0000
0000
0000
0000
0000
0000
0000
0000
0000
0000
0000
0000
0000
0000
0000
0000
0000
0000
0000
0000
0000
0000
0010
0000
0000
0000
0000
0000
0000
0000
0000
0000
0000
0000
0000
0000
0000
0000
0000
0000
0000
0000
0000
0000
0000
0100
0000
0000
0000
0000
0000
0000
0000
0000
0000
0000
0000
0000
0000
0000
0000
0000
0000
0000
0000
0001
0000
0000
0000
0000
0000
0000
0000
0000
0000
0000
0000
0000
0000
0000
0000
0000
0000
0010
0000
0000
0000
0000
0000
0000
0000
0000
0000
0000
0000
0000
0000
0000
0000
0000
0000
0000
0000
0000
0000
0000
0000
0000
0000
0000
0000
0000
0000
,
0100
0000
0000
0000
0000
0000
0000
0000
0000
0000
0000
0000
0000
0000
0000
0000
0000
0000
0000
0000
0000
0000
0000
0000
0000
0000
0000
0000
0000
0000
0000
0000
0000
0000
0000
0000
0000
0000
0000
0000
0000
0000
0000
0000
0000
0000
0000
0000
0000
0000
0000
0000
0000
0000
0000
0000
0000
0000
0000
0000
0000
0000
0000
0000
0000
0000
0000
0000
0000
0000
0000
1000
0000
0000
0000
0000
0000
0000
0000
0000
0000
0000
0000
0000
0000
0000
0000
0000
0000
0000
0000
0000
0000
0000
0000
0000
0000
0000
0000
0001
0000
0000
0000
0000
0000
0000
0000
0000
0000
0000
0000
0000
0000
0000
0000
0000
0000
0000
0000
0000
0000
0000
0000
0000
0000
0000
0000
0000
0000
0000
0100
0000
0000
0000
0000
0000
0000
0000
0000
0000
0000
0000
0000
0000
0000
0000
0000
0000
0000
0000
0000
0000
0000
0000
0000
0000
0000
0000
0000
0000
0000
0000
0000
0010
0000
0000
0000
0000
0000
0000
0000
0000
0000
0000
0000
0000
0000
0000
0000
0000
0000
0000
0000
0000
0000
0000
0000
0000
0000
0000
0000
0000
,
1000
0000
0000
0000
0000
0000
0000
0000
0000
0000
0000
0000
0000
0022
0000
0033
0000
0000
0000
0000
1000
0000
0010
0000
0100
0000
0000
0000
0001
0000
0000
0000
,
1000
0100
1000
0001
1000
0001
0100
0010
0100
0001
0010
0100
0010
0001
1000
0001
,
1000
0010
1000
0001
1000
0001
0010
0100
0010
0001
0100
0010
0100
0001
1000
0001
,
1000
0010
1000
0001
1000
0001
0010
0100
0010
0001
0100
0010
0100
0001
1000
0001
,
1000
0100
1000
0001
1000
0001
0010
0001
1000
0010
1000
0001
1000
0001
0010
0100
,
0010
0001
0100
0010
0100
0001
1000
0001
1000
0100
1000
0100
1000
0010
0100
0001
,
0010
0001
1000
0100
1000
0001
1000
0010
0100
0001
0100
0001
1000
0001
1000
0001
,
1000
0100
0010
0001
0100
0010
1000
0001
1000
0100
1000
0001
1000
0001
0100
0010
,
0100
0001
0010
0100
0010
0001
1000
0001
1000
0100
1000
0001
1000
0001
0100
0010
,
0100
0001
0010
0100
0010
0001
1000
0001
1000
0010
1000
0001
1000
0001
0100
0001
,
1000
0100
1000
0001
1000
0001
0100
0010
0100
0001
0010
0100
0010
0001
1000
0001
,
1000
0010
1000
0010
1000
0100
0010
0001
0100
0001
1000
0010
1000
0001
1000
0100
,
0010
0001
0010
0001
1000
0001
1000
0001
1000
0010
0100
0001
0010
0100
1000
0001
,
1000
0010
1000
0001
1000
0001
0010
0100
0010
0001
0100
0010
0100
0001
1000
0001
,
1000
0010
1000
0001
1000
0001
0010
0100
0010
0001
0100
0010
0100
0001
1000
0001
,
1000
0100
1000
0001
1000
0001
0010
0001
1000
0010
1000
0001
1000
0001
0010
0100
,
0010
0001
0100
0010
0100
0001
1000
0001
1000
0100
1000
0100
1000
0010
0100
0001
,
0010
0001
1000
0100
1000
0001
1000
0010
0100
0001
0100
0001
1000
0001
1000
0001
,
1000
0100
0010
0001
0100
0010
1000
0001
1000
0100
1000
0001
1000
0001
0100
0010
,
0100
0001
0010
0100
0010
0001
1000
0001
1000
0100
1000
0001
1000
0001
0100
0010
,
0100
0001
0010
0100
0010
0001
1000
0001
1000
0010
1000
0001
1000
0001
0100
0001
,
1000
0100
1000
0001
1000
0001
0100
0010
0100
0001
0010
0100
0010
0001
1000
0001
,
1000
0010
1000
0010
1000
0100
0010
0001
0100
0001
1000
0010
1000
0001
1000
0100
,
1000
0000
0000
0000
;

//---------------dance-single - Gazebo----------------
#NOTES:
     dance-single:
     Gazebo:
     Medium:
     11:
     0.834,1.000,0.057,0.326,0.831,1140.000,12.000,68.000,0.000,0.000:
0000
0000
0000
0000
,
1000
0000
0001
0000
0100
0010
1000
0000
,
2000
0000
3010
2000
0000
3001
0100
0001
,
0020
0000
0031
0020
0000
0130
1000
0100
,
0010
0000
0001
0000
0020
0000
0031
1000
,
0000
1000
0001
0000
0100
0000
0010
1000
,
0010
1000
0001
0000
1000
0000
0100
0000
,
0020
0000
0000
0031
2000
0000
3001
2000
,
0000
3010
0100
0010
2000
0000
3010
2000
,
0000
3001
0100
0001
0010
0000
0100
0000
,
0020
0000
0031
1000
0000
1000
0001
0000
,
0010
0000
0100
1000
0100
1000
0001
0000
,
1000
0000
0010
0000
0200
0000
0000
0301
,
2000
0000
3001
2000
0000
3100
0010
0100
,
2000
0000
3100
2000
0000
3001
0010
0001
,
0100
0000
0010
0000
0200
0000
0301
1000
,
0000
1000
0001
0000
0100
0000
0010
1000
,
0010
1000
0001
0000
1000
0000
0100
0000
,
0020
0000
0000
0031
2000
0000
3001
2000
,
0000
3010
0100
0010
2000
0000
3010
2000
,
0000
3001
0100
0001
0010
0000
0100
0000
,
0020
0000
0031
1000
0000
1000
0001
0000
,
0010
0000
0100
1000
0100
1000
0001
0000
,
1000
0010
0100
0010
1000
0010
0100
0001
1000
0001
0010
0001
0100
0010
0100
0001
,
1000
0100
0010
0100
1000
0100
0010
0001
1000
0001
1000
0100
0010
0001
1000
0001
,
1000
0000
0010
1000
0000
1000
0001
0000
,
1000
0010
0100
0010
1000
0010
0100
0001
1000
0100
0010
0001
0010
0100
1000
0001
,
0010
0001
0010
0001
1000
0100
1000
0001
1000
0000
0000
0000
0001
0000
0100
0000
,
0001
0000
0100
0000
0010
0000
0000
0000
1000
0010
0100
0010
1000
0010
0100
0001
,
1000
0001
0010
0001
0100
0010
0100
0001
1000
0100
0010
0100
1000
0100
0010
0001
,
1000
0001
1000
0100
0010
0001
1000
0001
1000
0000
0000
0000
0100
0000
1000
0000
,
0000
0000
1000
0000
0001
0000
0000
0000
1000
0100
0010
0100
1000
0100
0010
0001
,
1000
0010
0100
0001
0100
0010
1000
0001
0100
0001
0100
0001
1000
0010
1000
0001
,
1000
0000
0001
0010
0001
0010
0100
0000
,
1000
0100
0010
0100
1000
0100
0010
0001
1000
0001
0100
0001
0010
0100
0010
0001
,
1000
0010
0100
0010
1000
0010
0100
0001
1000
0001
1000
0010
0100
0001
1000
0001
,
1000
0000
0010
1000
0000
1000
0001
0000
,
1000
0010
0100
0010
1000
0010
0100
0001
1000
0100
0010
0001
0010
0100
1000
0001
,
0010
0001
0010
0001
1000
0100
1000
0001
1000
0000
0000
0000
0001
0000
0100
0000
,
0001
0000
0100
0000
0010
0000
0000
0000
1000
0010
0100
0010
1000
0010
0100
0001
,
1000
0001
0010
0001
0100
0010
0100
0001
1000
0100
0010
0100
1000
0100
0010
0001
,
1000
0001
1000
0100
0010
0001
1000
0001
1000
0000
0000
0000
0100
0000
1000
0000
,
0000
0000
1000
0000
0001
0000
0000
0000
1000
0100
0010
0100
1000
0100
0010
0001
,
1000
0010
0100
0001
0100
0010
1000
0001
0100
0001
0100
0001
1000
0010
1000
0001
,
1000
0000
0001
0010
0001
0010
0100
0000
,
1000
0001
0001
0010
0001
0100
0000
2010
,
0000
3001
0001
0100
0001
0010
0000
0100
,
1000
0100
1000
1000
0001
0010
0001
0001
,
0100
0010
0010
2000
0000
0000
3100
2000
,
0000
0000
3001
2000
0000
0000
3010
2000
,
0000
3100
4000
0000
3001
1000
1000
0100
,
1000
0010
0000
0102
0000
1003
1000
0010
,
1000
0100
0000
0010
0001
0010
0001
0001
,
1000
0100
1000
1000
0010
0100
0100
0002
,
0000
0000
0013
0002
0000
0000
1003
0002
,
0000
0000
0103
0002
0000
0013
0004
0000
,
1003
0010
0010
0100
0010
1000
0000
0002
,
0003
0002
2003
3200
2300
3200
0320
0031
,
1000
0010
0000
1000
0001
0010
0000
0001
,
0100
0010
0000
1000
0100
0010
0001
0100
,
0001
1000
0100
0010
0002
0000
2003
0000
,
3020
0000
0230
0302
0000
1003
0100
1000
,
0100
1000
0000
0012
0000
1003
0001
1000
,
0001
0100
0000
0100
0010
0100
0010
0100
,
0010
1000
0001
1000
0100
0010
0010
0000
,
0001
0002
0000
2000
0000
0000
0000
0000
,
0000
0000
3003
0000
,
0001
0100
0010
0100
0001
0100
0010
1000
0001
1000
0100
1000
0010
0100
0010
1000
,
0001
0010
0100
0010
0001
0010
0100
1000
0001
1000
0001
0010
0100
1000
0001
1000
,
0001
0000
0010
0001
0000
0001
1000
0000
,
0001
0010
0100
0010
0001
0010
0100
1000
0001
0100
0010
1000
0010
0100
0001
1000
,
0010
1000
0010
1000
0001
0100
0001
1000
0001
0000
0000
0000
1000
0000
0100
0000
,
1000
0000
0100
0000
0010
0000
0000
0000
0001
0010
0100
0010
0001
0010
0100
1000
,
0001
1000
0010
1000
0100
0010
0100
1000
0001
0100
0010
0100
0001
0100
0010
1000
,
0001
1000
0001
0100
0010
1000
0001
1000
0001
0000
0000
0000
0100
0000
0001
0000
,
0000
0000
0001
0000
1000
0000
0000
0000
0001
0100
0010
0100
0001
0100
0010
1000
,
0001
0010
0100
1000
0100
0010
0001
1000
0100
1000
0100
1000
0001
0010
0001
1000
,
0001
0000
1000
0010
1000
0010
0100
0000
,
0001
0100
0010
0100
0001
0100
0010
1000
0001
1000
0100
1000
0010
0100
0010
1000
,
0001
0010
0100
0010
0001
0010
0100
1000
0001
1000
0001
0010
0100
1000
0001
1000
,
0001
0000
0010
0001
0000
0001
1000
0000
,
0001
0010
0100
0010
0001
0010
0100
1000
0001
0100
0010
1000
0010
0100
0001
1000
,
0010
1000
0010
1000
0001
0100
0001
1000
0001
0000
0000
0000
1000
0000
0100
0000
,
1000
0000
0100
0000
0010
0000
0000
0000
0001
0010
0100
0010
0001
0010
0100
1000
,
0001
1000
0010
1000
0100
0010
0100
1000
0001
0100
0010
0100
0001
0100
0010
1000
,
0001
1000
0001
0100
0010
1000
0001
1000
0001
0000
0000
0000
0100
0000
0001
0000
,
0000
0000
0001
0000
1000
0000
0000
0000
0001
0100
0010
0100
0001
0100
0010
1000
,
0001
0010
0100
1000
0100
0010
0001
1000
0100
1000
0100
1000
0001
0010
0001
1000
,
0001
0000
1000
0100
0000
0100
1000
0001
,
0100
0000
0000
0000
0000
0000
0000
0000
0010
0000
0000
0000
0000
0000
0000
0000
0000
0000
0000
0000
0000
0000
0000
0000
0000
0000
0000
0000
0000
0000
0000
0000
0000
0000
0000
0000
0000
0000
0000
0000
0000
0000
0000
2002
0000
0000
0000
0000
0000
0000
0000
0000
0000
0000
0000
0000
0000
0000
0000
0000
0000
0000
0000
0000
,
3003
0000
0000
0000
0000
0000
0000
0000
0000
0000
0000
0000
0000
0000
0000
0000
0000
0000
0000
0000
0000
0000
0000
0000
0000
0000
0000
0000
0000
0000
0000
0000
0000
0000
0000
0000
0000
0000
0000
0000
0000
0000
0000
0000
0000
0000
0000
0000
0000
0000
0000
0000
0000
0000
0000
0000
0000
0000
0000
0000
0000
0000
0000
0000
0000
0000
0000
0000
0000
0000
0000
0000
0000
0000
0000
0000
0000
0000
0000
0000
0000
0000
0000
0000
0000
0000
0000
0000
0000
0000
0000
0000
0000
0000
0000
0000
0000
0000
0000
0000
0000
0000
0000
0000
0000
0000
0000
0000
0000
0000
0000
0000
0000
0000
0000
0000
0000
1000
0000
0000
0000
0000
0000
0000
0000
0000
0000
0000
0000
0000
0000
0000
0000
0000
0000
0000
0000
0000
0001
0000
0000
0000
0000
0000
0000
0000
0000
0000
0000
0000
0000
0000
0000
0000
0000
0000
0000
0000
0000
0000
0000
0000
0000
0000
0010
0000
0000
0000
0000
0000
0000
0000
0000
0000
0000
0000
0000
0000
0000
0000
0000
0000
0000
0000
0000
0000
0000
0000
0000
0000
0100
0000
,
0000
0000
0000
0000
0000
0000
0000
0000
0000
0000
0000
0000
0000
0000
0000
0000
0000
0000
0000
0000
0000
0000
0000
0000
0000
0000
0000
0000
0000
0000
0000
0000
0000
0000
0000
0000
0000
0000
0000
0000
0000
0000
0000
0000
0000
0000
0000
0000
1000
0000
0000
0000
0000
0000
0000
0000
0000
0000
0000
0000
0000
0000
0000
0000
0000
0000
0000
0000
0000
0000
0000
0000
0000
0000
0000
0000
0010
0000
0000
0000
0000
0000
0000
1000
0000
0000
0000
0000
0000
0000
0000
0000
0000
0000
0000
0000
0000
0000
0000
0000
0000
0000
0000
0000
0000
0000
0000
0000
0000
0000
0000
0000
0000
0000
0000
0000
0000
0000
0000
0000
0001
0000
0000
0000
0000
0000
0000
0000
0000
0000
0000
0000
0000
0000
0000
0000
0000
0000
0000
0000
0000
0000
0000
0000
0000
0000
0000
0000
0000
0000
0000
0000
0000
0000
0000
0000
0000
0000
0000
0000
0000
0000
0000
0000
0000
0000
0000
0000
0000
0000
0000
0000
0000
0000
0000
0000
0000
0000
0000
0000
0000
0000
0000
0000
0000
0000
0000
0000
0000
0000
0000
0000
,
2002
0000
0000
0000
0000
0000
0000
0000
0000
0000
0000
0000
0000
0000
0000
0000
3003
0000
0000
0000
0000
0000
0000
0000
2002
0000
0000
0000
0000
0000
0000
0000
0000
0000
0000
0000
0000
0000
0000
0000
3003
0000
0000
0000
0000
0000
0000
0000
0000
0000
0000
0000
0000
0000
0000
0000
1000
0000
0000
0000
0000
0000
0000
0100
,
0000
0000
0000
0000
0000
0000
0000
0000
0000
0000
0000
0000
0000
0000
0000
0000
0000
0000
0000
0000
0000
0000
0000
0000
0010
0000
0000
0000
0000
0000
0000
0000
0000
0000
0000
0000
0000
0000
0000
0000
0000
0000
0000
0000
0000
0000
0000
0000
0000
0000
0000
0000
0001
0000
0000
0000
0000
0000
0000
0000
0000
0000
0000
0000
0000
0000
0000
0000
0000
0000
0000
0000
0000
0000
0000
0000
0000
0000
0000
0000
0000
0000
0000
0000
0000
0000
0000
0000
0000
0000
0000
0000
0000
0000
0000
0000
0000
0000
0000
0000
0000
0000
0000
0000
0000
0000
0000
0000
0000
0000
0000
0000
0000
0000
0000
0000
0000
0000
0000
0000
0000
0000
0000
0000
0000
0000
0000
0000
0000
1000
0000
0000
0000
0000
0000
0000
0000
0000
0000
0000
0000
0000
0000
0000
0010
0000
0000
0000
0000
0000
0000
0000
0000
0000
0000
0000
0000
0000
0000
0000
0000
0000
0000
0000
0000
0000
0000
0000
0000
0000
0000
0000
0000
0000
0000
0000
0000
1000
0000
0000
0000
0000
0000
0000
0000
0000
0000
0000
0000
0000
0000
0000
,
0000
0000
0000
1000
0000
0000
0100
0000
0000
0010
0000
0001
0000
0000
1000
0001
0000
0000
0100
0000
0000
0000
0000
0000
,
0000
0000
0000
0000
0000
0000
0000
0000
0000
0000
0000
0000
0000
0000
0000
0000
0000
0000
0000
0000
0000
0000
0000
0000
0000
0000
0000
0000
0000
0000
0000
0000
0000
0000
2002
0000
0000
0000
0000
0000
0000
0000
0000
0000
0000
0000
0000
0000
0000
0000
0000
0000
0000
0000
0000
0000
0000
0000
0000
0000
0000
0000
0000
0000
0000
0000
0000
0000
0000
0000
0000
0000
3003
0000
0000
0000
0000
0000
0000
0000
0000
0000
0000
0000
0000
0000
0000
0000
0000
0000
0000
0000
0000
0000
0000
0000
2002
0000
0000
0000
0000
0000
0000
0000
0000
0000
0000
0000
0000
0000
0000
0000
0000
0000
0000
0000
0000
0000
0000
0000
0000
0000
0000
0000
0000
0000
0000
0000
0000
0000
0000
0000
0000
0000
0000
0000
0000
0000
0000
0000
0000
0000
0000
0000
3003
0000
0000
0000
0000
0000
0000
0000
0000
0000
0000
0000
0000
0000
0000
0000
0000
0000
0000
0000
0000
0000
0000
0000
0000
0000
0000
0000
0000
0000
0000
0000
0000
0000
0000
0000
0000
0000
0000
0000
0000
0000
0000
0000
0000
0000
0000
0000
,
0000
0100
0001
0010
0001
0100
0001
0010
,
0001
0100
0001
0010
0001
0100
0001
0010
,
0001
0100
0001
0010
0001
0100
0001
0010
,
0001
0100
0001
0010
0001
1000
1000
0010
,
0100
0001
0000
0000
0000
0000
2002
0000
,
0000
0000
0000
0000
3003
0000
0000
0000
0000
0000
0000
0000
0000
0000
0000
0000
0000
0000
0000
0000
0000
0000
0000
0000
0000
0000
0000
0000
0000
0000
0000
0000
0000
0000
0000
0000
0000
0000
0000
0000
0001
0000
0000
0000
0000
0010
0000
0000
0100
0000
0000
0000
0000
0000
0000
0000
0000
0000
1000
0000
0000
0000
0000
0000
,
0001
0000
0000
0000
0000
0000
0000
0000
0000
0000
0000
0000
0000
0000
0000
0000
0000
0000
0000
0000
0000
0000
0000
0000
0000
0000
0000
0000
0000
0000
0000
0000
0100
0000
0000
0000
0000
0000
0000
0000
0000
0000
0000
0000
0000
0000
0000
0000
0000
0000
0000
0000
0000
0000
0000
0000
0000
0000
0000
0000
0000
0000
0000
0000
0000
0000
0000
0000
0000
0000
0000
0000
0100
0000
0000
0000
0000
0000
0000
0000
0000
0000
0000
0000
0000
0000
0000
0000
0000
0000
0000
0000
0000
0000
0000
0001
0000
0000
0000
0000
0000
0000
0000
0000
0000
0000
0000
0000
0000
0000
0000
0000
0000
0000
0000
0000
0000
0000
0000
0000
0010
0000
0000
0000
0000
0000
0000
0000
0000
0000
0000
0000
0000
0000
0000
0000
0000
0000
0000
0000
0000
0000
0000
0000
0100
0000
0000
0000
0000
0000
0000
0000
0000
0000
0000
0000
0000
0000
0000
0000
0000
0000
0000
0000
0000
0000
0000
0000
1000
0000
0000
0000
0000
0000
0000
0000
0000
0000
0000
0000
0000
0000
0000
0000
0000
0000
0000
0000
0000
0000
0000
0000
,
0001
0000
0000
0000
0000
0000
0000
0000
0000
1000
0000
0000
0000
0000
0000
0000
0000
0000
0000
0000
0000
0000
0000
0000
0000
0000
0000
0000
0000
0000
0000
0000
0000
0000
0000
0000
0000
0000
0000
0000
0000
0000
0000
0000
0000
0000
0000
0000
0000
0000
0000
0000
0000
0000
0000
0000
0000
0000
0000
0000
0000
0000
0000
0000
,
0000
0000
0000
0000
0000
0000
0000
0000
0000
0000
0000
0000
0000
0000
0000
0000
0000
0000
0000
0000
0000
0000
0000
0000
0000
0000
0000
0000
0000
0000
0000
0000
0000
0000
0000
0000
0000
0000
0000
0000
0000
0000
0000
0000
0000
0000
0000
0000
0000
0000
0000
0000
0000
0000
0000
0000
0000
0000
0000
0000
0000
0000
0000
0001
0000
0000
0000
0000
0000
0000
0000
0000
0000
0000
0000
0000
0000
0010
0000
0000
0000
0000
0000
0000
0000
0000
0000
0000
0000
0000
0000
0000
0000
0000
0000
0000
0000
0000
0000
0000
0000
0000
0000
0000
0000
0000
0100
0000
0000
0000
0000
0000
0000
0000
0000
0000
0000
0000
0000
0000
0000
0000
0000
0000
0000
0000
0000
0000
0000
0000
0000
0000
0000
0000
0000
0000
0000
0000
0000
0000
0000
0000
0000
1000
0000
0000
0000
0000
0000
0000
0000
0000
0000
0000
0000
0000
0000
0000
0000
0001
0000
0000
0000
0000
0000
0000
0000
0000
0000
0000
0000
0000
1000
0000
0000
0000
0000
0000
0000
0000
0000
0000
0000
0000
0000
0000
0000
0000
0000
0000
0000
0000
,
0000
0000
0000
0010
0000
0000
0000
0000
0000
0000
0000
0000
0000
0000
0000
0000
0000
0000
0000
0000
0000
0000
0000
0000
0000
0000
0000
0000
0000
0000
0000
0000
0000
0000
0000
0000
0000
0000
0000
0000
0000
0000
0000
0000
0000
0000
0000
0000
0100
0000
0000
0000
0000
0000
0000
0000
0000
0000
0000
0000
0000
0000
0000
0000
0000
0000
0000
0000
0000
0000
0000
0000
0010
0000
0000
0000
0000
0000
0000
0000
0000
0000
0000
0000
0000
0000
0000
0000
0000
0000
0000
0000
0000
0000
0000
0000
1000
0000
0000
0000
0000
0000
0000
0000
0000
0000
0000
0000
0000
0000
0000
0000
0000
0000
0000
0000
0000
0000
0000
0000
0000
0000
0000
0000
0000
0000
0000
0000
0000
0000
0000
0001
0000
0000
0000
0000
0000
0000
0000
0000
0000
0000
0000
0000
0000
0000
0000
0000
0000
0000
0000
0000
0000
0000
0000
0000
0000
0000
0000
0000
0000
0000
0000
0000
0000
0000
0000
0000
0000
0000
0000
0000
0000
0000
0000
0000
0000
0000
0000
0000
0000
0000
0000
0000
0000
0000
0000
0000
0000
0000
0000
0000
,
0000
0000
0000
0000
0000
0000
0000
0000
0000
0000
0000
0000
0000
0000
0000
0000
0000
0000
0000
0000
0000
0000
0000
0000
0000
0000
0000
0000
0000
0000
0000
0000
0000
0000
0000
0000
0000
0000
0000
0000
0000
0000
0000
0000
0000
0000
0000
0000
0000
0000
0000
0000
0000
0000
0000
0000
0000
0000
0000
0000
0000
0000
0000
0000
0000
0000
0000
0000
0000
1000
0000
0000
0000
0000
0000
0000
0100
0000
0000
0000
0000
0000
0000
0000
0000
0000
0000
0000
0000
0000
0000
0000
0000
0000
0000
0010
0000
0000
0000
0000
0000
0000
0000
0000
0000
0000
0000
0000
0001
0000
0000
0000
0000
0000
0000
0000
0000
0000
0000
0000
0000
0000
0000
0000
0000
0100
0000
0000
0000
0000
0000
0000
0000
0000
0000
0000
0000
0000
0000
0000
0000
0000
0000
0000
0000
0000
0000
0000
0000
0000
0000
0000
0000
0000
0000
0000
0000
0000
0000
0000
0010
0000
0000
0000
0000
0000
0000
0000
0000
0000
0000
0000
0000
0000
0000
0000
0000
0000
0000
0000
0000
0000
0000
0000
0000
1000
0000
0000
0000
0000
0000
0000
,
0000
0000
0000
0000
0001
0000
0000
0000
0000
0010
0000
0000
0000
0000
0000
0000
0001
0000
0000
0000
0100
0000
0000
0000
0010
0000
0000
0000
0000
0000
1000
0000
,
0000
0000
0000
0000
0000
0000
0000
0000
0000
0000
0000
0000
0000
0000
0000
0000
0000
0000
0000
0000
0000
0000
0000
0000
0000
0000
0000
0000
0000
0000
0000
0000
0000
0000
0000
0000
0000
0000
0000
0000
0000
0000
0000
0000
0000
0000
0000
0000
0000
0000
0000
0000
0000
0000
0000
0000
0000
0000
0000
0000
0000
0000
0000
0000
0000
0000
0000
0000
0000
0000
0000
0000
0000
0000
0000
0000
0000
0000
0000
0000
0000
0000
0000
0000
0000
0000
0000
0000
0000
0000
0000
0000
0000
0000
0000
0000
0000
0000
0000
0000
0000
0010
0000
0000
0000
0000
0000
0000
0000
0000
0000
0000
0000
0000
0000
0000
0000
0000
0000
0000
0000
0000
0000
0000
0100
0000
0000
0000
0000
0000
0000
0000
0000
0000
0000
0000
0000
0000
0000
0000
0000
0000
0000
0000
0001
0000
0000
0000
0000
0000
0000
0000
0000
0000
0000
0000
0000
0000
0000
0000
0000
0000
0010
0000
0000
0000
0000
0000
0000
0000
0000
0000
0000
0000
0000
0000
0000
0000
0000
0000
0000
0000
0000
0000
0000
0000
0000
0000
0000
0000
0000
0000
,
0100
0000
0000
0000
0000
0000
0000
0000
0000
0000
0000
0000
0000
0000
0000
0000
0000
0000
0000
0000
0000
0000
0000
0000
0000
0000
0000
0000
0000
0000
0000
0000
0000
0000
0000
0000
0000
0000
0000
0000
0000
0000
0000
0000
0000
0000
0000
0000
0000
0000
0000
0000
0000
0000
0000
0000
0000
0000
0000
0000
0000
0000
0000
0000
0000
0000
0000
0000
0000
0000
0000
1000
0000
0000
0000
0000
0000
0000
0000
0000
0000
0000
0000
0000
0000
0000
0000
0000
0000
0000
0000
0000
0000
0000
0000
0000
0000
0000
0000
0001
0000
0000
0000
0000
0000
0000
0000
0000
0000
0000
0000
0000
0000
0000
0000
0000
0000
0000
0000
0000
0000
0000
0000
0000
0000
0000
0000
0000
0000
0000
0100
0000
0000
0000
0000
0000
0000
0000
0000
0000
0000
0000
0000
0000
0000
0000
0000
0000
0000
0000
0000
0000
0000
0000
0000
0000
0000
0000
0000
0000
0000
0000
0000
0010
0000
0000
0000
0000
0000
0000
0000
0000
0000
0000
0000
0000
0000
0000
0000
0000
0000
0000
0000
0000
0000
0000
0000
0000
0000
0000
0000
0000
,
1000
0000
0000
0000
0000
0000
0000
0000
0000
0000
0000
0000
0000
0022
0000
0033
0000
0000
0000
0000
1000
0000
0010
0000
0100
0000
0000
0000
0001
0000
0000
0000
,
1000
0100
1000
0000
0001
0000
1000
0100
1000
0000
0001
0100
0010
0000
1000
0000
,
0001
0100
0001
0000
1000
0000
0001
0100
0001
0000
1000
0100
0010
0000
0001
0000
,
1000
0100
1000
0000
0001
0000
1000
0100
1000
0000
0001
0100
0010
0000
1000
0000
,
0010
0100
0010
0000
1000
0000
0001
0000
1000
0100
1000
0000
0001
0000
1000
0100
,
1000
0000
0001
0100
0010
0000
1000
0000
0001
0010
0001
0010
0001
0100
0010
1000
,
0100
1000
0001
0010
0001
1000
0001
0100
0020
0000
0000
0000
0230
0000
0000
0000
,
0300
0000
0001
1000
0010
0000
1000
0000
0001
0010
0001
0000
1000
0000
0001
0010
,
0001
0000
1000
0010
0100
0000
0001
0000
1000
0010
1000
0000
0001
0000
1000
0010
,
1000
0000
0001
0010
0100
0000
1000
0000
0100
0010
0100
0000
1000
0000
0001
0000
,
1000
0010
1000
0000
0001
0000
1000
0010
1000
0000
0001
0010
0100
0000
1000
0000
,
0001
0100
0001
0100
0001
0010
0100
1000
0010
1000
0001
0100
0001
1000
0001
0010
,
0200
0000
0000
0000
0320
0000
0000
0000
0030
0000
0001
1000
0010
0000
1000
0000
,
0001
0100
0001
0000
1000
0000
0001
0100
0001
0000
1000
0100
0010
0000
0001
0000
,
1000
0100
1000
0000
0001
0000
1000
0100
1000
0000
0001
0100
0010
0000
1000
0000
,
0010
0100
0010
0000
1000
0000
0001
0000
1000
0100
1000
0000
0001
0000
1000
0100
,
1000
0000
0001
0100
0010
0000
1000
0000
0001
0010
0001
0010
0001
0100
0010
1000
,
0100
1000
0001
0010
0001
1000
0001
0100
0020
0000
0000
0000
0230
0000
0000
0000
,
0300
0000
0001
1000
0010
0000
1000
0000
0001
0010
0001
0000
1000
0000
0001
0010
,
0001
0000
1000
0010
0100
0000
0001
0000
1000
0010
1000
0000
0001
0000
1000
0010
,
1000
0000
0001
0010
0100
0000
1000
0000
0100
0010
0100
0000
1000
0000
0001
0000
,
1000
0010
1000
0000
0001
0000
1000
0010
1000
0000
0001
0010
0100
0000
1000
0000
,
0001
0100
0001
0100
0001
0010
0100
1000
0010
1000
0001
0100
0001
1000
0001
0010
,
0001
0000
0000
0000
;
