#TITLE:SUPER STAR;
#SUBTITLE:;
#ARTIST:D.J.RICH feat. Tail Bros.;
#TITLETRANSLIT:;
#SUBTITLETRANSLIT:;
#ARTISTTRANSLIT:;
#CREDIT:;
#BANNER:SUPER STAR-banner.png;
#BACKGROUND:SUPER STAR-bg.png;
#LYRICSPATH:;
#CDTITLE:b4-cdtitle.png;
#MUSIC:SUPER STAR.mp3;
#OFFSET:-2.390;
#SAMPLESTART:60.445;
#SAMPLELENGTH:15.420;
#SELECTABLE:YES;
#BPMS:0.000=128.000;
#STOPS:;
#BGCHANGES:;
// cache tags:
#FIRSTBEAT:4.000;
#LASTBEAT:172.000;
#SONGFILENAME:Songs/Definitive Keyboard Megapack/SUPER STAR[B4-NoA]/SUPER STAR.sm;
#HASMUSIC:1;
#HASBANNER:1;
#MUSICLENGTH:85.255;
// end cache tags

//---------------dance-single - B4-NoA----------------
#NOTES:
     dance-single:
     B4-NoA:
     Challenge:
     12:
     1.000,1.000,1.000,0.974,1.000,561.000,146.000,83.000,0.000,42.000:

0000
0000
0000
0000
,
1000
1100
0000
0001
0011
0000
1000
1001
0000
0100
0110
0000
0100
0000
0010
0000
,
1000
1100
0000
0010
0011
0000
1000
1001
0000
0100
0110
0000
0000
0100
0001
0000
,
1010
0000
1000
0000
0001
0000
0100
0001
0010
0000
0001
0000
0100
1000
0000
0000
,
0010
0000
1000
0010
0100
0010
0001
0100
0010
0100
0001
0010
1000
0100
0011
0000
,
1100
0000
0101
0000
1010
0000
0000
0100
1000
0000
0100
0010
0100
1000
0000
0100
,
1001
0000
0010
1000
0100
0000
1000
0010
0100
0001
0100
0000
0011
0000
0101
0000
,
1001
0100
0001
0010
0100
0010
1000
0100
0001
0010
0100
0001
0010
0100
0010
1000
,
0001
0000
0100
0000
1000
0000
0010
0000
0100
0000
1000
0000
0100
0000
0010
0000
0101
0000
0000
0110
0000
0000
1100
0000
0000
0000
0100
0000
1000
0000
0100
0000
,
0001
0010
0100
1000
0010
0100
1000
0100
0001
0010
0100
1000
0100
0010
0100
1000
,
0011
0000
0000
0000
0000
0000
1100
0000
0000
0000
0000
0000
0000
0000
0000
0000
0000
0000
0001
0000
0000
0100
0000
0000
0010
0000
0000
1000
0000
0000
0000
0000
1001
0000
0000
0000
0000
0000
0000
0000
0000
0000
0100
0000
0000
0010
0000
0000
,
1100
0010
1000
0100
0010
0100
0001
0010
0100
0010
0002
0100
0013
0100
1000
0100
,
1000
0100
0001
0100
1000
0001
0100
0010
0100
1000
0020
0100
0031
0100
0010
0001
,
0010
0100
0001
1000
0010
0100
0001
1000
0100
0001
2000
0100
3001
0100
0010
1000
,
1020
0000
0030
0000
0000
0000
0010
0100
0011
0100
0010
2002
0000
3003
0000
0000
,
1020
0132
1023
0132
1023
0132
1023
0231
2310
3201
0320
0000
0030
0000
1100
0101
,
0000
0000
2010
3201
2310
3201
2310
3201
2310
3012
0123
2030
0000
3000
0201
1320
,
0231
1320
0231
1320
0231
2310
3201
1320
0231
0302
0000
0000
0003
0000
1100
0110
,
0101
1010
1001
0110
1100
0110
0011
0110
1010
0101
0110
2002
0000
3003
0000
0000
,
1011
0100
0001
1000
0011
0100
0010
0100
1010
0100
0010
0100
1001
0010
0001
0100
,
0011
1000
0100
0001
1100
0010
0001
0100
0011
0100
0010
0100
1010
0100
0001
1000
,
0110
0001
0010
0100
1010
0001
0010
0100
0011
0100
0010
0001
1100
0010
1000
0100
,
1001
1000
0000
0001
0011
0000
1100
1000
0000
0011
0010
0000
0011
0000
0101
0000
,
0010
0100
0001
0010
0100
1000
0010
0100
1000
0100
0010
0100
1000
0001
0100
0010
,
1000
0000
0100
0000
0001
0000
0010
0000
0100
0000
1000
0000
0100
0000
0000
0000
0101
0000
0000
0110
0000
0000
1100
0000
0000
0000
1000
0000
0010
0000
0001
0000
,
0010
1000
0001
0010
0100
1000
0010
0001
0100
0001
0010
0100
1000
0010
0100
0001
,
0010
0100
0001
0010
0100
1000
0010
0001
1000
0100
0010
0100
1000
0010
0100
0001
,
1100
0010
1000
0100
0010
0100
0001
0010
0100
0010
0002
0100
0013
0100
1000
0100
,
1000
0100
0001
0100
1000
0001
0100
0010
0100
1000
0020
0100
0031
0100
0010
0001
,
0010
0100
0001
1000
0010
0100
0001
1000
0100
0001
2000
0100
3001
0100
0010
0100
,
1000
0100
0001
0100
1000
0100
0010
1000
0010
0100
0001
0100
0022
0033
2200
3300
,
1001
0000
0202
0000
2323
0000
3232
0000
2323
0000
3232
0020
2333
0000
3000
0000
,
0000
0000
0002
0023
0030
0000
0220
0000
2332
0000
3223
2000
3332
0000
0003
0000
,
0110
0000
2020
0000
3232
0000
2323
0000
3232
0000
0323
2000
0030
3000
0000
0000
,
1010
1100
0110
1001
0011
1010
0110
1001
0110
1100
0101
1010
0101
1100
0101
1100
,
1001
0010
0100
0010
0100
1000
0010
0001
1000
0010
0001
0100
1000
0010
0100
1000
,
0010
0001
0100
1000
0001
0010
1000
0100
0001
0100
0010
0100
0001
0010
1000
0100
,
0010
0001
0100
1000
0001
0010
1000
0100
0001
0010
0100
1000
0010
0100
1000
0010
,
0101
0000
1010
0000
0000
0000
0000
0000
0000
0001
0010
1000
0100
0000
0010
0100
,
1001
0010
0100
1000
0001
0100
1000
0010
0001
0100
0002
0100
1003
0010
0100
0001
,
0010
0100
1000
0100
1000
0010
0001
0100
1000
0010
2000
0100
3001
1000
0100
0001
,
0010
1000
0100
0010
0001
0010
1000
0100
0001
1000
0200
0010
1300
0001
0010
0100
,
1001
0110
1001
0110
1001
0000
1010
0101
1010
0101
1010
0000
1001
1100
0110
0011
,
1001
0000
0000
0000
;
