#TITLE:Balloon Fight;
#SUBTITLE:Nintendo Entreteniment System;
#ARTIST:Nintendo;
#TITLETRANSLIT:;
#SUBTITLETRANSLIT:;
#ARTISTTRANSLIT:Joao Pedro Wojcikiewicz Duarte Silva;
#CREDIT:;
#BANNER:banner.JPG;
#BACKGROUND:bg final.JPG;
#LYRICSPATH:;
#CDTITLE:;
#MUSIC:01-iciclemountain(Alternate).mp3;
#OFFSET:0.000;
#SAMPLESTART:100.000;
#SAMPLELENGTH:12.000;
#SELECTABLE:YES;
#BPMS:0.000=180.000,420.000=120.000;
#STOPS:;
#BGCHANGES:0.000=balloon fight cosplay.jpg=1.000=0=0=1,
56.000=bg1.JPG=1.000=0=0=1,
116.000=bg2.JPG=1.000=0=0=1,
176.000=bg3.JPG=1.000=0=0=1,
236.000=bg4.JPG=1.000=0=0=1,
296.000=bg final.JPG=1.000=0=0=1,
99999=-nosongbg-=1.000=0=0=0 // don't automatically add -songbackground-
;
// cache tags:
#FIRSTBEAT:0.500;
#LASTBEAT:355.750;
#SONGFILENAME:Songs/toune 4/Balloon Fight/01-iciclemountain(Alternate).sm;
#HASMUSIC:1;
#HASBANNER:1;
#MUSICLENGTH:118.883;
// end cache tags

//---------------dance-single - ----------------
#NOTES:
     dance-single:
     :
     Medium:
     1:
     0.523,0.898,0.236,0.000,0.946,407.000,28.000,0.000,0.000,0.000:
0000
0000
1000
0000
0000
0000
0000
0000
0000
0001
0000
0010
0000
0100
0000
0000
,
0000
0000
0000
0000
1000
0000
0000
1000
0000
0000
1000
0000
0000
1000
0000
0000
,
0001
0000
0000
0010
0000
0000
0100
0000
0000
0100
0000
1000
0000
0100
0000
1000
,
0000
0100
0000
1000
0000
0100
0000
0000
0001
0010
0000
0000
0001
0010
0000
0000
,
0001
0000
0000
0010
0000
0000
0000
0000
0001
0000
0000
0000
0000
0000
0000
1000
,
0000
0000
0000
0000
0000
0010
0000
0100
0000
0000
1000
0000
0000
0000
0000
0000
,
0000
0000
0000
0000
0001
0000
0010
0000
0100
0000
0000
0000
0000
1000
0000
0100
,
0000
0010
0000
0001
0000
0000
0000
0000
0000
0000
0000
0100
0000
0010
0000
0000
,
0100
0000
0000
0000
0000
0000
0000
0000
0000
0000
1000
0000
0001
0000
0000
1000
,
0000
0000
0001
0010
0100
1000
0000
0000
,
0100
0000
0000
0010
0000
0100
0000
0000
0000
0000
0000
0000
0000
0000
0000
0001
,
0000
1000
0000
0010
0000
0100
0000
0000
1000
0000
0000
0000
0100
0000
0010
0000
,
0100
0000
0000
0000
0000
0000
0000
1000
0000
0100
0000
0000
0010
0000
0000
0000
,
0000
0000
0000
0000
0000
0001
0000
0000
0010
0100
0000
1000
0000
0000
0010
0000
,
0001
0000
0100
0000
0010
0000
0000
0000
0000
0000
0000
0000
0000
0001
0000
0000
,
0000
0100
0000
1000
,
0010
0000
0010
0000
0010
0000
0000
0000
0100
0000
0000
0001
0000
0000
0000
0000
,
0010
0000
0000
0000
0000
0000
1000
0000
0000
0000
0100
0000
0000
0000
0000
0010
,
0000
0001
0000
0000
0100
0000
0000
0100
0000
0000
1000
0000
0000
1000
0000
0100
,
0000
0000
0010
0000
0000
0001
0000
0000
0000
0000
0000
0100
0000
0000
0000
0000
,
0000
0000
0010
0000
0000
0000
0000
0000
0000
1000
0000
0000
0000
0100
0000
0100
,
0000
0100
0000
0000
0001
0000
0010
0000
0000
0000
0000
0000
0100
0000
0000
0000
,
0000
0000
0000
0000
1000
0000
0000
0000
0100
0000
0000
0010
0000
0000
0010
0000
,
0000
0001
0000
0000
0100
0000
0000
0100
0000
0000
0000
1000
0000
0000
0010
0000
,
0000
0001
0000
0000
0000
1000
1000
0000
,
0000
0000
0000
0010
0001
0100
0000
0000
,
1000
0000
0001
0000
0000
1000
0000
0010
0000
0000
0000
0000
0000
0000
0100
0000
,
1000
0000
0000
0100
0000
0000
0000
0000
0000
0000
0000
0000
0000
0000
0001
0000
,
0010
0000
0100
0000
0000
0000
0000
1000
0000
0100
0000
0000
0010
0000
0100
0000
,
0000
0000
0000
0000
0000
1000
0000
0001
0000
0010
0000
0000
0000
0000
0000
0000
,
0000
0000
0000
0000
0100
0000
0000
1000
0001
0000
0000
0000
0000
0010
0000
0100
,
0000
0000
1000
0000
0010
0000
0000
0000
0000
0000
0000
0100
0000
1000
0000
0001
,
0000
0000
0000
0000
0000
0000
0010
0000
0000
0000
0000
0000
0100
0000
0000
1000
,
0000
0000
0000
0100
0000
0001
0000
0010
0000
0000
0100
0000
0000
0000
0000
0000
,
0000
1000
0000
0100
0000
0000
0000
0000
0001
0000
0000
0000
1000
0000
0000
0000
,
0100
0000
0000
0010
0000
0000
0000
0001
0000
0000
0000
0100
0000
0000
0000
1000
,
0000
0000
0000
0000
0001
0000
1000
0000
0000
0001
0000
0000
1000
0000
0001
0000
,
0000
0000
0000
0000
0000
1001
0000
0000
0000
1001
0000
0000
1001
0000
0000
1001
,
0000
0000
0000
1001
0000
0000
0000
0000
0000
0001
0000
0000
0000
0000
0000
1000
,
0000
0001
0000
0000
1000
0000
0000
0000
0000
0000
0010
0000
0000
0100
0000
0000
,
1000
0000
0000
0100
0000
0000
0010
0000
0000
0001
0000
0000
0000
0000
1001
0000
,
1001
0000
1001
0000
0000
1001
0000
1001
0000
1001
0000
1001
0000
1001
0000
1001
,
0000
1001
0000
1001
0000
1001
0000
1001
0000
1001
0000
1001
0000
1001
0000
1001
,
0000
1001
0000
1001
0000
0000
0010
0000
0000
0000
0000
0100
0000
1000
0000
0001
,
0000
0000
0000
0000
0000
0000
0000
0000
0000
0000
0100
0000
1000
0000
0000
0010
,
0000
0000
0000
0000
0000
0001
0000
0010
0000
0100
0000
0000
1000
0000
0000
0000
,
0000
0000
0000
0100
0000
0010
0000
0000
0101
0000
0000
0000
0000
0000
0000
0000
,
0000
0100
0000
1000
0000
0010
0000
0000
0000
0000
0000
0100
0000
0001
0000
0010
,
0000
0000
0000
0000
0000
0000
0000
0001
0000
1000
0000
0000
0010
0000
0000
0000
,
0000
0000
0000
0000
0000
0000
0100
0000
0000
0001
0000
0010
0000
0000
0000
0000
,
0000
0100
1000
0001
0010
0000
0000
0001
,
1000
0000
0000
0001
1000
0000
0000
0000
0000
0000
0000
0010
0000
0000
0001
1000
,
0100
0000
1000
0000
0001
1000
0000
0000
0000
0010
0000
0000
0000
0000
0000
0000
,
0000
0000
0001
0000
0000
0000
0000
0000
0000
0100
0000
0000
0000
0000
0000
0000
,
0000
0010
0000
0000
0100
1000
0000
0000
0010
0000
0000
1100
0000
0010
0000
0001
,
0000
0000
0000
0000
0000
0000
0000
0100
0000
0000
0000
0000
0000
0000
1000
0000
,
0000
0000
0010
0000
0000
0001
0000
0100
0000
0000
0100
0000
0000
0000
1000
0000
,
0000
0010
0000
0000
0100
0000
0000
0001
0000
0000
0010
0000
0000
0000
0000
0000
,
0000
0100
0000
0000
0000
0000
0000
0000
0000
0000
1000
0000
0000
0000
0000
0010
,
0000
0000
0100
0000
0000
0001
0000
0000
0100
0000
0000
1000
0000
0100
0000
0000
,
0000
0000
0000
0000
0010
0000
0000
0000
0000
0000
0000
0100
0000
0000
0000
0001
,
0000
0000
0100
0000
0100
0000
0000
0001
0000
0100
0000
0000
1000
0000
0000
0100
,
0000
0000
0100
0000
0000
0000
0000
0000
0000
0000
0010
0000
0000
0000
0000
0001
,
0000
0100
0000
0000
1000
0000
0000
0000
0000
0000
0000
0000
0001
0000
0000
0010
,
0000
0100
0000
0000
0000
0000
0000
1000
0000
0100
0000
0000
0010
0000
0100
0000
,
0000
0000
0000
0000
0000
0001
0000
0010
0000
0100
0000
0000
0000
0000
0000
0000
,
0000
0000
0000
1000
0000
0000
0100
0000
0100
0000
0000
0000
0000
0010
0000
0000
,
0100
0000
0001
0000
0100
0000
0000
0000
0000
0000
0000
0100
0000
0000
0010
0000
,
1000
0000
0000
0000
0000
0000
0000
0000
0000
0000
0100
0000
0000
0010
0000
0100
,
0000
0000
0000
0000
0010
0000
0100
0000
0000
0010
0100
0000
0000
0000
0000
0000
,
0000
0010
0000
0100
0000
0010
0000
0100
0000
0000
0000
0000
0000
0000
0001
0000
,
0000
0000
0000
1000
0000
0001
0000
0000
0000
1000
0000
0000
0001
0000
1000
0000
,
0000
0000
0000
0000
0000
0010
0000
0100
0000
0000
0000
0000
1000
0000
0000
0000
,
0001
0000
0000
0010
0000
0100
0000
1000
0000
0000
0000
0000
0000
0100
0000
0000
,
0000
0000
0010
0000
0000
0001
0000
0100
0000
0000
1000
0000
0000
0010
0000
0100
,
0000
1000
0000
0100
0000
1000
0100
0000
1000
0100
0000
0000
0001
0000
0010
0000
,
0000
0100
0000
0100
0000
0000
0000
0100
0000
1000
0000
0000
0000
0000
0000
0000
,
0001
0000
0000
0000
0000
0010
0000
0100
0000
0000
1000
0000
0000
0000
0000
0000
,
0100
0000
0000
0000
0010
0000
0000
0100
0000
0000
0001
0000
0000
1000
0000
0000
,
0000
0010
0100
0000
0100
0010
0000
0010
0100
0000
0100
0010
0000
0010
0100
0000
,
0100
0010
0000
0010
0100
0000
0100
0010
0000
0000
0001
0000
0001
1100
0001
1000
,
0000
1001
0000
0001
0000
0001
1000
0001
0000
0000
0000
0010
0000
0000
0000
0000
,
0000
0100
0000
1000
0000
0000
0001
0000
0000
0000
0000
0000
0000
0000
0000
0000
,
0000
0010
0000
0100
0000
1000
0000
0000
0000
0000
0000
0001
0000
0010
0000
0100
,
0000
1000
0000
0000
0000
0000
0000
0000
0000
0010
0000
0100
0000
0001
0000
0000
,
0000
0000
0000
0000
0100
1000
0010
0000
,
0000
0100
1000
0010
0100
0000
0000
0000
,
0001
0000
0010
0000
1000
0000
0000
0000
0000
0000
0000
0000
0000
0100
0000
0010
,
0000
0100
0000
0000
0000
0000
0000
0000
0010
0000
1000
0000
0001
0000
0000
0010
;
