#TITLE:Cyber Sparks;
#SUBTITLE:;
#ARTIST:Tatsh;
#TITLETRANSLIT:;
#SUBTITLETRANSLIT:;
#ARTISTTRANSLIT:;
#CREDIT:;
#BANNER:../banner.png;
#BACKGROUND:../bg.png;
#LYRICSPATH:;
#CDTITLE:;
#MUSIC:CYBER Sparks.ogg;
#OFFSET:-3.081;
#SAMPLESTART:59.353;
#SAMPLELENGTH:20.200;
#SELECTABLE:YES;
#BPMS:0.000=192.000;
#STOPS:;
#BGCHANGES:;
// cache tags:
#FIRSTBEAT:0.000;
#LASTBEAT:421.000;
#SONGFILENAME:Songs/Cirque du Lykan/Cyber Sparks - [Zaia]/Cyber Sparks.sm;
#HASMUSIC:1;
#HASBANNER:1;
#MUSICLENGTH:137.258;
// end cache tags

//---------------dance-single - Zaia - 15(low-mid)----------------
#NOTES:
     dance-single:
     Zaia - 15(low-mid):
     Challenge:
     15:
     1.000,1.000,0.109,0.168,1.000,1243.000,15.000,23.000,0.000,0.000:
1000
0010
0100
0001
1000
0100
0010
0100
1000
0001
0010
0100
0010
0001
0100
0010
,
1000
0100
0010
0001
1000
0010
0100
0010
1000
0001
0100
0010
0100
0001
0010
0100
,
1000
0001
0100
0010
1000
0001
0010
0100
0010
0001
1000
0100
0010
0100
1000
0010
,
0100
0001
0010
0100
1000
0001
0100
0010
0100
0001
1000
0010
0100
0010
1000
0100
,
0010
0001
1000
0001
1000
0010
0100
0001
1000
0100
1000
0010
0100
0001
1000
0001
,
1000
0100
0010
0001
0100
0010
1000
0001
1000
0010
1000
0010
0100
0001
0010
0100
,
1000
0010
0100
0001
1000
0100
0010
0001
0100
0001
0100
0010
1000
0001
0010
0100
,
1000
0001
1000
0100
0010
0100
0010
0001
1000
0010
0100
0001
1000
0001
0010
0100
,
0010
0001
1000
0001
1000
0100
0010
0001
1000
0010
1000
0100
0010
0001
1000
0001
,
1000
0010
0100
0001
0010
0100
1000
0001
1000
0100
1000
0100
0010
0001
0100
0010
,
1000
0100
0010
0001
1000
0010
0100
0001
0010
0001
0010
0100
1000
0001
0100
0010
,
1000
0001
1000
0010
0100
0010
0100
0001
1000
0100
0010
0001
1000
0001
0100
0010
,
1000
0001
0011
0010
0100
1000
1100
0100
,
1000
0001
0101
0100
0010
1000
1010
0010
,
0100
0001
0011
0010
0100
1000
1001
0001
,
1000
0010
0100
0001
1000
0100
1000
0001
0010
0001
1000
0010
0100
0001
0010
0100
,
1000
0001
0010
0001
1000
0010
1000
0001
0100
0010
0100
0001
0100
0010
1000
0001
,
0010
0100
1000
0100
0010
0100
1000
0001
1000
0001
0100
0001
1000
0010
0100
0001
,
1000
0100
1000
0000
0001
0100
0001
0000
1000
0100
1000
0000
0001
0010
0001
0010
,
0001
0100
0001
0000
1000
0100
1000
0000
0010
0100
0001
0000
0010
0100
1000
0000
,
0001
0000
0100
0000
0001
0000
1000
0100
1000
0000
0001
0000
0100
0000
0010
1000
,
0010
0000
0100
0000
0001
0000
1000
0100
1000
0000
0001
0000
0010
0000
0100
0010
,
0100
0000
1000
0000
0001
0000
0100
0001
0100
0000
0010
0000
1000
0000
0001
0010
,
0001
0000
1000
0000
0010
0000
1000
0001
1000
0000
0100
0000
0010
0000
0001
0010
,
0001
0000
1000
0000
0010
0000
0100
0001
0100
0000
0001
0000
1000
0000
0100
0010
,
0100
0000
1000
0000
0001
0000
1000
0100
1000
0000
0001
0000
0100
0000
0001
0000
,
1000
0001
1000
0100
0000
0000
1000
0000
,
0001
0100
0000
0000
,
0001
0100
0010
0000
0001
0100
0010
0000
,
0001
0000
0000
0100
0000
0000
0010
0000
0000
1000
0000
0000
0001
0000
0000
0010
0100
1000
0001
0000
0000
0010
0000
0000
,
0100
1000
0001
0000
0100
1000
0001
0000
,
0100
0000
0000
1000
0000
0000
0001
0000
0000
0010
0000
0000
0001
0000
0000
1000
0010
0100
0001
0000
0000
1000
0000
0000
,
0010
0100
0001
0000
0010
0100
0001
0000
,
0010
0000
0000
0100
0000
0000
0001
0000
0000
1000
0000
0000
0010
0000
0000
0100
0001
1000
0100
0000
0000
0010
0000
0000
,
0001
1000
0100
0000
1100
0000
1001
0000
,
0101
0000
1010
0000
0110
0000
0001
1000
,
0020
0000
0000
0000
0000
0000
0130
0001
,
0020
0000
0000
0000
0000
0130
1000
0010
,
0200
0000
0302
2003
,
3200
0000
0000
0000
0300
0000
0010
0001
,
2000
0000
0000
0000
0000
0000
3010
1000
,
0002
0000
0000
0000
0000
0103
0010
1000
,
0002
0000
0023
0230
,
2300
0000
0000
0000
,
3001
0000
0000
0000
0000
0000
0100
0000
0000
0000
0000
0000
0001
0000
0000
1000
0000
0000
0000
0000
0000
0001
0000
0000
0100
0000
0000
0000
0000
0000
0010
0000
0000
0000
0000
0000
4000
0000
0000
0000
0000
0000
0000
0000
3000
0000
0000
0000
,
0001
0100
0010
1000
0001
0010
0100
0010
0001
1000
0010
0100
0001
1000
0001
0010
,
0100
1000
0001
1000
0010
0100
0001
0010
0100
1000
0001
0100
0001
1000
0100
1000
,
0001
0010
0100
1000
0001
0100
0010
0100
0001
1000
0100
0010
0001
1000
0001
0100
,
0010
1000
0001
1000
0100
0010
0001
0100
0010
1000
0001
0010
0001
1000
0010
1000
,
0001
1000
0100
0010
0001
1000
0010
0100
0010
1000
0001
0010
0100
1000
0001
1000
,
0010
0100
0001
1000
0001
0010
0100
1000
0010
0100
0001
1000
0100
1000
0001
0100
,
0001
1000
0100
0000
1100
0000
0110
0000
,
0010
0001
1000
0000
0010
1000
0001
0000
0100
0001
0100
0000
0001
0000
1000
0000
,
0100
1000
0001
0100
0010
1000
0010
0100
0001
1000
0001
0010
0100
1000
0001
0100
,
0001
1000
0100
0010
0100
1000
0001
1000
0100
0010
0001
0100
0010
1000
0001
0100
,
0001
1000
0100
0010
0100
1000
0001
0010
0100
1000
0010
0100
0001
1000
0100
0010
,
0001
1000
0010
1000
0001
0100
0010
0100
0001
1000
0001
0010
0100
1000
0001
1000
,
0010
1000
0001
0010
0100
1000
0100
0010
0001
1000
0001
0100
0010
1000
0001
0010
,
0001
1000
0010
0100
0010
1000
0001
1000
0010
0100
0001
0010
0100
1000
0001
0010
,
0001
1000
0010
0100
0010
1000
0001
0100
0010
1000
0100
0010
0001
1000
0010
0100
,
0002
0000
0000
0000
0000
0000
0000
0000
1003
0000
0100
0000
1000
0000
0001
0100
,
0010
1000
0001
1000
0100
1000
0001
0010
0100
1000
0001
1000
0010
0100
0001
1000
,
0100
1000
0001
0100
0001
1000
0001
1000
0100
0010
0001
1000
0001
0100
0010
0100
,
0001
1000
0010
1000
0001
0010
0100
0010
0001
1000
0010
0100
0010
1000
0001
1000
,
0001
0010
0100
1000
0001
0100
0010
0100
0001
0010
0100
1000
0001
1000
0010
0100
,
0001
1000
0001
0010
0100
0010
0001
1000
0010
0100
0001
1000
0001
0010
0001
1000
,
0010
1000
0001
0100
0010
0100
0001
1000
0100
0010
0100
1000
0001
0100
0010
1000
,
0001
1000
0001
0010
0001
1000
0100
0010
0100
1000
0001
1000
0010
0100
0010
1000
,
0001
0010
0001
0000
1000
0010
1000
0000
0001
0010
0001
0000
0100
0000
0001
0000
,
1000
0100
0010
0001
1000
0010
0100
0010
1000
0001
0100
0001
1000
0001
0010
0100
,
1000
0001
1000
0010
0100
0001
0100
0010
1000
0001
0010
0100
0010
0001
1000
0001
,
1000
0100
0010
0100
1000
0001
1000
0010
0100
0001
0010
0100
1000
0001
0100
0001
,
1000
0010
0100
0001
1000
0100
0010
0001
0010
0100
1000
0001
1000
0010
0100
0001
,
1000
0000
0000
0000
1001
0000
0000
1010
,
0000
0000
0010
0000
1000
0000
0001
0000
1000
0000
0001
0000
1000
0001
1000
0001
,
1000
0100
0010
0001
0100
0001
1000
0100
1000
0001
0010
0100
1000
0001
1000
0010
,
0100
0001
1000
0100
1000
0001
0100
0010
0100
0001
1000
0100
0010
0100
1000
0001
,
0010
0100
1000
0010
0100
0001
1000
0100
1000
0001
0100
0010
1000
0001
1000
0010
,
0100
0010
1000
0001
0010
0100
0010
0001
1000
0100
1000
0001
1000
0001
0100
0010
,
1000
0001
0100
0001
1000
0100
1000
0001
0010
0100
1000
0001
1000
0010
0100
0001
,
1000
0100
0010
0100
1000
0001
1000
0010
1000
0001
0010
0001
1000
0010
0100
0001
,
1000
0001
0010
0100
1000
0001
0100
0010
1000
0001
0010
0001
1000
0100
1000
0001
,
1000
0010
0100
0001
0010
0100
0010
0001
1000
0010
1000
0001
0010
0100
1000
0010
,
0100
0010
0100
0001
0010
0001
1000
0010
1000
0001
0100
0010
1000
0001
1000
0100
,
0010
0001
1000
0010
1000
0001
0010
0100
0010
0001
1000
0010
0100
0010
1000
0001
,
0100
0010
1000
0100
0010
0001
1000
0010
1000
0001
0010
0100
1000
0001
1000
0100
,
0010
0100
1000
0001
0100
0010
0100
0001
1000
0010
1000
0001
1000
0001
0010
0100
,
1000
0001
1000
0001
0100
0010
1000
0000
0001
1000
0001
1000
0100
0010
0100
1000
,
0001
0010
0100
1000
0010
1000
0100
0010
0001
0100
0010
1000
0100
0010
0001
1000
,
0010
0100
0001
0100
0010
1000
0010
0100
,
0001
1000
0010
1000
0100
1000
0001
0010
,
0001
1000
0100
0010
0001
0010
0100
1000
,
0001
1000
0010
1000
0001
0100
0001
0010
,
0001
1000
0010
0100
0001
1000
0001
0100
,
0010
1000
0100
1000
0010
0100
0001
0010
,
0100
0010
0001
1000
0001
1000
0010
0100
0010
1000
0001
0010
0001
0010
0100
1000
,
0001
0100
0010
1000
0001
0100
0010
0100
0010
1000
0001
0010
0001
0100
0010
1000
,
0001
1000
0100
0010
0001
1000
0001
0100
0010
1000
0001
1000
0100
1000
0100
0010
,
0001
1000
0001
0100
0010
1000
0001
1000
0010
0100
0001
0010
0001
0100
0010
1000
,
0001
0100
0001
0000
1000
0100
1000
0000
0001
0010
0001
0000
1000
0010
1000
0000
,
0001
0010
0100
0000
1000
0010
0100
0000
0001
1000
0001
0100
0010
1000
0100
0020
,
0000
0000
0000
0000
,
0032
2003
3020
0230
,
0302
0000
0000
0000
,
0023
0230
2300
3002
,
0000
0003
0000
0000
;

//---------------dance-single - Zaia - 13(mid-high)----------------
#NOTES:
     dance-single:
     Zaia - 13(mid-high):
     Hard:
     13:
     1.000,1.000,0.109,0.270,0.962,960.000,15.000,37.000,0.000,0.000:
1000
0010
0100
0001
1000
0100
0010
0100
1000
0001
0010
0100
0010
0001
0100
0010
,
1000
0100
0010
0001
1000
0010
0100
0010
1000
0001
0100
0010
0100
0001
0010
0100
,
1000
0001
0100
0010
1000
0001
0010
0100
0010
0001
1000
0100
0010
0100
1000
0010
,
0100
0001
0010
0100
1000
0001
0100
0010
0100
0001
1000
0010
0100
0010
0100
0001
,
2000
0010
0001
3100
,
0002
0010
1000
0103
,
2000
0100
0001
3010
,
0002
0100
1000
0013
,
2000
0001
0100
3010
,
0002
1000
0010
0103
,
2000
0010
0001
3100
,
0002
0100
1000
0013
,
1000
0001
0011
0010
0100
1000
1100
0100
,
1000
0001
0101
0100
0010
1000
1010
0010
,
0100
0001
0011
0010
0100
1000
1001
0001
,
1000
0010
0100
0001
1000
0100
1000
0001
0010
0001
1000
0010
0100
0001
0010
0100
,
1000
0001
0010
0001
1000
0010
1000
0001
0100
0010
0100
0001
0100
0010
1000
0001
,
0010
0100
1000
0100
0010
0100
1000
0001
1000
0001
0100
0001
1000
0010
0100
0001
,
1000
0100
1000
0000
0001
0100
0001
0000
1000
0100
1000
0000
0001
0010
0001
0010
,
0001
0100
0001
0000
1000
0100
1000
0000
0010
0100
0001
0000
0010
0100
1000
0000
,
0001
0000
0100
0000
0001
0000
1000
0100
1000
0000
0001
0000
0100
0000
0010
1000
,
0010
0000
0100
0000
0001
0000
1000
0100
1000
0000
0001
0000
0010
0000
0100
0010
,
0100
0000
1000
0000
0001
0000
0100
0001
0100
0000
0010
0000
1000
0000
0001
0010
,
0001
0000
1000
0000
0010
0000
1000
0001
1000
0000
0100
0000
0010
0000
0001
0010
,
0001
0000
1000
0000
0010
0000
0100
0001
0100
0000
0001
0000
1000
0000
0100
0010
,
0100
0000
1000
0000
0001
0000
1000
0100
1000
0000
0001
0000
0100
0000
0001
0000
,
1000
0001
1000
0100
0000
0000
1000
0000
,
0001
0100
0000
0000
,
0001
0100
0010
0000
0001
0100
0010
0000
,
0001
0000
0000
0100
0000
0000
0010
0000
0000
1000
0000
0000
0001
0000
0000
0010
0100
1000
0001
0000
0000
0010
0000
0000
,
0100
1000
0001
0000
0100
1000
0001
0000
,
0100
0000
0000
1000
0000
0000
0001
0000
0000
0010
0000
0000
0001
0000
0000
1000
0010
0100
0001
0000
0000
1000
0000
0000
,
0010
0100
0001
0000
0010
0100
0001
0000
,
0010
0000
0000
0100
0000
0000
0001
0000
0000
1000
0000
0000
0010
0000
0000
0100
0001
1000
0100
0000
0000
0010
0000
0000
,
0001
1000
0100
0000
1100
0000
1001
0000
,
0101
0000
1010
0000
0110
0000
0001
1000
,
0020
0000
0000
0000
0000
0000
0130
0001
,
0020
0000
0000
0000
0000
0130
1000
0010
,
0200
0000
0302
2003
,
3200
0000
0000
0000
0300
0000
0010
0001
,
2000
0000
0000
0000
0000
0000
3010
1000
,
0002
0000
0000
0000
0000
0103
0010
1000
,
0002
0000
0023
0230
,
2300
0000
0000
0000
,
3001
0000
0000
0000
0000
0000
0100
0000
0000
0000
0000
0000
0001
0000
0000
1000
0000
0000
0000
0000
0000
0001
0000
0000
0100
0000
0000
0000
0000
0000
0010
0000
0000
0000
0000
0000
4000
0000
0000
0000
0000
0000
0000
0000
3000
0000
0000
0000
,
0001
0100
0010
0000
0001
0010
0100
0000
,
0001
0000
0100
0000
0010
0000
1000
0000
0100
0000
1000
0001
0010
0000
0100
0000
,
1000
0100
0010
0000
1000
0010
0100
0000
,
1000
0000
0100
0000
0010
0000
0001
0000
0100
0000
0010
1000
0001
0000
0010
0000
,
0001
0100
0010
0000
0001
0010
0100
0000
,
0001
0000
0100
0000
0010
0000
1000
0000
0001
0000
1000
0100
0010
0000
0001
0000
,
1000
0001
0100
0000
0101
0000
0110
0000
,
0100
0001
1000
0000
0010
1000
0001
0000
0100
0001
0100
0000
0001
0000
1000
0000
,
0100
0000
0010
0000
0100
1000
0100
0000
1000
0000
0001
0000
0100
0001
0100
0000
,
0010
0000
1000
0000
0001
0010
0001
0000
1000
0000
0010
0000
0100
0010
0100
0000
,
0001
0000
0010
0000
0001
1000
0001
0000
0010
0000
0100
0000
1000
0010
1000
0000
,
0001
0000
0010
0000
0001
0100
0001
0000
1000
0000
0100
0000
0010
0001
0010
0000
,
0001
0000
1000
0000
0010
0100
0010
0000
1000
0000
0001
0000
1000
0100
1000
0000
,
0001
0000
0100
0000
0010
0100
0010
0000
1000
0000
0001
0000
1000
0100
1000
0000
,
0001
0000
0010
0000
0001
1000
0001
0000
0100
0000
0010
0000
1000
0010
1000
0000
,
0002
0000
0000
0000
0000
0000
0000
0000
1003
0000
0100
0000
1000
0000
0001
0100
,
0010
1000
0002
0000
0013
0100
1000
0001
,
0100
0001
0100
0001
0100
0010
1000
0100
,
0010
0001
0200
0000
0310
0100
0001
0010
,
0100
0010
0100
0010
0100
1000
0001
0100
,
0001
0010
0200
0000
1300
0001
0100
0020
,
0000
1030
0001
0010
0100
1000
0010
0100
,
0001
0010
0200
0000
1300
0010
0100
0001
,
1000
0100
1000
0000
0001
0100
0001
0000
1000
0100
1000
0000
0010
0000
1000
0000
,
0001
0100
0020
0000
1030
0001
0010
0100
,
1000
0100
1000
0100
0010
0001
1000
0010
,
0100
0001
1000
1000
0100
0010
0001
0100
,
0100
0010
1000
0100
0010
0001
0100
0010
,
1000
0000
0000
0000
1001
0000
0000
1010
,
0000
0000
0010
0000
1000
0000
0001
0000
1000
0000
0001
0000
1000
0001
1000
0001
,
1000
0100
0010
0001
0100
0001
1000
0100
1000
0001
0010
0100
1000
0001
1000
0010
,
0100
0001
1000
0100
1000
0001
0100
0010
0100
0001
1000
0100
0010
0100
1000
0001
,
0010
0100
1000
0010
0100
0001
1000
0100
1000
0001
0100
0010
1000
0001
1000
0010
,
0100
0010
1000
0001
0010
0100
0010
0001
1000
0100
1000
0001
1000
0001
0100
0010
,
1000
0001
0100
0001
1000
0100
1000
0001
0010
0100
1000
0001
1000
0010
0100
0001
,
1000
0100
0010
0100
1000
0001
1000
0010
1000
0001
0010
0001
1000
0010
0100
0001
,
1000
0001
0010
0100
1000
0001
0100
0010
1000
0001
0010
0001
1000
0100
1000
0001
,
1000
0010
0100
0001
0010
0100
0010
0001
1000
0010
1000
0001
0010
0100
1000
0010
,
0100
0010
0100
0001
0010
0001
1000
0010
1000
0001
0100
0010
1000
0001
1000
0100
,
0010
0001
1000
0010
1000
0001
0010
0100
0010
0001
1000
0010
0100
0010
1000
0001
,
0100
0010
1000
0100
0010
0001
1000
0010
1000
0001
0010
0100
1000
0001
1000
0100
,
0010
0100
1000
0001
0100
0010
0100
0001
1000
0010
1000
0001
1000
0001
0010
0100
,
1000
0001
1000
0001
0100
0010
1000
0000
0001
1000
0001
1000
0100
0010
0100
1000
,
0001
0010
0100
1000
0010
1000
0100
0010
0001
0100
0010
1000
0100
0010
0001
1000
,
0010
0100
0001
0100
0010
1000
0010
0100
,
0001
1000
0010
1000
0100
1000
0001
0010
,
0001
1000
0100
0010
0001
0010
0100
1000
,
0001
1000
0010
1000
0001
0100
0001
0010
,
0001
1000
0010
0100
0001
1000
0001
0100
,
0010
1000
0100
1000
0010
0100
0001
0010
,
0100
0010
0001
1000
0001
1000
0010
0100
0010
1000
0001
0010
0001
0010
0100
1000
,
0001
0100
0010
1000
0001
0100
0010
0100
0010
1000
0001
0010
0001
0100
0010
1000
,
0001
1000
0100
0010
0001
1000
0001
0100
0010
1000
0001
1000
0100
1000
0100
0010
,
0001
1000
0001
0100
0010
1000
0001
1000
0010
0100
0001
0010
0001
0100
0010
1000
,
0001
0100
0001
0000
1000
0100
1000
0000
0001
0010
0001
0000
1000
0010
1000
0000
,
0001
0010
0100
0000
1000
0010
0100
0000
0001
1000
0001
0100
0010
1000
0100
0020
,
0000
0000
0000
0000
,
0032
2003
3020
0230
,
0302
0000
0000
0000
,
0023
0230
2300
3002
,
0000
0003
0000
0000
;

//---------------dance-single - Zaia - 10(low)----------------
#NOTES:
     dance-single:
     Zaia - 10(low):
     Medium:
     10:
     0.832,0.959,0.168,0.393,0.153,721.000,23.000,54.000,0.000,0.000:
1000
1100
1000
1001
,
0001
0101
0001
1001
,
1000
1010
1000
1001
,
0001
0011
0001
1001
,
2000
0010
0001
3100
,
0002
0010
1000
0103
,
2000
0100
0001
3010
,
0002
0100
1000
0013
,
2000
0001
0100
3010
,
0002
1000
0010
0103
,
2000
0010
0001
3100
,
0002
0100
1000
0013
,
1000
0001
0011
0010
0100
1000
1100
0100
,
1000
0001
0101
0100
0010
1000
1010
0010
,
0100
0001
0011
0010
0100
1000
1001
0001
,
1000
0010
0100
0010
1000
0001
0010
0100
,
0010
0001
1000
0010
0100
0001
0010
0100
,
1000
0001
1000
0010
1000
0001
0010
0001
,
1000
0100
1000
0000
0001
0100
0001
0000
1000
0100
1000
0000
0010
0000
0100
0000
,
0001
1000
0001
0000
1000
0100
1000
0000
0010
0100
0001
0000
0010
0100
1000
0000
,
0001
0000
0100
0000
0001
0000
1000
0100
1000
0000
0001
0000
0100
0000
0010
1000
,
0010
0000
0100
0000
0001
0000
1000
0100
1000
0000
0001
0000
0010
0000
0100
0010
,
0100
0000
1000
0000
0001
0000
0100
0001
0100
0000
0010
0000
1000
0000
0001
0010
,
0001
0000
1000
0000
0010
0000
1000
0001
1000
0000
0100
0000
0010
0000
0001
0010
,
0001
0000
1000
0000
0010
0000
0100
0001
0100
0000
0001
0000
1000
0000
0100
0010
,
0100
0000
1000
0000
0001
0000
1000
0100
1000
0000
0001
0000
0100
0000
0001
0000
,
1000
0001
1000
0100
0000
0000
1000
0000
,
0001
0100
0000
0000
,
0001
0100
0010
0000
0001
0100
0010
0000
,
0001
0000
0100
0000
0010
0000
1000
0000
0001
0000
0010
0100
1000
0000
0010
0000
,
0100
0001
1000
0000
0100
0001
1000
0000
,
0100
0000
0001
0000
1000
0000
0010
0000
1000
0000
0001
0010
0100
0000
1000
0000
,
0010
0100
0001
0000
0010
0100
0001
0000
,
0010
0000
0100
0000
0001
0000
1000
0000
0010
0000
0100
0001
1000
0000
0010
0000
,
1000
0001
0010
0000
0011
0000
1001
0000
,
1010
0000
0101
0000
0110
0000
1000
0001
,
0200
0000
0000
0000
0000
0000
0310
1000
,
0200
0000
0000
0000
0000
0310
0001
0100
,
0020
0000
2030
3002
,
0023
0000
0000
0000
0030
0000
0100
1000
,
0002
0000
0000
0000
0000
0000
0103
0001
,
2000
0000
0000
0000
0000
3010
0100
0001
,
2000
0000
3200
0320
,
0032
0000
0000
0000
,
1003
0000
0000
0000
0000
0000
0010
0000
0000
0000
0000
0000
1000
0000
0000
0001
0000
0000
0000
0000
0000
1000
0000
0000
0010
0000
0000
0000
0000
0000
0100
0000
0000
0000
0000
0000
0004
0000
0000
0000
0000
0000
0000
0000
0003
0000
0000
0000
,
1000
0010
0100
0000
1000
0100
0010
0000
,
1000
0000
0010
0000
0100
0000
0001
0000
0010
0000
0001
1000
0100
0000
0010
0000
,
0001
0010
0100
0000
0001
0100
0010
0000
,
0001
0000
0010
0000
0100
0000
1000
0000
0010
0000
0100
0001
1000
0000
0100
0000
,
1000
0010
0100
0000
1000
0100
0010
0000
,
1000
0000
0010
0000
0100
0000
0001
0000
1000
0000
0001
0010
0100
0000
1000
0000
,
0001
1000
0010
0000
1010
0000
0110
0000
,
0010
1000
0001
0000
0100
0001
1000
0000
0010
1000
0010
0000
1000
0000
0001
0000
,
0010
0100
0010
0100
0010
0100
1000
0010
,
0100
0001
0100
0001
0100
0010
1000
0001
,
1000
0100
1000
0100
0010
0001
0100
0001
,
1000
0010
1000
0010
1000
0010
0100
0001
,
0010
0100
0010
0100
0010
0100
1000
0010
,
0100
0001
0100
0001
0100
0010
1000
0100
,
1000
0001
1000
0001
0010
0100
0010
0001
,
2000
0000
0000
0000
0000
0000
0000
0000
3001
0000
0010
0000
0001
0000
1000
0010
,
0100
0001
2000
0000
3100
0010
0001
1000
,
0010
1000
0010
1000
0010
0100
0001
0010
,
0100
1000
0020
0000
0130
0010
1000
0100
,
0010
0100
0010
0100
0010
0001
1000
0010
,
1000
0100
0020
0000
0031
1000
0010
0200
,
0000
0301
1000
0100
0010
0001
0100
0010
,
1000
0100
0020
0000
0031
0100
0010
1000
,
0001
0010
0001
0000
1000
0010
1000
0000
0001
0010
0001
0000
0100
0000
0001
0000
,
1000
0010
0200
0000
0301
1000
0100
0010
,
0001
0010
0001
0010
0001
0010
0100
1000
,
0010
1000
0002
0000
0013
0100
1000
0010
,
0010
0100
0001
0010
0100
1000
0010
0100
,
0001
0000
0000
0000
1001
0000
0000
0101
,
0000
0000
0100
0000
0001
0000
1000
0000
0001
0000
1000
0000
0001
0100
0001
1000
,
0001
0010
0100
0010
0001
1000
0010
0100
,
0010
1000
0100
1000
0001
0010
0001
0100
,
0001
1000
0100
1000
0010
0100
0001
1000
,
0001
0010
0100
1000
0001
1000
0010
0100
,
0001
1000
0100
1000
0001
0100
0001
1000
,
0100
0010
0001
0100
0010
1000
0001
0010
,
0100
0010
0001
1000
0010
0100
0010
1000
,
0001
1000
0100
1000
0001
0100
0001
1000
,
0010
0100
0001
0010
0100
1000
0010
0100
,
0010
1000
0100
0010
0001
0100
0010
1000
,
0100
1000
0001
0100
0001
1000
0010
1000
,
0100
1000
0001
0010
0001
0100
0001
1000
,
0200
0320
0032
2003
3020
0230
0302
0023
,
0230
2300
3020
0230
0320
2030
3200
2300
,
3010
0100
0001
0100
0010
1000
0010
0100
,
0001
1000
0010
1000
0100
1000
0001
0010
,
0001
1000
0100
0010
0001
0010
0100
1000
,
0001
1000
0010
1000
0001
0100
0001
0010
,
0001
1000
0010
0100
0001
1000
0001
0100
,
0010
1000
0100
1000
0010
0100
0001
0010
,
0100
1000
0001
0100
0001
1000
0100
1000
,
0010
1000
0001
0100
0001
0010
0001
1000
,
0100
0010
0001
0100
0010
1000
0001
0010
,
0100
0010
0001
1000
0010
0100
0010
1000
,
0001
0100
0001
0000
1000
0100
1000
0000
0001
0010
0001
0000
1000
0010
1000
0000
,
0001
0010
0100
0000
1000
0010
0100
0000
0001
0000
1000
0000
0100
0000
0020
0000
,
0000
0000
0000
0000
,
0032
2003
3020
0230
,
0302
0000
0000
0000
,
0023
0230
2300
3002
,
0000
0003
0000
0000
;
