#TITLE:Earth Quake;
#SUBTITLE:;
#ARTIST:KAZE.o2SE;
#TITLETRANSLIT:;
#SUBTITLETRANSLIT:;
#ARTISTTRANSLIT:;
#CREDIT:;
#BANNER:Earth Quake.PNG;
#BACKGROUND:Earth Quake-bg.PNG;
#LYRICSPATH:;
#CDTITLE:!milkchantitle.png;
#MUSIC:Earth Quake.mp3;
#OFFSET:-16.054;
#SAMPLESTART:28.791;
#SAMPLELENGTH:12.000;
#SELECTABLE:YES;
#DISPLAYBPM:75.000:150.000;
#BPMS:0.000=150.000,244.000=75.000,276.000=150.000;
#STOPS:240.000=0.420
,241.000=0.420
,242.000=0.200
,242.500=0.200
,243.000=0.200
,243.500=0.200
;
#BGCHANGES:;
// cache tags:
#FIRSTBEAT:0.000;
#LASTBEAT:400.000;
#SONGFILENAME:Songs/mongol/Earth Quake/Earth Quake.sm;
#HASMUSIC:1;
#HASBANNER:1;
#MUSICLENGTH:194.716;
// end cache tags

//---------------dance-single - ----------------
#NOTES:
     dance-single:
     :
     Hard:
     12:
     0.979,1.000,1.000,0.632,0.935,892.000,308.000,123.000,0.000,126.000:

2000
0000
0000
0000
,
3200
0000
0320
0000
,
2030
0000
0000
0000
,
3220
0030
0002
0000
2323
0000
0000
3000
,
2130
0010
0001
0000
0000
0000
0100
0000
0001
0000
0000
0000
0100
0000
0010
0000
,
3200
1000
0001
0000
1320
0100
1000
0100
,
2130
0010
0001
0000
0000
0000
0100
0000
0001
0000
0000
0000
0100
0000
0010
0000
,
3200
1000
0001
0000
1320
0001
1000
0001
,
1130
0010
0001
0000
0000
0000
1000
0000
0001
0000
0000
0000
0100
0000
0001
0000
,
0000
1000
0001
0000
0100
0010
0100
0010
,
1100
0010
0001
0000
0000
0000
1000
0000
0001
0000
0000
0000
0100
0000
0001
0000
,
0000
1000
0001
0000
0100
0010
0100
0010
,
1010
0100
0001
0000
0110
0000
1000
0110
0000
0001
0110
0000
0011
0000
0011
0000
,
1010
0100
0001
0000
0110
0000
1000
0101
0000
0010
1100
0000
0011
0000
0011
0000
,
0101
1000
0101
0000
0011
0000
1000
0011
0000
0100
0011
0000
1101
0000
1101
0000
,
1001
0010
1001
0000
0110
0000
1000
0101
0000
0010
1100
0000
1011
0000
1011
0000
,
2011
0100
0100
0011
0100
0100
0101
0010
,
3210
1001
0010
0010
1001
1000
1001
0001
,
2310
0100
0100
0011
0010
0010
0101
0010
,
3210
1001
0010
0010
0011
1000
0011
1000
,
0321
1000
1000
0101
1000
1000
1001
0100
,
0132
0110
1000
1000
0110
1000
1010
0100
,
1023
0001
0001
1001
0100
0100
0101
0100
,
0132
0010
0100
1000
1100
0010
1100
0010
,
2103
0001
0010
0100
0010
0100
0001
0100
0010
0001
0100
0001
0010
0001
0100
0001
,
3210
1000
0001
0010
1000
0001
0010
1000
0001
0010
1000
0001
0010
1000
0010
0001
,
2310
0100
0010
0001
0100
0001
0010
0100
0010
0001
0100
0001
0010
0100
0001
0010
,
3201
0010
1000
0001
0010
1000
0001
0010
0001
1000
0010
0001
1000
0010
0001
1000
,
0321
0000
0001
0000
0001
0000
0132
0000
0213
0000
2301
0000
,
3210
0000
1000
0000
0010
0000
2301
0000
0010
3200
1000
0000
,
0321
0000
0001
0000
0001
0000
0132
0000
1203
0000
2310
0000
,
3201
0000
0010
0000
1000
0000
0312
0000
1023
0000
2130
0000
,
3201
0000
0010
0000
0001
0000
1320
0000
0132
0000
1023
0000
,
1230
0000
0001
0000
1000
0000
2310
0000
0001
3200
1000
0000
,
0310
0000
0000
1001
0000
0000
0110
0000
0011
0000
0000
0110
0000
0000
1100
0000
,
0000
0000
1100
1100
0110
0000
1100
0000
0011
0000
0000
0110
0000
0000
1100
0000
,
1002
0000
1000
0000
1000
0000
0123
0000
0231
0000
2310
0000
,
3201
0000
1000
0000
0010
0000
2301
0000
3210
0000
1320
0000
,
0132
0000
0010
0000
1000
0000
0123
0000
0231
0000
2310
0000
,
3210
0000
1000
0000
0001
0000
1302
0000
0123
0000
0231
0000
,
2310
0000
0100
0000
0001
0000
3210
0000
1320
0000
0231
0000
,
2310
0000
0100
0000
0001
0000
3210
0000
2301
0000
3210
0000
,
1320
0000
0000
0001
0000
0000
0100
0000
0001
0000
0000
0100
0000
0000
1000
0000
,
0000
0000
0100
0100
0001
0000
0100
0000
0001
0000
0000
0100
0000
0000
1000
0000
,
0131
0010
0100
1000
0001
0010
0100
1000
0001
0010
0100
1000
0001
0010
0100
1000
,
1000
0100
0010
0001
1000
0100
0010
0001
1000
0100
0010
0001
1000
0100
0010
0001
,
0001
0100
0010
1000
0001
0100
0010
1000
0001
0100
0010
1000
0001
0100
0010
1000
,
1000
0010
0100
0001
1000
0010
0100
0001
1000
0010
0100
0001
1000
0010
0100
0001
,
1000
0010
0100
0001
1100
0010
0100
0001
1000
0001
0100
0010
1001
0100
1000
0001
,
0010
0100
0010
0001
0110
1000
0001
0100
0010
1000
0010
0001
1010
0100
0001
0010
,
1000
0100
0010
0100
1001
1000
0010
0100
0001
0010
0100
1000
0101
1000
0010
0100
,
0001
0100
0010
0100
0011
1000
0001
0100
0010
0100
0001
0100
0011
0100
1000
0010
,
1100
0000
1100
0000
1100
0000
1100
0000
1100
0000
1100
0000
,
0110
0000
0110
0000
0110
0000
0110
0000
0110
0000
0110
0000
,
0011
0000
0011
0000
0011
0000
0101
0000
0011
0000
0101
0000
,
2011
0000
0011
0000
0011
0000
0101
0000
0011
0000
0110
3000
,
1100
0000
1100
0000
1100
0000
1100
0000
0110
0000
1100
0000
,
1010
0000
1010
0000
1010
0000
0110
0000
1001
0000
0110
0000
,
0110
0000
0000
0011
0000
0000
0110
0000
0011
0000
0000
0110
0000
0000
1100
0000
,
0000
0000
1100
1100
0110
0000
1100
0000
0011
0000
0000
0110
0000
0000
1100
0000
,
1001
0000
1001
0000
2000
0200
0020
3331
,
1000
0000
0001
0000
1000
0000
0001
0000
0110
0000
1000
0000
0001
0000
1000
0100
1000
0000
0010
0000
0100
0000
0001
0000
1010
0000
0100
0000
0001
0000
0010
0000
,
0001
0000
0010
0000
0100
0000
0010
0000
0011
0000
1000
0000
0100
0000
0010
0100
1000
0000
0001
0000
0100
0000
0010
0000
1100
0000
0010
0000
0100
0000
0010
0000
,
1000
0000
0001
0000
0010
0000
0100
0000
1001
0000
1000
0000
0100
0000
0010
0001
0100
0000
0010
0000
0100
0000
0001
0000
0110
0000
1000
0000
0100
0000
0010
0000
,
0002
0000
0000
0000
1003
0100
0010
0100
1000
0100
0011
0100
1000
1000
0001
0100
,
1000
0000
0010
0000
0110
0000
0001
0000
1000
0000
0100
0000
1000
0000
0001
0010
0100
0000
1000
0000
0001
0000
0010
0000
1100
0000
0010
0000
0001
0000
0010
0000
,
0001
0000
0100
0000
0010
0000
0100
0000
0011
0000
0100
0000
1000
0000
0001
0100
0010
0000
1000
0000
0010
0000
0100
0000
1010
0000
0001
0000
0010
0000
0100
0000
,
0001
0000
0010
0000
1000
0000
0010
0000
0101
0000
0010
0000
1000
0000
1000
0010
0100
0000
0010
0000
0100
0000
0010
0000
1100
0000
0001
0000
0100
0000
0010
0000
,
0001
1000
0010
0100
1010
0100
0001
0010
1000
0100
0010
1000
0101
0010
0100
1000
,
1100
0110
0011
0000
0000
0000
1100
0000
0011
0000
0000
0000
0110
0000
0011
0000
,
0000
1010
0101
0000
1100
0110
1100
0110
,
1100
0110
0011
0000
0000
0000
1100
0000
0011
0000
0000
0000
0110
0000
0011
0000
,
0000
1010
0101
0000
1100
0110
1100
0110
,
2000
0000
0000
0000
0000
0000
3200
0320
0032
0023
0230
0320
0032
0023
0230
0000
,
0000
0000
0320
0032
0023
0230
2300
3002
2003
0000
0000
0000
0000
0000
0000
0000
,
3001
0010
0100
1000
0001
0010
0100
1000
0001
0010
0100
1000
0001
0010
0100
1000
,
1000
0100
0010
0001
1000
0100
0010
0001
0002
0000
0000
0000
0000
0000
0000
0000
,
1003
0100
0010
0100
1000
0100
0010
0100
1000
0100
0010
0100
0010
0001
0010
0100
,
0001
0010
0100
1000
0011
0100
1000
0001
0110
1000
0001
0010
1100
0001
0010
0100
,
1000
0100
0010
0001
0010
0100
0010
1000
0001
0100
0010
1000
0100
0001
0010
0100
,
1002
0000
0110
0000
0000
1000
0110
0000
,
2103
0000
0100
0000
0100
0000
3210
0000
1320
0000
0231
0000
,
1320
0000
0100
0000
0001
0000
1230
0000
0321
0000
1230
0000
,
0312
0000
0100
0000
0010
0000
1023
0000
0231
0000
2310
0000
,
3201
0000
0010
0000
1000
0000
0312
0000
0123
0000
1230
0000
,
2301
0000
0010
0000
0100
0000
3210
0000
1320
0000
0231
0000
,
2310
0000
0001
0000
0010
0000
3201
0000
1000
0312
0000
0000
,
1003
0000
0000
0110
0000
0000
1100
0000
0011
0000
0000
0110
0000
0000
1100
0000
,
0000
0000
1100
1100
0110
0000
1100
0000
0011
0000
0000
0110
0000
0000
1100
0000
,
0100
0001
0010
1000
0110
0000
1000
0101
0000
0010
1100
0000
1101
0000
1001
0000
,
0010
1000
0001
0100
0011
0000
1000
0110
0000
0001
1010
0000
1011
0000
1001
0000
,
1000
0010
0100
0001
1100
0000
0010
0101
0000
1000
0110
0000
0111
0000
0110
0000
,
1000
0001
1000
0010
0110
0000
1000
1001
0000
0001
0110
0000
1110
0000
0110
0000
,
0010
0001
0010
1000
0011
0000
0010
1100
0000
0010
0101
0000
1011
0000
1100
0000
,
1000
0001
1000
0100
1010
0000
0100
0110
0000
1000
0101
0000
0111
0000
1010
0000
,
1100
0000
0000
0110
0000
0000
1100
0000
0101
0000
0000
1010
0000
0000
0110
0000
,
0000
0000
0110
0011
0110
0000
1100
0000
0101
0000
0000
1010
0000
0000
0110
0000
,
2002
0000
0000
0000
,
0000
0000
0000
0000
,
0000
0000
0000
0000
,
3003
0000
0000
0000
;
