#TITLE:When You Leave (Numa Numa);
#SUBTITLE:(Basshunter Radio Edit);
#ARTIST:Alina feat. Nightcore;
#TITLETRANSLIT:;
#SUBTITLETRANSLIT:;
#ARTISTTRANSLIT:;
#CREDIT:owenviau1;
#BANNER:../owenviau1 Simfiles 5-bn.png;
#BACKGROUND:../owenviau1 Simfiles 5-bg.png;
#LYRICSPATH:;
#CDTITLE:../ov1_title.png;
#MUSIC:Nightcore - When You Leave (Numa Numa).mp3;
#OFFSET:-0.573;
#SAMPLESTART:58.810;
#SAMPLELENGTH:29.999;
#SELECTABLE:YES;
#DISPLAYBPM:167.390;
#BPMS:0.000=167.393,3.000=167.383,4.000=167.393,6.000=167.383,7.000=167.393,9.000=167.383,10.000=167.393,12.000=167.383,13.000=167.393,15.000=167.383,16.000=167.393,18.000=167.383,19.000=167.393,20.000=167.383,21.000=167.393,23.000=167.383,24.000=167.393,26.000=167.383,27.000=167.393,29.000=167.383,30.000=167.393,32.000=167.383,33.000=167.393,36.000=167.383,37.000=167.393,39.000=167.383,40.000=167.393,42.000=167.383,43.000=167.393,45.000=167.383,46.000=167.393,48.000=167.383,49.000=167.393,52.000=167.383,53.000=167.393,55.000=167.383,56.000=167.393,58.000=167.383,59.000=167.393,61.000=167.383,62.000=167.393,63.000=167.383,64.000=167.393,66.000=167.383,67.000=167.393,69.000=167.383,70.000=167.393,71.000=167.383,72.000=167.393,74.000=167.383,75.000=167.393,77.000=167.383,78.000=167.393,79.000=167.383,80.000=167.393,82.000=167.383,83.000=167.393,85.000=167.383,86.000=167.393,87.000=167.383,88.000=167.393,90.000=167.383,91.000=167.393,93.000=167.383,94.000=167.393,95.000=167.383,96.000=167.393,98.000=167.383,99.000=167.393,101.000=167.383,102.000=167.393,103.000=167.383,104.000=167.393,106.000=167.383,107.000=167.393,109.000=167.383,110.000=167.393,111.000=167.383,112.000=167.393,114.000=167.383,115.000=167.393,117.000=167.383,118.000=167.393,119.000=167.383,120.000=167.393,123.000=167.383,124.000=167.393,127.000=167.383,128.000=167.393,131.000=167.383,132.000=167.393,135.000=167.383,136.000=167.393,139.000=167.383,140.000=167.393,143.000=167.383,144.000=167.393,147.000=167.383,148.000=167.393,151.000=167.383,152.000=167.393,155.000=167.383,156.000=167.393,159.000=167.383,160.000=167.393,163.000=167.383,164.000=167.393,167.000=167.383,168.000=167.393,171.000=167.383,172.000=167.393,175.000=167.383,176.000=167.393,179.000=167.383,180.000=167.393,183.000=167.383,184.000=167.393,187.000=167.383,188.000=167.393,191.000=167.383,192.000=167.393,195.000=167.383,196.000=167.393,199.000=167.383,200.000=167.393,203.000=167.383,204.000=167.393,207.000=167.383,208.000=167.393,211.000=167.383,212.000=167.393,215.000=167.383,216.000=167.393,219.000=167.383,220.000=167.393,223.000=167.383,224.000=167.393,227.000=167.383,228.000=167.393,231.000=167.383,232.000=167.393,235.000=167.383,236.000=167.393,239.000=167.383,240.000=167.393,242.000=167.383,243.000=167.393,244.000=167.383,245.000=167.393,246.000=167.383,247.000=167.393,248.000=167.383,249.000=167.393,250.000=167.383,251.000=167.393,252.000=167.383,253.000=167.393,254.000=167.383,255.000=167.393,256.000=167.383,257.000=167.393,258.000=167.383,259.000=167.393,260.000=167.383,261.000=167.393,262.000=167.383,263.000=167.393,264.000=167.383,265.000=167.393,266.000=167.383,267.000=167.393,268.000=167.383,269.000=167.393,270.000=167.383,271.000=167.393,272.000=167.383,273.000=167.393,274.000=167.383,275.000=167.393,276.000=167.383,277.000=167.393,278.000=167.383,279.000=167.393,280.000=167.383,281.000=167.393,282.000=167.383,283.000=167.393,284.000=167.383,285.000=167.393,286.000=167.383,287.000=167.393,288.000=167.383,289.000=167.393,290.000=167.383,291.000=167.393,292.000=167.383,293.000=167.393,294.000=167.383,295.000=167.393,296.000=167.383,297.000=167.393,298.000=167.383,299.000=167.393,300.000=167.383,301.000=167.393,302.000=167.383,303.000=167.393,304.000=167.383,305.000=167.393,306.000=167.383,307.000=167.393,308.000=167.383,309.000=167.393,310.000=167.383,311.000=167.393,312.000=167.383,313.000=167.393,314.000=167.383,315.000=167.393,316.000=167.383,317.000=167.393,318.000=167.383,319.000=167.393,320.000=167.383,321.000=167.393,322.000=167.383,323.000=167.393,324.000=167.383,325.000=167.393,326.000=167.383,327.000=167.393,328.000=167.383,329.000=167.393,330.000=167.383,331.000=167.393,332.000=167.383,333.000=167.393,334.000=167.383,335.000=167.393,336.000=167.383,337.000=167.393,338.000=167.383,339.000=167.393,340.000=167.383,341.000=167.393,342.000=167.383,343.000=167.393,344.000=167.383,345.000=167.393,346.000=167.383,347.000=167.393,348.000=167.383,349.000=167.393,350.000=167.383,351.000=167.393,352.000=167.383,353.000=167.393,354.000=167.383,355.000=167.393,356.000=167.383,357.000=167.393,358.000=167.383,359.000=167.393,360.000=167.383,361.000=167.393,362.000=167.383,363.000=167.393,364.000=167.383,365.000=167.393,366.000=167.383,367.000=167.393,368.000=167.383,369.000=167.393,370.000=167.383,371.000=167.393,372.000=167.383,373.000=167.393,374.000=167.383,375.000=167.393,376.000=167.383,377.000=167.393,378.000=167.383,379.000=167.393,380.000=167.383,381.000=167.393,382.000=167.383,383.000=167.393,384.000=167.383,385.000=167.393,386.000=167.383,387.000=167.393,388.000=167.383,389.000=167.393,390.000=167.383,391.000=167.393,392.000=167.383,393.000=167.393,394.000=167.383,395.000=167.393,396.000=167.383,397.000=167.393,398.000=167.383,399.000=167.393,400.000=167.383,401.000=167.393,402.000=167.383,403.000=167.393,404.000=167.383,405.000=167.393,406.000=167.383,407.000=167.393,408.000=167.383,409.000=167.393,410.000=167.383,411.000=167.393,412.000=167.383,413.000=167.393,414.000=167.383,415.000=167.393,416.000=167.383,417.000=167.393,418.000=167.383,419.000=167.393,420.000=167.383,421.000=167.393,422.000=167.383,423.000=167.393,424.000=167.383,425.000=167.393,426.000=167.383,427.000=167.393,428.000=167.383,429.000=167.393,430.000=167.383,431.000=167.393,432.000=167.383,433.000=167.393,434.000=167.383,435.000=167.393,436.000=167.383,437.000=167.393,438.000=167.383,439.000=167.393,440.000=167.383,441.000=167.393,442.000=167.383,443.000=167.393;
#STOPS:;
#BGCHANGES:;
// cache tags:
#FIRSTBEAT:34.000;
#LASTBEAT:442.000;
#SONGFILENAME:Songs/owenviau1 Simfiles 5/When You Leave (Numa Numa) - [owenviau1] v1.3/When You Leave (Numa Numa).sm;
#HASMUSIC:1;
#HASBANNER:1;
#MUSICLENGTH:159.821;
// end cache tags

//---------------dance-single - ----------------
#NOTES:
     dance-single:
     :
     Hard:
     9:
     0.762,0.816,0.038,0.288,0.069,800.000,6.000,46.000,0.000,2.000:
0000
0000
0000
0000
,
0000
0000
0000
0000
,
0000
0000
0000
0000
,
0000
0000
0000
0000
,
0000
0000
0000
0000
,
0000
0000
0000
0000
,
0000
0000
0000
0000
,
0000
0000
0000
0000
,
0000
0000
0000
0000
0001
0100
0010
1000
,
0001
1000
0100
1000
0001
0100
0010
1000
,
0100
0010
0001
0100
0010
1000
0100
1000
,
0001
0010
0001
0100
0010
1000
0010
0100
,
0001
0010
0100
1000
0010
0100
0001
1000
,
0001
0010
0001
0100
0010
1000
0100
0010
,
0001
0100
1000
0001
0100
0010
1000
0001
,
0010
0001
0100
0010
1000
0100
0010
0001
,
0100
0000
0010
0000
0001
1000
0001
1000
0001
0000
0100
0000
0001
0000
0100
0000
,
0001
0100
0002
0203
0301
1000
0001
1000
,
0001
1000
0002
2003
3010
0001
0010
0001
,
0010
0001
0020
0032
0013
1000
0010
1000
,
0010
2000
3020
2030
3010
0100
0010
0100
,
0010
0200
0310
0200
1300
0002
1003
0002
,
1003
0001
2000
3002
0103
0020
0130
0010
,
0100
0020
0130
0020
1030
0002
1003
0001
,
1000
0001
2000
3002
1003
0010
1000
0010
,
1000
0020
2030
3020
0031
1000
0001
1000
,
0001
1000
0002
2003
3010
1000
0010
1000
,
0010
1000
0020
2030
3010
0002
0013
0002
,
0013
0002
0013
0002
0013
0100
1000
0010
,
1000
0001
0010
0001
0100
0010
1000
0100
,
0010
0001
1000
0010
0100
0001
0010
0100
,
1000
0010
1000
0001
0010
0100
1000
0000
,
0002
0000
0000
0000
0000
0000
0013
0000
0100
0000
1000
0000
0001
0000
0000
0100
0000
0000
0010
0000
0000
1000
0000
0000
,
0001
1000
0100
1000
0010
0100
0001
0010
,
0100
1000
0010
0100
0001
1000
0001
0010
,
0001
0100
0010
1000
0100
0010
0001
1000
,
0010
0100
0001
0010
0100
1000
0010
0100
,
0001
1000
0001
0010
0001
0100
0010
1000
,
0001
1000
0100
1000
0010
0100
0001
0010
,
0100
1000
0010
0100
0001
1000
0001
0010
,
0001
1000
0010
0100
0101
0001
1000
0100
,
0010
0001
0100
0001
0010
0100
1000
0010
,
0100
0001
0010
0001
1000
0100
1000
0010
,
0100
0001
1000
0001
0010
0001
0100
0010
,
1000
0100
0010
0001
1000
0010
0100
0001
,
0010
0100
1000
0010
0100
0001
0010
0001
,
1000
0100
1000
0010
0100
0001
0010
0100
,
1000
0001
0010
0001
0100
0010
1000
0001
,
0010
0000
0100
0000
1000
0010
1000
0010
1000
0000
0000
0000
0000
0000
0000
0000
,
2000
3200
0320
0032
1103
1000
0100
0010
,
0001
0100
1000
0010
0100
0001
0010
0100
,
1000
0010
0100
0001
1000
0001
0010
0001
,
0100
0010
1000
0100
1000
0001
0100
0010
,
1000
0100
0010
0001
0100
0001
1000
0010
,
1000
0100
1000
0010
0100
0001
1000
0001
,
0010
0001
1000
0010
0100
0001
0010
0100
,
1000
0010
0100
0001
1000
0001
0010
0001
,
0100
0000
0010
0000
1000
0100
1000
0100
1000
0000
0100
0000
0010
0000
1000
0000
,
0001
1000
0100
1000
0010
0100
0001
0010
,
0001
1000
0010
0100
0001
0010
0100
1000
,
0010
0100
0001
1000
0001
0010
0001
0100
,
0010
1000
0001
1000
0100
1000
0010
0100
,
0001
0010
0001
1000
0010
0100
0001
0010
,
0100
1000
0010
1000
0001
0010
0001
0100
,
0010
1000
0001
0010
0001
0100
0010
1000
,
0001
0010
0100
1000
0000
0010
0100
0001
,
1000
0001
0100
0001
0010
0100
1000
0010
,
0100
0001
1000
0100
1000
0010
0100
0001
,
1001
0000
0002
2003
0000
3020
0030
0100
,
0000
0001
0000
0001
1000
0001
0100
0010
,
1000
0100
0010
0001
1000
0100
1000
0010
,
0100
0001
1000
0001
0010
0001
0100
0010
,
1000
0000
0001
0000
0010
0000
0100
0000
1000
0001
1000
0010
0100
0001
0010
0001
,
1000
0001
0100
0010
1000
0100
0010
0001
0100
0000
0000
0000
0010
0000
0000
0000
,
0000
1000
0001
0000
0010
0000
0100
0000
,
2000
0000
0000
0000
0000
0000
3001
0000
0100
0000
0001
0000
1000
0000
0000
0100
0000
0000
0010
0000
0000
1000
0000
0000
,
0001
1000
0100
1000
0010
0100
0001
0010
,
0100
1000
0010
0100
0001
1000
0001
0010
,
0001
0100
0010
1000
0100
0010
0001
1000
,
0010
0100
0001
0010
0100
1000
0010
0100
,
0001
1000
0001
0010
0001
0100
0010
1000
,
0001
1000
0100
1000
0010
0100
0001
0010
,
0100
1000
0010
0100
0001
1000
0001
0010
,
0001
1000
0010
0100
1001
0001
1000
0100
,
0010
0001
0100
0001
0010
0100
1000
0010
,
0100
0001
0010
0001
1000
0100
1000
0010
,
0100
0001
1000
0001
0010
0001
0100
0010
,
1000
0100
0010
0001
1000
0010
0100
0001
,
0010
0100
1000
0010
0100
0001
0010
0001
,
1000
0100
1000
0010
0100
0001
0010
0100
,
1000
0001
0010
0001
0100
0010
1000
0001
,
0010
0000
0100
0000
1000
0010
1000
0010
1000
0000
0000
0000
0000
0000
0000
0000
,
2000
3020
0230
0320
1031
1000
0100
0010
,
0001
0100
1000
0010
0100
0001
0010
0100
,
1000
0010
0100
0001
1000
0001
0010
0001
,
0100
0010
1000
0100
1000
0001
0100
0010
,
1000
0100
0010
0001
0100
0001
1000
0010
,
1000
0100
1000
0010
0100
0001
1000
0001
,
0010
0001
1000
0010
0100
0001
0010
0100
,
1000
0010
0100
0001
1000
0001
0010
0001
,
0100
0010
1000
0001
0011
1000
0100
0010
,
0001
0100
1000
0010
0100
0001
0010
0100
,
1000
0010
0100
0001
1000
0001
0010
0001
,
0100
0010
1000
0100
1000
0001
0100
0010
,
1000
0100
0010
0001
0100
0001
1000
0010
,
1000
0100
1000
0010
0100
0001
1000
0001
,
0010
0001
1000
0010
0100
0001
0010
0100
,
1000
0010
0100
0001
1000
0001
0010
0001
,
0100
0000
0010
0000
1000
0100
1000
0100
2000
0000
3000
0000
0000
0000
0000
0000
,
0000
0000
0000
0000
,
0000
0000
0000
0000
,
0000
0000
0000
0000
;

//---------------dance-single - ----------------
#NOTES:
     dance-single:
     :
     Challenge:
     12:
     1.000,1.000,1.000,0.501,0.200,839.000,328.000,80.000,16.000,24.000:
0000
0000
0000
0000
,
0000
0000
0000
0000
,
0000
0000
0000
0000
,
0000
0000
0000
0000
,
0000
0000
0000
0000
,
0000
0000
0000
0000
,
0000
0000
0000
0000
,
0000
0000
0000
0000
,
0000
0000
0000
0000
1001
0010
0101
1000
,
0110
1000
0011
1000
0101
0100
1010
0001
,
1001
1000
0110
0010
0101
1000
0011
0001
,
1100
0001
0110
0010
1001
0010
0101
1000
,
0110
0001
1100
0010
1001
0010
0101
0010
,
1100
0001
1010
0100
0011
1000
0110
0001
,
0011
1000
1100
0001
0110
1000
0011
0010
,
1100
0001
0110
0100
1001
1000
0110
0001
,
1100
0000
0000
0000
0000
0000
0010
0000
0000
0000
0000
0000
0002
0000
1000
0003
0001
0000
2000
0000
0001
3000
1000
0000
0001
0000
0000
0000
0000
0000
0100
0000
0000
0000
0000
0000
0001
0000
0000
0000
0000
0000
0100
0000
0000
0000
0000
0000
,
0001
0100
0002
0203
0301
1000
0001
1000
,
0001
1000
0002
2003
0010
3001
0010
0001
,
0010
0001
0020
0032
0010
1003
0010
1000
,
0010
2000
3020
2030
0010
3100
0010
0100
,
0010
0200
0310
0200
1300
0002
1003
0002
,
1003
0001
2000
3002
0103
0020
0130
0010
,
0100
0020
0130
0020
1030
0002
1003
0001
,
1000
0000
0000
0000
0000
0000
0000
0000
0000
0000
0000
0000
0000
0000
0000
0000
0000
0000
0000
0000
0000
0000
0000
0000
0001
0000
0000
0000
0000
0000
0000
0000
0000
0000
0000
0000
0000
0000
0000
0000
0000
0000
0000
0000
0000
0000
0000
0000
2000
0000
0000
0000
0000
0000
0000
0000
0000
0000
0000
0000
0000
0000
0000
0000
0000
0000
0000
0000
0000
0000
0000
0000
3002
0000
0000
0000
0000
0000
0000
0000
0000
0000
0000
0000
0000
0000
0000
0000
0000
0000
0000
0000
0000
0000
0000
0003
1001
0000
0000
0000
0000
0000
0000
0000
0000
0000
0000
0000
0000
0000
0000
0000
0000
0000
0000
0000
0000
0000
0000
0000
0010
0000
0000
0000
0000
0000
0000
0000
0000
0000
0000
0000
0000
0000
0000
0000
0000
0000
0000
0000
0000
0000
0000
0000
1000
0000
0000
0000
0000
0000
0000
0000
0000
0000
0000
0000
0000
0000
0000
0000
0000
0000
0000
0000
0000
0000
0000
0000
0010
0000
0000
0000
0000
0000
0000
0000
0000
0000
0000
0000
0000
0000
0000
0000
0000
0000
0000
0000
0000
0000
0000
0000
,
1000
0020
2030
3020
0001
1030
0001
1000
,
0001
0000
0000
0000
0000
0000
0000
0000
0000
0000
0000
0000
0000
0000
0000
0000
0000
0000
0000
0000
0000
0000
0000
0000
1000
0000
0000
0000
0000
0000
0000
0000
0000
0000
0000
0000
0000
0000
0000
0000
0000
0000
0000
0000
0000
0000
0000
0000
0002
0000
0000
0000
0000
0000
0000
0000
0000
0000
0000
0000
0000
0000
0000
0000
0000
0000
0000
0000
0000
0000
0000
0000
2003
0000
0000
0000
0000
0000
0000
0000
0000
0000
0000
0000
0000
0000
0000
0000
0000
0000
0000
0000
0000
0000
0000
0000
0010
0000
0000
0000
0000
0000
0000
0000
0000
0000
0000
0000
0000
0000
0000
0000
0000
0000
0000
0000
0000
0000
0000
3000
1000
0000
0000
0000
0000
0000
0000
0000
0000
0000
0000
0000
0000
0000
0000
0000
0000
0000
0000
0000
0000
0000
0000
0000
0010
0000
0000
0000
0000
0000
0000
0000
0000
0000
0000
0000
0000
0000
0000
0000
0000
0000
0000
0000
0000
0000
0000
0000
1000
0000
0000
0000
0000
0000
0000
0000
0000
0000
0000
0000
0000
0000
0000
0000
0000
0000
0000
0000
0000
0000
0000
0000
,
0010
1000
0020
2030
3010
0002
0013
0002
,
0013
0002
0013
0002
1013
0100
1001
0010
,
1100
0010
1001
0100
0110
0001
1100
0001
,
1010
0000
0000
0100
0000
0000
0011
0000
0000
1000
0000
0000
0101
0000
0000
1000
0000
0000
0110
0000
0000
0001
0010
0100
,
1000
0010
1001
0100
0011
0100
2010
3000
,
0200
0000
0000
0000
0000
0000
0320
0000
0032
0000
0203
0000
1310
0000
0000
0001
0000
0000
0110
0000
0000
1000
0000
0000
,
0101
0010
1100
0001
0110
0001
1100
1000
,
0011
1000
0110
0010
1001
0010
0101
1000
,
0110
0001
1100
0001
1010
0100
1001
0100
,
0011
1000
0101
0100
1010
0001
1001
0100
,
0011
1000
0110
0001
1100
0001
0011
1000
,
0011
0100
1001
0001
0110
1000
0011
0001
,
1100
0001
0110
0100
1001
1000
0011
1000
,
0110
1000
0011
0001
1100
0010
0011
1000
,
0110
0001
1100
0001
1010
0100
1001
0010
,
1100
0001
0110
0001
1100
1000
0011
1000
,
0110
1000
0011
0100
1010
0001
0011
0100
,
1001
0010
0110
1000
1001
0010
1100
0001
,
0110
0010
1001
0100
0011
1000
0101
0010
,
1001
0100
1100
0001
0110
1000
0101
1000
,
0011
1000
0110
0001
1100
0010
1001
1000
,
0110
0000
0000
0001
0000
0000
1000
0100
1000
0100
1000
0100
1001
0000
0000
000M
0000
0000
M000
0000
0000
0000
0000
0000
,
0002
2003
3200
0320
1031
0100
0110
0001
,
1100
0001
0011
1000
0110
1000
1001
0010
,
0101
1000
0011
1000
1100
0001
0110
0100
,
1001
0010
1100
0001
0110
0001
1100
0010
,
0101
1000
0110
1000
0101
0010
1010
0100
,
1010
0001
0101
1000
0110
0001
0110
1000
,
1001
0010
1001
0010
0101
1000
0011
1000
,
1100
0001
1010
1000
0101
0010
1100
0001
,
1010
0000
0000
0001
0100
0001
0100
0001
0100
0001
0100
0001
1010
0000
0000
0001
0000
0000
0110
0000
0000
0100
0000
0000
,
1001
0000
0000
0000
0000
0000
0000
0000
0000
0000
0000
0000
0000
0000
0000
0000
0000
0000
0000
0000
0000
0000
0000
0000
0010
0000
0000
0000
0000
0000
0000
0000
0000
0000
0000
0000
0000
0000
0000
0000
0000
0000
0000
0000
0000
0000
0000
0000
0201
0000
0000
0000
0000
0000
0000
0000
0000
0000
0000
0000
0000
0000
0000
0000
0000
0000
0000
0000
0000
0000
0000
0000
2300
0000
0000
0000
0000
0000
0000
0000
0000
0000
0000
0000
0000
0000
0000
0000
0000
0000
0000
0000
0000
0000
0000
0000
0011
0000
0000
0000
0000
0000
0000
0000
0000
0000
0000
0000
0000
0000
0000
0000
0000
0000
0000
0000
0000
0000
0000
3000
1000
0000
0000
0000
0000
0000
0000
0000
0000
0000
0000
0000
0000
0000
0000
0000
0000
0000
0000
0000
0000
0000
0000
0000
0110
0000
0000
0000
0000
0000
0000
0000
0000
0000
0000
0000
0000
0000
0000
0000
0000
0000
0000
0000
0000
0000
0000
0000
0001
0000
0000
0000
0000
0000
0000
0000
0000
0000
0000
0000
0000
0000
0000
0000
0000
0000
0000
0000
0000
0000
0000
0000
,
1100
0010
1002
0203
0011
0301
1100
0001
,
0011
2000
0110
3200
1001
0310
1100
0001
,
0011
2000
3120
0230
1001
0310
1100
0001
,
0011
2000
3110
0020
1031
0200
0311
0000
,
1100
0020
0131
2000
3110
0002
1103
0001
,
0110
2000
3101
0020
1031
2000
0110
3001
,
1100
0001
0021
2030
3110
1000
1001
0010
,
0101
2000
3021
2030
3110
0001
1001
0100
,
1100
0010
1002
0023
0131
0010
1001
0100
,
0110
0000
0002
2003
0000
3002
0003
1001
,
0000
0110
0000
1001
0011
0100
1001
1000
,
0110
0001
1100
0010
1001
0101
1001
0110
,
0101
0000
1010
0000
0110
0000
0101
0000
1000
0100
0010
0001
1000
0010
0100
0001
,
0010
0000
0000
0001
0000
0000
0100
0000
0000
0010
0000
0000
1000
0000
0000
0100
0000
0000
0010
0000
0000
0001
0000
0000
1000
0000
0100
0000
0010
0000
0001
0000
0100
0000
0001
0000
0010
0000
0100
0000
1000
0000
0010
0000
1000
0000
0100
0000
,
0010
0001
0010
0100
1000
0010
0100
0001
0100
0010
1000
0001
0100
0000
0000
0000
0000
0000
1001
0000
0000
0000
0000
0000
,
0000
1010
1001
0000
0110
0000
0101
0000
,
2000
0000
0000
0000
0000
0000
3200
0000
0320
0000
0230
0000
1301
0000
0000
0100
0000
0000
0011
0000
0000
1000
0000
0000
,
1100
0010
1001
0010
0110
1000
0011
1000
,
0110
0001
1100
0001
0110
0010
1001
0100
,
0110
1000
0011
0001
1100
0001
1010
0100
,
1001
0010
0011
1000
0110
1000
0011
0010
,
0101
0010
1100
0001
0110
1000
0101
1000
,
0011
0100
1100
0010
1001
0001
0110
1000
,
0011
0000
0000
0000
1000
0000
0000
0000
0101
0000
0000
0000
0010
0000
0000
0000
1001
0000
0000
0000
0100
0000
0000
0000
0110
0000
0000
0000
0001
1000
0001
1000
,
0001
0100
1010
0100
1001
0001
0110
1000
,
1100
0010
1001
0100
0110
0001
1100
1000
,
0011
1000
0110
0010
1001
0010
0101
1000
,
0011
0001
1100
0001
0110
1000
0011
0001
,
1100
0001
1010
0100
1001
0010
0110
1000
,
0011
0100
1100
0001
0110
0010
1001
0010
,
0101
1000
0110
0001
1100
0010
1001
0010
,
1100
0001
0110
1000
0011
0100
1001
0010
,
0110
0000
0000
0001
0000
0000
1000
0100
0010
0001
0010
0100
1001
0000
0000
0000
0000
0000
MMMM
0000
0000
0000
0000
0000
,
0200
0000
2300
3002
0113
1000
1001
0100
,
0011
1000
0101
0010
1010
0100
1001
0001
,
0110
1000
0101
1000
0110
0001
1010
0100
,
1001
0010
0110
1000
0011
0100
1100
0010
,
0011
1000
0110
0001
1001
0100
1010
0001
,
1100
0001
1010
0100
0011
1000
0101
0010
,
0011
1000
1100
0010
0110
0001
0011
0100
,
1001
0000
0000
0000
0010
0000
0000
0000
0110
0000
0000
0000
0001
0000
0000
0000
1100
0000
0000
0000
0001
0000
0000
0000
0110
0000
0000
0000
1000
0100
0010
0001
,
1000
0100
1010
0001
0101
0100
1010
1000
,
0011
0001
1100
0100
0011
0010
1001
1000
,
0110
0100
1001
0100
0011
0100
1001
0001
,
0110
0001
1100
0010
1001
0100
0110
1000
,
0011
0100
1001
0010
0110
0001
0011
1000
,
1100
0010
1001
0100
0110
1000
0011
0001
,
1100
0001
0110
0100
1001
0001
0110
1000
,
0011
0001
1100
0001
0110
0100
1001
0100
,
0001
0010
0001
0010
0001
0010
0001
1000
0001
1000
0001
1000
0202
0000
0000
0000
0000
0000
0000
0000
0000
0000
0000
0000
,
0000
0000
0000
0000
,
0303
0000
0000
0000
0000
0000
0MM0
0000
0000
0000
0000
0000
0000
0000
0000
0000
0000
0000
M00M
0000
M00M
M00M
0000
0000
0MM0
0000
0000
0000
0000
0000
0000
0000
0000
0000
0000
0000
0000
0000
0000
0000
0000
0000
0000
0000
0000
0000
0000
0000
,
0000
0000
0000
0000
;
