#TITLE:Realize;
#SUBTITLE:Sono Yokogao wo Mitsumete Shimau ~ A Profile ~ OP theme;
#ARTIST:Inoue Naomi;
#TITLETRANSLIT:;
#SUBTITLETRANSLIT:;
#ARTISTTRANSLIT:;
#CREDIT:ALICE_;
#BANNER:Realize.png;
#BACKGROUND:Realize.jpg;
#LYRICSPATH:;
#CDTITLE:;
#MUSIC:Realize.mp3;
#OFFSET:1.620;
#SAMPLESTART:14.880;
#SAMPLELENGTH:20.440;
#SELECTABLE:YES;
#BPMS:0.000=134.000;
#STOPS:;
#BGCHANGES:3.625=Realize.avi=1.000=1=0=1,
99999=-nosongbg-=1.000=0=0=0 // don't automatically add -songbackground-
;
// cache tags:
#FIRSTBEAT:5.000;
#LASTBEAT:276.750;
#SONGFILENAME:Songs/alice 4th complete step/Realize/Realize.sm;
#HASMUSIC:1;
#HASBANNER:1;
#MUSICLENGTH:123.620;
// end cache tags

//---------------dance-single - ----------------
#NOTES:
     dance-single:
     :
     Hard:
     7:
     0.503,0.474,0.154,0.097,0.000,404.000,19.000,12.000,0.000,0.000:
0000
0000
0000
0000
,
0000
0000
0001
0000
0100
0000
1000
0001
,
0000
0000
0000
0000
0000
0000
0001
0100
,
0000
0000
0000
0000
0000
1000
0100
0010
,
0200
0000
0000
0000
0000
0300
0000
0000
,
0000
0000
1000
0000
0100
0000
0001
1000
,
0010
0000
0010
0000
,
1000
0000
1000
0000
,
0001
1000
0001
1000
,
0001
0000
0100
0000
1001
0000
0001
1000
,
0100
0010
0100
0010
0100
1000
0010
1000
,
0001
0100
0001
0100
0001
0010
0001
0100
,
0010
1000
0001
1000
0100
1000
0010
1000
,
0001
0100
1000
0100
0010
0100
0001
1000
,
0010
0100
0010
0100
0001
0010
0001
0100
,
0010
1000
0010
1000
0100
1000
0001
0100
,
0001
0010
1000
0010
0100
0010
0001
1000
,
0001
0100
0001
0100
0010
1000
0001
0100
,
0020
2030
3002
2003
,
3100
0010
0100
1000
,
0100
0010
0001
0100
,
0010
1000
0001
0100
,
0010
0001
1000
0100
,
1000
1100
1000
1001
,
0001
0101
0001
1001
,
0010
1000
0001
0100
,
0010
0000
1000
0100
1000
0000
0001
0100
,
0010
0100
0010
1000
,
0001
1000
0010
0100
,
0100
0001
1000
0010
,
0100
1000
0001
0010
,
0001
0101
0001
1001
,
1000
1100
1000
1001
,
0100
0001
1000
0010
,
0100
0000
0001
0000
0010
0100
1000
0010
,
0100
0000
1001
0000
0010
1000
0001
0010
,
0100
1000
0001
0100
0010
1000
0001
0000
,
0010
0001
0100
0000
0010
1000
0100
0000
,
1000
0001
0010
0001
0100
0010
0100
0001
,
1000
0000
1001
0000
0010
0001
1000
0010
,
0100
0001
1000
0100
1000
0001
0010
0100
,
1000
0000
0001
1000
0001
0000
0010
0000
,
0100
1000
0001
0000
0100
0000
0010
0000
,
1000
0001
0100
0001
1000
0100
0001
0100
,
2000
0000
3002
0000
0203
0000
0000
0300
,
0001
1000
0001
1000
0010
0100
0010
0100
,
0001
1000
0001
1000
0100
0010
0100
0010
,
0001
1000
0100
1000
0001
0100
0010
0100
,
0001
1000
0100
0010
0001
0010
0100
1000
,
0010
0100
0010
0100
0001
1000
0001
1000
,
0100
0010
0100
0010
0001
1000
0001
1000
,
0100
0010
0100
0001
0100
0010
0100
1000
,
0001
0100
0001
1000
0010
0100
0001
0010
,
0100
1000
0100
1000
0001
0100
0001
0100
,
0010
1000
0010
1000
0001
0010
0001
0010
,
0100
1000
0001
0100
1000
0100
0001
0010
,
1000
0010
0100
0010
0001
1000
0010
0100
,
0020
0000
0130
1000
0100
0001
0010
0100
,
0020
0000
0000
0000
0000
0030
0100
0000
,
1001
0001
0100
0001
1000
0100
0010
0100
,
1000
0000
0101
0000
1100
0000
0011
0001
,
1000
0010
0100
0001
1000
0010
0100
0001
,
1000
0100
0010
0001
1000
0100
0010
0001
,
1000
0100
1000
0010
0100
0001
1000
0010
,
0100
0000
1001
0000
0101
0000
1010
1000
,
0001
0010
0100
1000
0001
0010
0100
1000
,
0001
0100
0010
1000
0001
0100
0010
1000
,
0001
0100
0001
1000
0100
0001
0100
1000
,
0010
0100
0001
0010
0100
1000
0001
0202
,
0303
0000
0000
0000
;

//---------------dance-single - ----------------
#NOTES:
     dance-single:
     :
     Medium:
     5:
     0.425,0.447,0.235,0.040,0.000,334.000,29.000,5.000,0.000,0.000:
0000
0000
0000
0000
,
0000
0000
1000
0000
0001
0000
0100
0010
,
0000
0000
0000
0000
0000
0000
1000
0100
,
0000
0000
0000
0000
0000
0000
0010
0001
,
0200
0000
0000
0000
0000
0300
0000
0000
,
0000
0000
0001
0000
1000
0000
0010
0100
,
0001
0000
0001
0000
,
1000
0000
1000
0000
,
0010
0100
0001
1000
,
0100
0000
0001
0000
0010
0000
0001
1000
,
0100
0000
0100
0000
0100
0000
1000
0010
,
0100
0000
0100
0000
0100
0001
0010
0001
,
1000
0010
0100
0001
,
1000
0000
0010
0000
0100
0000
0001
1000
,
0100
0000
0100
0000
1000
0000
0010
0100
,
0001
0000
0001
0000
0100
0010
1000
0001
,
0100
0001
1000
0100
,
0010
1001
0010
0101
,
0010
0100
1000
0001
0020
0000
0000
0000
,
0130
1000
0100
0010
,
0001
1000
0010
0100
,
0001
1000
0001
0100
,
0010
1000
0001
1100
,
1000
0010
0100
0000
0010
1000
0100
0000
,
0010
0001
0100
0000
0001
0010
0100
0000
,
1000
0001
0100
0010
,
0001
0000
0100
0000
1000
0010
0001
0100
,
0010
0100
0010
1000
,
0001
1000
0010
0100
,
0100
0001
1000
0010
,
0001
1000
0001
0100
,
0010
0100
0001
0000
0001
0010
0100
0000
,
1000
0010
0100
0000
0010
1000
0100
0000
,
1000
0001
0100
0010
,
0100
0001
0100
0001
1000
0100
1000
0010
,
0100
1001
0010
0101
,
0100
1001
0010
1100
,
0010
0001
0100
0000
0010
1000
0100
0000
,
1000
0001
0010
0000
0001
1000
0100
1000
,
0010
1001
0010
0101
,
0010
1001
0100
1100
,
1000
0000
0001
0100
0001
0000
0010
0000
,
0100
1000
0010
0000
0100
0000
0010
0000
,
1000
0001
0100
0001
1000
0100
0001
0100
,
1000
0001
0110
0000
,
0001
1000
0001
1000
0010
0100
0010
0000
,
1000
0001
1000
0001
0100
0010
0100
0000
,
0001
1100
1000
0101
,
0010
0000
1000
0100
0001
0000
1100
0000
,
0010
0100
0010
0100
0001
1000
0100
0000
,
0100
0010
0100
0010
0001
1000
0010
0000
,
0100
0001
1000
0001
0100
0001
1000
0001
,
0010
0110
1100
1001
,
1000
0010
0100
0001
0010
0001
0100
0000
,
0001
0010
0100
1000
0010
1000
0100
0000
,
0100
1000
0001
0000
1000
0100
0001
0000
,
0001
0100
1000
0010
0100
0001
1000
0010
,
0100
0100
0100
1001
,
0220
0000
0000
0000
0300
0030
0100
0000
,
0010
0000
1001
0100
1000
0100
0010
0100
,
1000
0000
0101
0000
1100
0000
0010
0001
,
0100
0000
0100
0000
1000
0000
0100
0001
,
1000
0000
0010
0000
0010
1000
0100
0010
,
0001
0001
1000
1000
,
0010
0000
1001
0000
0101
0000
1010
1000
,
0001
0000
0100
0000
0010
0000
1000
0100
,
1000
0000
0010
0000
0100
0001
0010
0100
,
0010
1100
0001
0011
,
0100
0000
1010
0000
0100
0001
1000
0020
,
0030
0000
0000
0000
;

//---------------dance-single - ----------------
#NOTES:
     dance-single:
     :
     Easy:
     2:
     0.280,0.279,0.032,0.032,0.000,234.000,4.000,4.000,0.000,0.000:
0000
0000
0000
0000
,
0000
0000
0000
0000
,
1000
0000
0000
0000
,
1000
0000
0000
0000
,
0010
0000
0000
0000
,
0000
0000
0000
0000
,
0001
0000
0001
0000
,
1000
0000
0100
0000
,
0010
1000
0001
0100
,
0001
1000
1001
0000
,
0100
0010
1000
0010
,
1000
0001
0100
0100
,
0001
0010
0001
1000
,
0010
0100
0001
0001
,
1000
0001
0100
0010
,
1000
0100
0001
0001
,
0100
1000
0010
1000
,
0001
0100
0010
0010
,
2000
0000
0000
3000
,
0001
0100
0001
1000
,
0001
0100
0001
1000
,
0001
0010
1000
0100
,
0001
0100
1000
0010
,
0001
0100
1000
0100
,
0001
1000
1000
0010
,
0100
0001
1000
0001
,
0100
0010
1000
0001
,
1000
0100
1000
0010
,
1000
0100
1000
0010
,
1000
0100
0001
0010
,
0001
0100
1000
0010
,
1000
0100
0001
0100
,
1000
0010
0010
0100
,
0001
0001
1000
1000
,
0010
0100
0010
0100
,
2002
0000
3003
0100
,
0000
0001
0000
0000
1000
0000
0100
0000
,
1000
0000
0000
0010
0000
0000
1000
0000
,
0000
0001
0000
0000
0100
0000
0100
0000
,
1001
0010
0001
0010
,
1000
0010
0001
1000
,
0010
0100
0000
0100
,
0000
1000
0000
0100
,
0001
0010
0001
0010
,
1000
0001
0100
0000
,
1000
0100
1000
0001
,
0100
0010
1000
0001
,
0100
0001
0100
1000
,
0010
0001
1000
0010
,
0100
0001
1000
0001
,
0010
1000
0001
1000
,
0100
1000
0010
0001
,
0100
0001
1000
0001
,
1000
0100
0010
0001
,
0100
1000
0010
0001
,
0100
0010
1000
0001
,
1000
0100
0001
0100
,
1000
0010
0001
0010
,
0100
0000
0000
0000
,
1000
0001
0001
0001
,
1000
0010
0100
0010
,
1001
0100
1000
0100
,
0001
0100
0001
0100
,
1000
0010
0001
0100
,
0001
0010
1000
0100
,
0001
0010
0001
0010
,
1000
0010
1000
0010
,
0100
0001
1000
0001
,
0100
0000
0010
0000
2000
0000
0000
3000
;

//---------------dance-single - Copied from----------------
#NOTES:
     dance-single:
     Copied from:
     Challenge:
     13:
     1.000,1.000,1.000,0.518,1.000,783.000,134.000,64.000,0.000,9.000:
0000
0000
0000
0000
,
0000
0000
0000
0000
0002
0003
0000
0000
0020
0030
0000
0000
2000
3000
0200
0300
,
1001
0000
0000
0000
0000
0000
0000
0000
0000
0000
0000
0000
0020
0030
0200
0300
,
0000
0000
0000
0000
0000
0000
0000
0000
0000
0000
2000
3000
0200
0300
0020
0030
,
0000
0000
0000
0000
,
0000
0000
0000
0000
0022
0033
0000
0000
0202
0303
0000
0000
2020
3030
0200
0300
,
1001
0000
1001
0000
,
0110
0000
0110
0000
,
1001
1001
0110
1001
,
2010
0000
0000
0000
0001
0000
0000
3000
0110
0000
1000
0000
0001
0000
0010
0000
,
1001
0100
0010
0000
0101
0000
1000
0010
0000
0100
0010
0000
1000
0001
0100
0000
,
1001
0010
0100
0000
1010
0000
0001
0100
0000
0001
0010
0000
0100
0001
1000
0000
,
0201
0000
0320
0000
1030
0001
0100
0010
2000
0000
3002
0000
0103
0010
1000
0001
,
2100
3010
0002
0103
2000
3010
0100
0001
,
1001
0010
0100
0000
0011
0000
0100
0001
0000
1000
0010
0000
0011
0000
0100
0000
,
1001
0100
0010
0000
1100
0000
0010
1000
0000
0001
0100
0000
1010
0000
0001
0000
,
2001
0000
3020
0000
0130
0001
1000
0010
0200
0000
0302
0000
1003
0010
0100
0001
,
1000
0000
0011
0000
1000
0001
0100
0010
1000
0001
0001
0100
1000
0001
0100
0010
,
1000
0100
0010
0001
1000
0100
0010
0001
0100
0010
0100
0010
0100
0010
0100
0010
,
1000
0001
0100
0001
1000
0010
0100
0001
1000
0010
0100
0010
1000
0001
0100
0010
,
1000
0100
1000
0001
0100
0010
1000
0100
0001
0010
0001
1000
0010
0100
0001
1000
,
0010
0100
0001
0010
0100
1000
0001
0100
0010
1000
0100
0010
1000
0001
0100
0010
,
1000
0100
1000
0001
0100
0010
0100
0001
1000
0100
0010
0100
0001
1000
0100
0010
,
1000
0100
1000
0100
1001
0100
1000
0100
0001
0010
0001
0010
1001
0010
0001
0010
,
0100
1000
0100
1000
0101
1000
0100
1000
0010
0001
0010
0001
1010
0001
0010
0001
,
0100
0010
1000
0010
0101
0010
1000
0001
0100
1000
0010
1000
0101
1000
0010
0100
,
0001
0010
0001
0100
1010
0100
0001
0010
1000
0001
0100
0010
1000
0001
0100
0010
,
0100
1000
0001
0010
0001
0001
0100
0010
1000
0001
0100
0001
1000
1000
0010
0100
,
0001
1000
0010
0001
0100
0100
0010
1000
0100
0001
0010
1000
0010
0010
0100
0001
,
0010
1000
0100
1000
0010
0010
0100
0001
1000
0010
0001
0010
0100
0100
0001
0010
,
1000
0001
0100
0001
1000
1000
0010
0100
0001
1000
0100
1000
0010
0010
0100
0001
,
1010
0100
1000
0100
1001
0100
1000
0100
0001
0010
0001
0010
1001
0010
0001
0010
,
0100
1000
0100
1000
0101
1000
0100
1000
0010
0001
0010
0001
1010
0001
0010
0001
,
0100
1000
0010
0100
0011
0001
1000
0100
0010
0001
0100
0010
1100
1000
0001
0010
,
1000
0001
1100
0010
1000
0001
1100
0010
1000
0100
0010
0001
1000
0001
1000
0001
,
0120
0001
1030
0210
1000
0301
0012
1000
,
0103
2010
0001
3100
0021
0130
2010
3100
,
2001
3010
0101
1020
0130
0001
2010
3100
,
0011
0102
0010
1003
0110
0010
0101
0010
,
2011
0100
3001
0210
1000
0301
0012
1000
,
0103
0010
1001
0010
1100
0001
0011
1000
,
2001
0100
3010
0201
1000
0310
0021
0130
,
1000
0201
1000
0310
1002
0103
0021
0130
,
1000
0001
1010
0001
0100
0010
1001
0010
,
2000
3200
0320
0032
2003
0000
0000
3000
,
0001
0100
0010
1000
0011
1000
0010
0100
1000
0001
0100
0010
1100
0010
1000
0001
,
0010
0100
0001
1000
0011
1000
0010
0100
1000
0001
0100
0010
1100
0010
1000
0001
,
0100
0010
1000
0010
0101
0010
1000
0100
0001
1000
0100
1000
0011
1000
0010
0100
,
0001
1000
0010
1000
0011
0100
0010
1000
0001
0010
0001
0010
1100
0010
0001
0010
,
1000
0001
1000
0001
1100
0010
1000
0001
0100
0010
0100
0010
1100
0001
0100
0010
,
1000
0001
1000
0001
1100
0010
1000
0001
0010
0100
0010
0100
0011
1000
0010
0100
,
0001
1000
0010
1000
0101
1000
0010
0100
1000
0010
0100
0001
1100
0010
1000
0100
,
0001
1000
0011
0010
0100
1000
0011
0001
0100
0010
1000
0001
0100
0010
0100
0010
,
1000
0001
0010
0001
1100
1000
0010
0100
0001
1000
0100
1000
0011
0001
0100
0010
,
1000
0001
0100
0001
1010
0100
0001
1000
0010
0100
0001
0100
0011
1000
0010
0100
,
0001
1000
0100
0010
0101
1000
0010
0100
0001
1000
0010
0100
1010
0100
0001
0010
,
0101
1000
0100
1000
0011
0100
0010
0100
1001
0010
0001
0010
1001
0100
1000
0100
,
0011
0001
0100
0010
1000
0100
0010
0001
1100
1000
0010
0100
0001
0010
0100
1000
,
0020
0000
0000
0000
0000
0000
0000
0000
0000
0000
0000
0000
0000
0000
0000
0030
,
0101
1000
0100
1000
0021
0000
0130
1000
0100
1000
0011
1000
0010
0100
1001
0010
,
2100
0000
0011
3000
0110
1000
0001
0000
0011
0100
0010
1000
0001
0100
0010
1000
,
0002
0000
0100
0000
1010
0000
0100
0013
0000
0000
1000
0000
0101
0000
1000
0000
,
0120
0000
0001
0000
1100
0000
0001
0130
0000
0000
1010
0000
0101
0000
0011
0000
,
2100
0000
0010
0000
0101
0000
0010
3100
0000
0000
0001
0000
1100
0000
0001
0000
,
2010
0100
0011
3010
0102
1000
1100
0013
,
0201
0000
1000
0000
0011
0000
1000
0001
0000
1000
0301
0000
0011
0000
0100
0000
,
1020
0000
0001
0000
1100
0000
0001
1030
0000
0001
1100
0000
1010
0000
0101
0000
,
1001
0100
0010
0001
0100
1000
0010
0001
1000
0100
0010
0001
0100
1000
0010
0001
,
0100
0010
1000
0010
0100
0001
0010
0001
0100
0010
1000
0001
0110
0000
0110
2002
,
0000
0000
0000
3003
0000
0000
0000
0000
0000
0000
0000
0000
0000
0000
0000
0000
;
