#TITLE:G.M.C.;
#SUBTITLE:;
#ARTIST:DJ Sharpnel;
#TITLETRANSLIT:;
#SUBTITLETRANSLIT:;
#ARTISTTRANSLIT:;
#CREDIT:;
#BANNER:gmc bn.png;
#BACKGROUND:gmc bg.png;
#LYRICSPATH:;
#CDTITLE:;
#MUSIC:gmc.ogg;
#OFFSET:0.010;
#SAMPLESTART:104.999;
#SAMPLELENGTH:16.551;
#SELECTABLE:YES;
#DISPLAYBPM:232.000;
#BPMS:0.000=232.000;
#STOPS:;
#BGCHANGES:;
// cache tags:
#FIRSTBEAT:0.000;
#LASTBEAT:840.000;
#SONGFILENAME:Songs/SHARPNELSTREAMZ v2/gmc/gmc.sm;
#HASMUSIC:1;
#HASBANNER:1;
#MUSICLENGTH:222.155;
// end cache tags

//---------------dance-single - 18+ (Aoreo)----------------
#NOTES:
     dance-single:
     18+ (Aoreo):
     Challenge:
     18:
     1.000,1.000,0.189,0.500,1.000,2441.000,42.000,111.000,0.000,0.000:
1000
0100
1000
0010
0100
0001
0010
0100
,
1000
0010
1000
0001
0010
0100
1000
0010
,
0100
0001
0010
0001
1000
0100
0010
0001
,
0100
0000
0001
1000
0001
0000
0010
0000
0100
0000
1000
0010
0100
0000
0010
1000
,
0001
0100
0001
0010
0100
1000
0010
0100
,
0001
0010
0001
0100
0010
1000
0100
1000
,
2002
3003
0000
0000
0202
0303
0000
0000
0220
0330
0000
0000
2020
3030
0000
0000
,
1000
0100
0010
0100
1000
1000
0001
0000
,
1000
0100
0010
0100
1000
0010
0100
0010
,
1000
0001
0010
0100
0010
0001
0100
0010
,
1000
0100
1000
0010
0100
0001
0010
0100
,
1000
0000
0001
1000
0001
0000
0010
0000
0100
0000
1000
0001
0010
0000
0100
1000
,
0001
0010
0100
0010
0001
0100
0010
0100
,
0001
1000
0100
0010
0100
1000
0001
0100
,
0202
0303
0000
0000
2020
3030
0000
0000
2002
3003
0000
0000
0202
0303
0000
0000
,
0100
0001
0010
0100
1000
1000
0001
0000
,
1000
0100
1000
0010
0100
0001
0010
0100
,
1000
0010
1000
0001
0010
0100
1000
0010
,
0100
0001
0010
0001
1000
0100
0010
0001
,
0100
0000
0001
1000
0001
0000
0010
0000
0100
0000
1000
0010
0100
0000
0010
1000
,
0001
0100
0001
0010
0100
1000
0010
0100
,
0001
0010
0001
0100
0010
1000
0100
1000
,
2002
3003
0000
0000
0202
0303
0000
0000
0220
0330
0000
0000
2020
3030
0000
0000
,
1000
0100
0010
0100
1000
1000
0001
0000
,
1000
0100
0010
0100
1000
0010
0100
0010
,
1000
0001
0010
0100
0010
0001
0100
0010
,
1000
0100
1000
0010
0100
0001
0010
0100
,
1000
0000
0001
1000
0001
0000
0010
0000
0100
0000
1000
0010
0100
0000
0001
0010
,
0100
1000
0010
0100
0010
1000
0100
0010
,
0001
1000
0010
0100
0010
1000
0001
0100
,
0202
0303
0000
0000
2020
3030
0000
0000
2002
3003
0000
0000
0202
0303
0000
0000
,
0100
0001
0010
0100
1000
0001
0200
0300
,
0001
0100
0001
1000
0001
0100
0010
0100
0001
1000
0100
0010
0001
1000
0100
1000
,
0001
0100
0010
0100
0001
1000
0010
0100
0010
1000
0001
0100
0001
1000
0100
0010
,
0100
1000
0001
0010
0100
0010
0001
1000
0001
0100
0010
0100
0001
1000
0001
0100
,
0001
1000
0100
1000
0010
0100
0001
1000
0100
0010
0001
0100
0010
1000
0001
1000
,
0001
0100
0010
0100
0001
1000
0001
0100
0010
1000
0100
0010
0001
1000
0100
1000
,
0001
0100
0010
0100
0001
1000
0010
0100
0001
1000
0100
0010
0001
1000
0010
0100
,
0001
1000
0001
0100
0010
0100
0001
1000
0100
0010
0001
1000
0001
0010
0100
1000
,
0001
0100
0001
0010
0100
1000
0001
1000
0010
0100
0010
1000
0100
0010
0001
1000
,
0001
0100
0010
0100
0001
1000
0100
0010
0100
1000
0001
0100
0010
0100
0001
1000
,
0001
0010
0100
0010
0001
0100
0010
1000
0010
0100
0001
1000
0001
1000
0010
0100
,
0001
1000
0100
0010
0001
1000
0100
1000
0001
1000
0010
0100
0010
1000
0001
0100
,
0010
1000
0001
0100
0001
0010
0100
1000
0001
0010
0001
0100
0010
1000
0100
0010
,
0001
1000
0001
0100
0010
0100
0001
1000
0001
0010
0100
0010
0001
1000
0100
0010
,
0001
1000
0010
0100
0010
1000
0001
0100
0001
1000
0100
0010
0100
1000
0001
0100
,
0010
1000
0001
0100
0010
1000
0001
0100
0001
1000
0100
0010
0100
1000
0001
1000
,
0001
0100
0010
1000
0001
0100
0010
0100
0001
1000
0100
0010
0001
1000
0100
1000
,
0001
0100
0010
0100
0001
1000
0001
0100
0010
1000
0001
0010
0100
1000
0001
0010
,
0001
1000
0010
0100
0010
1000
0001
0100
0010
1000
0001
0010
0100
1000
0001
0010
,
0001
1000
0010
0100
0001
1000
0100
1000
0001
0100
0010
0100
0001
1000
0100
0010
,
0001
1000
0001
0100
0010
1000
0001
0010
0100
1000
0001
0010
0001
1000
0100
1000
,
0002
0000
0000
0023
0000
0000
0230
0000
,
2300
0000
0000
3000
2002
3003
0000
0000
2002
3003
0000
0000
0000
0000
0000
0000
,
0001
0010
0001
0100
0010
1000
0100
0010
,
0001
0100
0001
1000
0100
0010
0001
0100
,
0010
1000
0100
1000
0001
0010
0100
1000
,
0010
0000
1000
0001
1000
0000
0100
0000
0010
0000
0001
0100
0010
0000
0100
0001
,
1000
0010
1000
0100
0010
0001
0100
0010
,
1000
0100
1000
0010
0100
0001
0010
0001
,
2002
3003
0000
0000
2020
3030
0000
0000
0220
0330
0000
0000
0202
0303
0000
0000
,
0001
0010
0100
0010
0001
0001
1000
0000
,
0001
0010
0100
0010
0001
0100
0010
0100
,
0001
1000
0100
0010
0100
1000
0010
0100
,
0001
0010
0001
0100
0010
1000
0100
0010
,
0001
0000
1000
0001
1000
0000
0100
0000
0010
0000
0001
1000
0100
0000
0010
0001
,
1000
0100
0010
0100
1000
0010
0100
0010
,
1000
0001
0010
0100
0010
0001
1000
0010
,
2020
3030
0000
0000
0202
0303
0000
0000
2002
3003
0000
0000
2200
3300
0000
0000
,
2000
3000
0000
0000
0000
0000
0000
0000
0000
0000
0000
0000
0000
0000
0000
0000
,
0100
1000
0010
0100
0001
0010
0100
1000
,
0001
0100
0010
0100
0001
1000
0100
0010
,
0001
1000
0100
0010
0100
1000
0010
0100
,
0001
0000
1000
0100
1000
0000
0001
0000
0100
0000
0010
1000
0001
0000
0010
0100
,
1000
0001
0100
0010
0100
0001
1000
0100
,
0010
0001
1000
0010
0100
0001
1000
0100
,
2200
3300
0000
0000
2002
3003
0000
0000
0202
0303
0000
0000
0220
0330
0000
0000
,
0100
0000
0001
0000
0010
0010
0100
0000
,
1000
0100
1000
0010
0100
0001
0010
0100
,
1000
0001
0100
0010
0100
0001
1000
0010
,
0100
0000
0001
1000
0001
0000
1000
0000
0100
0000
0010
0100
1000
0000
0001
0100
,
0010
0100
0001
1000
0100
1000
0001
0100
,
0010
0100
0001
1000
0100
0010
0001
0100
,
0010
0100
0001
1000
0001
0010
0100
1000
,
0002
0003
0000
0000
0020
0030
0000
0000
0200
0300
0000
0000
2000
3000
0000
0000
,
0001
0000
1000
0100
0010
0100
1000
0000
,
0001
0100
0010
0100
0001
1000
0100
0010
,
0001
1000
0100
1000
0010
0100
0001
1000
,
0001
0010
0100
1000
0001
0100
0010
0100
,
0001
0000
1000
0100
1000
0000
0001
0000
0100
0000
0010
1000
0100
0000
0010
0001
,
1000
0010
0100
0010
1000
0001
0010
0100
,
1000
0001
0100
0010
1000
0100
0010
0001
,
2002
3003
0000
0000
2020
3030
0000
0000
0220
0330
0000
0000
0202
0303
0000
0000
,
0001
0001
0010
0100
1000
0001
2000
3000
,
0010
0100
0010
1000
0100
0010
0100
1000
,
0001
0100
0010
0100
0001
0010
0100
1000
,
0001
0100
0001
0010
0100
0010
0001
1000
,
0010
0000
1000
0001
1000
0000
0001
0000
0010
0000
0100
1000
0001
0000
0100
0010
,
1000
0001
0100
0001
0010
0100
1000
0001
,
0100
0010
0100
0001
1000
0100
0010
0001
,
2002
3003
0000
0000
2020
3030
0000
0000
0202
0303
0000
0000
0220
0330
0000
0000
,
0020
0000
0000
0000
0000
0000
0000
0000
0030
0000
0000
0000
0000
0000
0000
0000
0000
0000
0000
0000
0000
0000
0000
0000
0000
0000
0000
0000
0000
0000
0000
0000
0000
0000
0000
0000
0000
0000
0000
0000
0000
0000
0000
0000
0000
0000
0000
0000
2000
0000
0000
0000
0000
0000
3000
0000
0000
0000
0000
0000
0000
0000
0000
0000
0000
0000
0000
0000
0000
0000
0000
0000
0000
0000
0000
0000
0000
0000
0000
0000
0000
0000
0000
0000
0000
0000
0000
0000
0000
0000
0000
0000
0000
0000
0000
0000
0002
0000
0000
0003
0000
0000
0000
0000
0000
0000
0000
0000
0000
0000
0000
0000
0000
0000
0000
0000
0000
0000
0000
0000
0000
0000
0000
0000
0000
0000
0000
0000
0000
0000
0000
0000
0000
0000
0000
0000
0000
0000
0000
0000
0000
0000
0000
0000
0000
0000
0000
0000
0000
0000
0000
0000
0000
0000
0000
0000
0000
0000
0000
0000
0000
0000
0000
0000
0000
0000
0000
0000
0000
0000
0000
0000
0000
0000
0000
0000
0000
0000
0000
0000
0000
0000
0000
0000
0000
0000
0000
0000
0000
0000
0000
0000
,
1000
0001
0100
0010
0100
0001
1000
0100
0010
0100
1000
0001
0010
0001
1000
0001
,
0100
0010
1000
0001
0010
0100
0010
0001
1000
0001
0100
0010
0100
0001
1000
0001
,
0100
0010
1000
0001
1000
0100
0010
0100
1000
0001
0010
0001
1000
0100
0010
0001
,
1000
0010
0100
0001
0010
0100
1000
0001
0100
0010
1000
0100
0010
0001
1000
0001
,
0100
0010
1000
0001
0100
0010
0100
0001
1000
0100
0010
0100
1000
0001
0010
0100
,
1000
0001
0100
0010
0100
0001
1000
0001
1000
0100
0010
0001
1000
0100
1000
0001
,
0100
0010
1000
0010
0100
0001
1000
0001
0010
0100
1000
0001
1000
0010
0100
0010
,
1000
0001
0010
0100
1000
0010
0100
0010
1000
0001
0010
0001
0100
0010
0100
0001
,
1000
0100
0010
0001
1000
0100
1000
0001
0100
0010
0100
0001
1000
0001
0010
0100
,
1000
0001
1000
0010
0100
0010
1000
0001
0100
0001
1000
0100
0010
0001
1000
0100
,
1000
0001
0100
0010
0100
0001
1000
0001
0010
0100
1000
0001
1000
0010
0100
0001
,
1000
0001
0010
0100
1000
0010
0100
0001
1000
0100
0010
0001
0100
0001
1000
0100
,
1000
0001
0100
0010
0100
0001
1000
0010
1000
0001
0010
0100
0010
0001
1000
0100
,
1000
0001
0100
0010
0100
0001
1000
0010
1000
0001
0010
0100
1000
0001
0100
0001
,
1000
0010
0100
0010
1000
0001
0100
0010
1000
0001
0010
0001
1000
0100
0010
0001
,
1000
0100
1000
0010
0100
0001
1000
0010
1000
0001
0100
0001
0010
0100
1000
0001
,
0100
0010
1000
0010
0100
0001
1000
0100
0010
0001
1000
0100
1000
0001
0100
0010
,
0100
0001
1000
0001
0010
0100
0010
0001
1000
0001
0100
0010
0100
0001
1000
0100
,
0010
0001
1000
0010
0100
0010
1000
0001
0100
0001
1000
0010
0100
0010
1000
0001
,
1000
0100
0010
0001
0100
0001
1000
0100
1000
0001
0100
0010
1000
0100
0010
0001
,
1000
0001
0100
0010
1000
0001
0100
0001
1000
0100
0010
0100
1000
0001
0010
0100
,
1000
0001
1000
0010
0100
0010
1000
0001
0100
0001
1000
0100
0010
0001
1000
0001
,
0100
0010
1000
0001
0100
0001
1000
0100
0010
0001
1000
0001
0100
0010
0100
0001
,
1000
0001
0010
0100
1000
0001
0100
0001
1000
0010
0100
0010
1000
0001
0100
0001
,
1000
0100
0010
0001
1000
0100
1000
0001
0100
0010
0100
0001
1000
0100
0010
0001
,
1000
0100
1000
0001
0100
0010
0100
0001
1000
0010
0100
0010
1000
0001
0010
0100
,
1000
0001
0100
0001
1000
0100
0010
0001
1000
0100
1000
0001
0100
0010
0100
0001
,
1000
0010
0100
0001
0010
0100
1000
0001
0100
0010
1000
0100
1000
0001
0010
0100
,
1000
0001
0100
0010
1000
0001
0100
0001
1000
0100
0010
0100
1000
0001
0010
0100
,
1000
0001
0100
0010
0100
0001
1000
0010
1000
0001
0010
0001
1000
0100
0010
0001
,
1000
0001
0100
0010
1000
0001
0100
0010
1000
0100
0010
0100
1000
0001
0010
0100
,
1000
0001
0100
0010
1000
0100
0010
0001
0100
0010
1000
0001
0100
0001
0010
0100
,
1000
0001
0100
0010
0100
0001
1000
0010
1000
0001
0010
0100
0010
0001
1000
0100
,
1000
0001
0100
0010
0100
0001
1000
0010
0100
0001
1000
0100
0010
0001
1000
0100
,
1000
0001
0010
0001
1000
0010
0100
0010
1000
0001
1000
0100
0010
0001
1000
0100
,
1000
0001
0100
0010
0100
0001
1000
0001
0010
0100
1000
0001
0100
0010
0100
0001
,
2000
0000
0000
3002
0000
0000
0023
0000
,
0230
0000
0300
0000
2200
3300
0000
0000
2002
0000
3003
0000
0000
0000
0000
0000
,
0001
0000
0100
0000
0001
0000
1000
0000
0100
0000
1000
0100
0000
1000
0001
0000
,
0100
0000
0010
0000
0100
0000
0010
0000
1000
0001
0010
0100
1000
0000
0001
0000
,
0100
0001
1000
0100
1000
0001
1000
0010
,
0100
0000
0001
1000
0001
0000
1000
0000
0100
0000
1000
0001
0100
0000
0001
0010
,
0100
0000
1000
0000
0010
0000
0100
0000
0001
0000
1000
0001
0000
1000
0001
0000
,
0100
0010
0100
0010
0100
0010
0100
0001
,
1000
0100
0010
0001
1000
0100
1000
0001
,
0100
0000
0001
1000
0001
0000
1000
0000
0100
0000
0010
0100
1000
0000
0001
0100
,
0010
1000
0010
0100
0001
1000
0001
1000
0100
0010
0001
1000
0100
1000
0001
0100
,
0001
0000
1000
0000
0100
0000
0010
0000
0100
1000
0001
0100
0001
0000
0100
0000
,
0010
0000
1000
0000
0010
0100
0001
1000
0001
0100
0001
1000
0100
0010
0100
1000
,
0001
0010
0100
1000
0001
1000
0010
0100
0001
1000
0010
0100
0001
1000
0001
0100
,
0001
0000
1000
0000
0100
0000
1000
0000
0001
0000
0100
0001
0000
0100
0010
0000
,
1000
0100
1000
0100
1000
0100
1000
0100
,
0010
0001
1000
0010
0100
0010
1000
0001
1000
0000
0010
0000
0100
0000
0001
0000
,
1000
0000
0010
0100
0010
0000
1000
0000
0100
0000
0010
0001
1000
0000
0001
0100
,
0010
1000
0010
0100
0001
1000
0100
0010
0001
1000
0100
1000
0001
0100
0010
0100
,
0001
0000
0010
0000
0100
0000
0010
0000
0100
1000
0001
1000
0010
0000
0100
0000
,
0001
0100
0001
1000
0010
0100
0010
1000
0001
1000
0100
0010
0001
1000
0100
1000
,
0001
0100
0010
0100
0001
1000
0100
0010
0001
1000
0100
1000
0001
0100
0010
0100
,
0001
0000
1000
0000
0001
0000
0010
0000
0100
0000
1000
0100
0000
1000
0001
0000
,
0010
0100
0010
0100
0010
0100
0010
0100
,
1000
0000
0001
0100
0001
0000
1000
0100
0010
0000
0001
1000
0001
0000
0100
0000
,
0010
0000
1000
0001
1000
0000
0001
0000
0010
0000
0100
1000
0001
0000
0100
0001
,
1000
0000
0010
0000
0100
0000
0010
0000
1000
0000
0001
1000
0000
0001
0100
0000
,
0010
0000
1000
0000
0010
0000
1000
0000
0100
0010
0001
1000
0001
0000
0100
0000
,
0010
1000
0010
0100
0001
1000
0100
0010
0001
1000
0100
1000
0001
0100
0010
0100
,
0001
1000
0001
0010
0100
1000
0001
1000
0010
0100
0010
1000
0001
0010
0100
1000
,
0001
0000
0100
0000
0001
0000
1000
0000
0001
0000
0100
0001
0000
0100
0010
0000
,
1000
0100
1000
0100
1000
0100
1000
0100
,
0020
0030
0000
0000
0002
0003
0000
0000
2000
3000
0000
0000
0020
0030
0000
0000
,
0200
0300
0000
0000
0000
0000
0000
0000
0001
0000
0000
0000
0000
0000
0000
0000
1000
0000
0000
0000
0100
0000
0000
0000
0000
0000
0000
0000
1000
0000
0000
0000
,
0001
1000
0100
0010
0100
1000
0001
0100
0010
0100
0001
1000
0010
1000
0001
1000
,
0100
0010
0001
1000
0010
0100
0010
1000
0001
1000
0100
0010
0100
1000
0001
1000
,
0100
0010
0001
1000
0001
0100
0010
0100
0001
1000
0010
1000
0001
0100
0010
1000
,
0001
0010
0100
1000
0010
0100
0001
1000
0100
0010
0001
0100
0010
1000
0001
1000
,
0100
0010
0001
1000
0100
0010
0100
1000
0001
0100
0010
0100
0001
1000
0010
0100
,
0001
1000
0100
0010
0100
1000
0001
1000
0001
0100
0010
1000
0001
0100
0001
1000
,
0100
0010
0001
0010
0100
1000
0001
1000
0010
0100
0001
1000
0001
0010
0100
0010
,
0001
1000
0010
0100
0001
0010
0100
0010
0001
1000
0010
1000
0100
0010
0100
1000
,
0001
0100
0010
1000
0001
0100
0001
1000
0100
0010
0100
1000
0001
1000
0010
0100
,
0001
1000
0001
0010
0100
0010
0001
1000
0100
1000
0001
0100
0010
1000
0001
0100
,
0001
1000
0100
0010
0100
1000
0001
1000
0010
0100
0001
1000
0001
0010
0100
1000
,
0001
1000
0010
0100
0001
0010
0100
1000
0001
0100
0010
1000
0100
1000
0001
0100
,
0001
1000
0100
0010
0100
1000
0001
0010
0001
1000
0010
0100
0010
1000
0001
0100
,
0001
1000
0100
0010
0100
1000
0001
0010
0001
1000
0010
0100
0001
1000
0100
1000
,
0001
0010
0100
0010
0001
1000
0100
0010
0001
1000
0010
1000
0001
0100
0010
1000
,
0001
0100
0001
0010
0100
1000
0001
0010
0001
1000
0100
1000
0010
0100
0001
1000
,
0100
0010
0001
0010
0100
1000
0001
0100
0010
1000
0001
0100
0001
1000
0100
0010
,
0100
1000
0001
1000
0010
0100
0010
1000
0001
1000
0100
0010
0100
1000
0001
0100
,
0010
1000
0001
0010
0100
0010
0001
1000
0100
1000
0001
0010
0100
0010
0001
1000
,
0001
0100
0010
1000
0100
1000
0001
0100
0001
1000
0100
0010
0001
0100
0010
1000
,
0001
1000
0100
0010
0001
1000
0100
1000
0001
0100
0010
0100
0001
1000
0010
0100
,
0001
1000
0001
0010
0100
0010
0001
1000
0100
1000
0001
0100
0010
1000
0001
1000
,
0100
0010
0001
1000
0100
1000
0001
0100
0010
1000
0001
1000
0100
0010
0100
1000
,
0001
1000
0010
0100
0001
1000
0100
1000
0001
0010
0100
0010
0001
1000
0100
1000
,
0001
0100
0010
1000
0001
0100
0001
1000
0100
0010
0100
1000
0001
0100
0010
1000
,
0001
0100
0001
1000
0100
0010
0100
1000
0001
0010
0100
0010
0001
1000
0010
0100
,
0001
1000
0100
1000
0001
0100
0010
1000
0001
0100
0001
1000
0100
0010
0100
1000
,
0001
0010
0100
1000
0010
0100
0001
1000
0100
0010
0001
0100
0001
1000
0010
0100
,
0001
1000
0100
0010
0001
1000
0100
1000
0001
0100
0010
0100
0001
1000
0010
0100
,
0001
1000
0100
0010
0100
1000
0001
0010
0001
1000
0010
1000
0001
0100
0010
1000
,
0001
1000
0100
0010
0001
1000
0100
0010
0001
0100
0010
0100
0001
1000
0010
0100
,
0001
1000
0100
0010
0001
0100
0010
1000
0100
0010
0001
1000
0100
1000
0010
0100
,
0001
1000
0100
0010
0100
1000
0001
0010
0001
1000
0010
0100
0010
1000
0001
0100
,
0001
1000
0100
0010
0100
1000
0001
0010
0100
1000
0001
0100
0010
1000
0001
0100
,
0001
1000
0010
1000
0001
0010
0100
0010
0001
1000
0001
0100
0010
1000
0001
0100
,
0001
1000
0100
0010
0100
1000
0001
1000
0010
0100
0001
1000
0100
0010
0100
1000
,
0002
0000
0000
0023
0000
0000
0230
0000
,
2300
0000
3000
0000
2002
3003
0000
0000
2002
0000
0000
0000
0000
0000
0000
0000
,
3003
0000
0000
0000
;

//---------------dance-single - 16+ (CTalon)----------------
#NOTES:
     dance-single:
     16+ (CTalon):
     Hard:
     16:
     1.000,1.000,0.203,0.500,1.000,2198.000,45.000,111.000,0.000,0.000:
1000
0100
1000
0010
0100
0001
0010
0100
,
1000
0010
1000
0001
0010
0100
1000
0010
,
0100
0001
0010
0001
1000
0100
0010
0001
,
0100
0000
0001
1000
0001
0000
0010
0000
0100
0000
1000
0010
0100
0000
0010
1000
,
0001
0100
0001
0010
0100
1000
0010
0100
,
0001
0010
0001
0100
0010
1000
0100
1000
,
2002
3003
0000
0000
0202
0303
0000
0000
0220
0330
0000
0000
2020
3030
0000
0000
,
1000
0100
0010
0100
1000
1000
0001
0000
,
1000
0100
0010
0100
1000
0010
0100
0010
,
1000
0001
0010
0100
0010
0001
0100
0010
,
1000
0100
1000
0010
0100
0001
0010
0100
,
1000
0000
0001
1000
0001
0000
0010
0000
0100
0000
1000
0001
0010
0000
0100
1000
,
0001
0010
0100
0010
0001
0100
0010
0100
,
0001
1000
0100
0010
0100
1000
0001
0100
,
0202
0303
0000
0000
2020
3030
0000
0000
2002
3003
0000
0000
0202
0303
0000
0000
,
0100
0001
0010
0100
1000
1000
0001
0000
,
1000
0100
1000
0010
0100
0001
0010
0100
,
1000
0010
1000
0001
0010
0100
1000
0010
,
0100
0001
0010
0001
1000
0100
0010
0001
,
0100
0000
0001
1000
0001
0000
0010
0000
0100
0000
1000
0010
0100
0000
0010
1000
,
0001
0100
0001
0010
0100
1000
0010
0100
,
0001
0010
0001
0100
0010
1000
0100
1000
,
2002
3003
0000
0000
0202
0303
0000
0000
0220
0330
0000
0000
2020
3030
0000
0000
,
1000
0100
0010
0100
1000
1000
0001
0000
,
1000
0100
0010
0100
1000
0010
0100
0010
,
1000
0001
0010
0100
0010
0001
0100
0010
,
1000
0100
1000
0010
0100
0001
0010
0100
,
1000
0000
0001
1000
0001
0000
0010
0000
0100
0000
1000
0010
0100
0000
0001
0010
,
0100
1000
0010
0100
0010
1000
0100
0010
,
0001
1000
0010
0100
0010
1000
0001
0100
,
0202
0303
0000
0000
2020
3030
0000
0000
2002
3003
0000
0000
0202
0303
0000
0000
,
0100
0001
0010
0100
1000
0001
0200
0300
,
0001
0100
0001
1000
0001
0100
0010
0100
0001
1000
0100
0010
0001
1000
0100
1000
,
0001
0100
0010
0100
0001
1000
0010
0100
0010
1000
0001
0100
0001
1000
0100
0010
,
0100
1000
0001
0010
0100
0010
0001
1000
0001
0100
0010
0100
0001
1000
0001
0100
,
0001
0000
1000
0100
0010
0000
0001
0000
1000
0000
0010
0100
0001
0000
0100
0001
,
1000
0010
0100
0010
1000
0001
1000
0010
0100
0001
0010
0100
1000
0001
0010
0001
,
1000
0010
0100
0010
1000
0001
0100
0010
1000
0001
0010
0100
1000
0001
0100
0010
,
1000
0000
1000
0100
0000
0100
1000
0000
,
1000
0000
0001
0100
0010
0000
1000
0000
0001
0000
0010
0100
1000
0000
0010
0100
,
0001
0100
0010
0100
0001
1000
0100
0010
0100
1000
0001
0100
0010
0100
0001
1000
,
0001
0010
0100
0010
0001
0100
0010
1000
0010
0100
0001
1000
0001
1000
0010
0100
,
0001
1000
0100
0010
0001
1000
0100
1000
0001
1000
0010
0100
0010
1000
0001
0100
,
0010
0000
1000
0001
1000
0000
0100
0000
0010
0000
0001
0010
0100
0000
0010
0001
,
1000
0001
1000
0010
0100
0010
1000
0001
1000
0100
0010
0100
1000
0001
0010
0100
,
1000
0001
0100
0010
0100
0001
1000
0010
1000
0001
0010
0100
0010
0001
1000
0010
,
0100
0001
1000
0010
0100
0001
1000
0010
1000
0001
0010
0100
0010
0001
1000
0001
,
1000
0000
0100
0010
0001
0000
1000
0000
0010
0000
0100
0001
0100
0000
0010
1000
,
0001
0100
0010
0100
0001
1000
0001
0100
0010
1000
0001
0010
0100
1000
0001
0010
,
0001
1000
0010
0100
0010
1000
0001
0100
0010
1000
0001
0010
0100
1000
0001
0010
,
0100
0000
0100
1000
0000
1000
0001
0100
,
0010
0000
0010
1000
0000
0000
1001
0000
,
0002
0000
0000
0023
0000
0000
0230
0000
,
2300
0000
0000
3000
2002
3003
0000
0000
2002
3003
0000
0000
0000
0000
0000
0000
,
0001
0010
0001
0100
0010
1000
0100
0010
,
0001
0100
0001
1000
0100
0010
0001
0100
,
0010
1000
0100
1000
0001
0010
0100
1000
,
0010
0000
1000
0001
1000
0000
0100
0000
0010
0000
0001
0100
0010
0000
0100
0001
,
1000
0010
1000
0100
0010
0001
0100
0010
,
1000
0100
1000
0010
0100
0001
0010
0001
,
2002
3003
0000
0000
2020
3030
0000
0000
0220
0330
0000
0000
0202
0303
0000
0000
,
0001
0010
0100
0010
0001
0001
1000
0000
,
0001
0010
0100
0010
0001
0100
0010
0100
,
0001
1000
0100
0010
0100
1000
0010
0100
,
0001
0010
0001
0100
0010
1000
0100
0010
,
0001
0000
1000
0001
1000
0000
0100
0000
0010
0000
0001
1000
0100
0000
0010
0001
,
1000
0100
0010
0100
1000
0010
0100
0010
,
1000
0001
0010
0100
0010
0001
1000
0010
,
2020
3030
0000
0000
0202
0303
0000
0000
2002
3003
0000
0000
2200
3300
0000
0000
,
2000
3000
0000
0000
0000
0000
0000
0000
0000
0000
0000
0000
0000
0000
0000
0000
,
0100
1000
0010
0100
0001
0010
0100
1000
,
0001
0100
0010
0100
0001
1000
0100
0010
,
0001
1000
0100
0010
0100
1000
0010
0100
,
0001
0000
1000
0100
1000
0000
0001
0000
0100
0000
0010
1000
0001
0000
0010
0100
,
1000
0001
0100
0010
0100
0001
1000
0100
,
0010
0001
1000
0010
0100
0001
1000
0100
,
2200
3300
0000
0000
2002
3003
0000
0000
0202
0303
0000
0000
0220
0330
0000
0000
,
0100
0000
0001
0000
0010
0010
0100
0000
,
1000
0100
1000
0010
0100
0001
0010
0100
,
1000
0001
0100
0010
0100
0001
1000
0010
,
0100
0000
0001
1000
0001
0000
1000
0000
0100
0000
0010
0100
1000
0000
0001
0100
,
0010
0100
0001
1000
0100
1000
0001
0100
,
0010
0100
0001
1000
0100
0010
0001
0100
,
0010
0100
0001
1000
0001
0010
0100
1000
,
0002
0003
0000
0000
0020
0030
0000
0000
0200
0300
0000
0000
2000
3000
0000
0000
,
0001
0000
1000
0100
0010
0100
1000
0000
,
0001
0100
0010
0100
0001
1000
0100
0010
,
0001
1000
0100
1000
0010
0100
0001
1000
,
0001
0010
0100
1000
0001
0100
0010
0100
,
0001
0000
1000
0100
1000
0000
0001
0000
0100
0000
0010
1000
0100
0000
0010
0001
,
1000
0010
0100
0010
1000
0001
0010
0100
,
1000
0001
0100
0010
1000
0100
0010
0001
,
2002
3003
0000
0000
2020
3030
0000
0000
0220
0330
0000
0000
0202
0303
0000
0000
,
0001
0001
0010
0100
1000
0001
2000
3000
,
0010
0100
0010
1000
0100
0010
0100
1000
,
0001
0100
0010
0100
0001
0010
0100
1000
,
0001
0100
0001
0010
0100
0010
0001
1000
,
0010
0000
1000
0001
1000
0000
0001
0000
0010
0000
0100
1000
0001
0000
0100
0010
,
1000
0001
0100
0001
0010
0100
1000
0001
,
0100
0010
0100
0001
1000
0100
0010
0001
,
2002
3003
0000
0000
2020
3030
0000
0000
0202
0303
0000
0000
0220
0330
0000
0000
,
0020
0000
0000
0000
0000
0000
0000
0000
0030
0000
0000
0000
0000
0000
0000
0000
0000
0000
0000
0000
0000
0000
0000
0000
0000
0000
0000
0000
0000
0000
0000
0000
0000
0000
0000
0000
0000
0000
0000
0000
0000
0000
0000
0000
0000
0000
0000
0000
2000
0000
0000
0000
0000
0000
3000
0000
0000
0000
0000
0000
0000
0000
0000
0000
0000
0000
0000
0000
0000
0000
0000
0000
0000
0000
0000
0000
0000
0000
0000
0000
0000
0000
0000
0000
0000
0000
0000
0000
0000
0000
0000
0000
0000
0000
0000
0000
0002
0000
0000
0003
0000
0000
0000
0000
0000
0000
0000
0000
0000
0000
0000
0000
0000
0000
0000
0000
0000
0000
0000
0000
0000
0000
0000
0000
0000
0000
0000
0000
0000
0000
0000
0000
0000
0000
0000
0000
0000
0000
0000
0000
0000
0000
0000
0000
0000
0000
0000
0000
0000
0000
0000
0000
0000
0000
0000
0000
0000
0000
0000
0000
0000
0000
0000
0000
0000
0000
0000
0000
0000
0000
0000
0000
0000
0000
0000
0000
0000
0000
0000
0000
0000
0000
0000
0000
0000
0000
0000
0000
0000
0000
0000
0000
,
1000
0001
0100
0010
0100
0001
1000
0100
0010
0100
1000
0001
0010
0001
1000
0001
,
0100
0010
1000
0001
0010
0100
0010
0001
1000
0001
0100
0010
0100
0001
1000
0001
,
0100
0010
1000
0001
1000
0100
0010
0100
1000
0001
0010
0001
1000
0100
0010
0001
,
1000
0000
0010
0100
0001
0000
0010
0000
0100
0000
1000
0100
0010
0000
0001
1000
,
0010
0100
0001
1000
0010
0100
0010
1000
0001
0010
0100
0010
0001
1000
0100
0010
,
0001
1000
0010
0100
0010
1000
0001
1000
0001
0010
0100
1000
0001
0010
0001
1000
,
0010
0000
0010
1000
0000
1000
0100
0000
,
0100
0000
0010
0001
0010
0000
0001
0000
1000
0000
0010
0100
0001
0000
0010
0100
,
1000
0100
0010
0001
1000
0100
1000
0001
0100
0010
0100
0001
1000
0001
0010
0100
,
1000
0001
1000
0010
0100
0010
1000
0001
0100
0001
1000
0100
0010
0001
1000
0100
,
1000
0001
0100
0010
0100
0001
1000
0001
0010
0100
1000
0001
1000
0010
0100
0001
,
1000
0000
0010
1000
0001
0000
0010
0000
0100
0000
1000
0100
0010
0000
0100
0010
,
0001
1000
0010
0100
0010
1000
0001
0100
0001
1000
0100
0010
0100
1000
0001
0010
,
0001
1000
0010
0100
0010
1000
0001
0100
0001
1000
0100
0010
0001
1000
0010
1000
,
0001
0000
0001
0010
0000
0010
0100
0000
,
0100
0000
1000
0001
0100
0000
0010
0000
1000
0000
0001
0010
0100
0000
0010
0001
,
0100
0010
1000
0010
0100
0001
1000
0100
0010
0001
1000
0100
1000
0001
0100
0010
,
0100
0001
1000
0001
0010
0100
0010
0001
1000
0001
0100
0010
0100
0001
1000
0100
,
0010
0001
1000
0010
0100
0010
1000
0001
0100
0001
1000
0010
0100
0010
1000
0001
,
1000
0000
0100
0010
0001
0000
1000
0000
0010
0000
0100
0001
0100
0000
0010
1000
,
0001
1000
0010
0100
0001
1000
0010
1000
0001
0010
0100
0010
0001
1000
0100
0010
,
0001
1000
0001
0100
0010
0100
0001
1000
0010
1000
0001
0010
0100
1000
0001
1000
,
0010
0000
0010
1000
0000
1000
0100
0000
,
0100
0000
0010
0001
1000
0000
0001
0000
0100
0000
0001
0010
0100
0000
1000
0001
,
1000
0100
0010
0001
1000
0100
1000
0001
0100
0010
0100
0001
1000
0100
0010
0001
,
1000
0100
1000
0001
0100
0010
0100
0001
1000
0010
0100
0010
1000
0001
0010
0100
,
1000
0001
0100
0001
1000
0100
0010
0001
1000
0100
1000
0001
0100
0010
0100
0001
,
1000
0000
0010
0100
0001
0000
1000
0000
0001
0000
0010
0100
1000
0000
0001
1000
,
0001
1000
0010
0100
0001
1000
0010
1000
0001
0010
0100
0010
0001
1000
0100
0010
,
0001
1000
0010
0100
0010
1000
0001
0100
0001
1000
0100
1000
0001
0010
0100
1000
,
0001
1000
0010
0100
0001
1000
0010
0100
0001
0010
0100
0010
0001
1000
0100
0010
,
0001
0000
1000
0010
0100
0000
0001
0000
1000
0000
0100
0010
0001
0000
1000
0010
,
1000
0001
0100
0010
0100
0001
1000
0010
1000
0001
0010
0100
0010
0001
1000
0100
,
1000
0001
0100
0010
0100
0001
1000
0010
0100
0001
1000
0100
0010
0001
1000
0100
,
1000
0000
1000
0100
0000
0100
0010
0001
,
1000
0000
1000
0010
0000
0000
1010
0000
,
2000
0000
0000
3002
0000
0000
0023
0000
,
0230
0000
0300
0000
2200
3300
0000
0000
2002
0000
3003
0000
0000
0000
0000
0000
,
0001
0000
0100
0000
0001
0000
1000
0000
0100
0000
1000
0100
0000
1000
0001
0000
,
0100
0000
0010
0000
0100
0000
0010
0000
1000
0001
0010
0100
1000
0000
0001
0000
,
0100
0001
1000
0100
1000
0001
1000
0010
,
0100
0000
0001
1000
0001
0000
1000
0000
0100
0000
1000
0001
0100
0000
0001
0010
,
0100
0000
1000
0000
0010
0000
0100
0000
0001
0000
1000
0001
0000
1000
0001
0000
,
0100
0010
0100
0010
0100
0010
0100
0001
,
1000
0100
0010
0001
1000
0100
1000
0001
,
0100
0000
0001
1000
0001
0000
1000
0000
0100
0000
0010
0100
1000
0000
0001
0100
,
0010
1000
0010
0100
0001
1000
0001
1000
0100
0010
0001
1000
0100
1000
0001
0100
,
0001
0000
1000
0000
0100
0000
0010
0000
0100
1000
0001
0100
0001
0000
0100
0000
,
0010
0000
1000
0000
0010
0100
0001
1000
0001
0100
0001
1000
0100
0010
0100
1000
,
0001
0010
0100
1000
0001
1000
0010
0100
0001
1000
0010
0100
0001
1000
0001
0100
,
0001
0000
1000
0000
0100
0000
1000
0000
0001
0000
0100
0001
0000
0100
0010
0000
,
1000
0100
1000
0100
1000
0100
1000
0100
,
0010
0001
1000
0010
0100
0010
1000
0001
1000
0000
0010
0000
0100
0000
0001
0000
,
1000
0000
0010
0100
0010
0000
1000
0000
0100
0000
0010
0001
1000
0000
0001
0100
,
0010
1000
0010
0100
0001
1000
0100
0010
0001
1000
0100
1000
0001
0100
0010
0100
,
0001
0000
0010
0000
0100
0000
0010
0000
0100
1000
0001
1000
0010
0000
0100
0000
,
0001
0100
0001
1000
0010
0100
0010
1000
0001
1000
0100
0010
0001
1000
0100
1000
,
0001
0100
0010
0100
0001
1000
0100
0010
0001
1000
0100
1000
0001
0100
0010
0100
,
0001
0000
1000
0000
0001
0000
0010
0000
0100
0000
1000
0100
0000
1000
0001
0000
,
0010
0100
0010
0100
0010
0100
0010
0100
,
1000
0000
0001
0100
0001
0000
1000
0100
0010
0000
0001
1000
0001
0000
0100
0000
,
0010
0000
1000
0001
1000
0000
0001
0000
0010
0000
0100
1000
0001
0000
0100
0001
,
1000
0000
0010
0000
0100
0000
0010
0000
1000
0000
0001
1000
0000
0001
0100
0000
,
0010
0000
1000
0000
0010
0000
1000
0000
0100
0010
0001
1000
0001
0000
0100
0000
,
0010
1000
0010
0100
0001
1000
0100
0010
0001
1000
0100
1000
0001
0100
0010
0100
,
0001
1000
0001
0010
0100
1000
0001
1000
0010
0100
0010
1000
0001
0010
0100
1000
,
0001
0000
0100
0000
0001
0000
1000
0000
0001
0000
0100
0001
0000
0100
0010
0000
,
1000
0100
1000
0100
1000
0100
1000
0100
,
0020
0030
0000
0000
0002
0003
0000
0000
2000
3000
0000
0000
0020
0030
0000
0000
,
0200
0300
0000
0000
0000
0000
0000
0000
0001
0000
0000
0000
0000
0000
0000
0000
1000
0000
0000
0000
0100
0000
0000
0000
0000
0000
0000
0000
1000
0000
0000
0000
,
0001
1000
0100
0010
0100
1000
0001
0100
0010
0100
0001
1000
0010
1000
0001
1000
,
0100
0010
0001
1000
0010
0100
0010
1000
0001
1000
0100
0010
0100
1000
0001
1000
,
0100
0010
0001
1000
0001
0100
0010
0100
0001
1000
0010
1000
0001
0100
0010
1000
,
0001
0000
1000
0010
0100
0000
0001
0000
0010
0000
0100
1000
0001
0000
1000
0100
,
0010
0100
1000
0001
0010
0100
0010
0001
1000
0010
0100
0010
1000
0001
0100
0010
,
1000
0001
0010
0100
0010
0001
1000
0001
1000
0010
0100
0001
1000
0010
1000
0001
,
0010
0000
0010
0001
0000
0001
1000
0000
,
1000
0000
0010
0100
0001
0000
1000
0000
0001
0000
0010
0100
1000
0000
0010
0100
,
0001
0100
0010
1000
0001
0100
0001
1000
0100
0010
0100
1000
0001
1000
0010
0100
,
0001
1000
0001
0010
0100
0010
0001
1000
0100
1000
0001
0100
0010
1000
0001
0100
,
0001
1000
0100
0010
0100
1000
0001
1000
0010
0100
0001
1000
0001
0010
0100
1000
,
0001
0000
1000
0010
0100
0000
0001
0000
0010
0000
0100
1000
0001
0000
1000
0001
,
1000
0001
0010
0100
0010
0001
1000
0100
1000
0001
0100
0010
0100
0001
1000
0010
,
1000
0001
0010
0100
0010
0001
1000
0100
1000
0001
0100
0010
1000
0001
0010
0001
,
1000
0000
1000
0001
0000
0001
0100
0000
,
0100
0000
0010
1000
0001
0000
1000
0000
0001
0000
0100
0010
1000
0000
0100
1000
,
0100
0010
0001
0010
0100
1000
0001
0100
0010
1000
0001
0100
0001
1000
0100
0010
,
0100
1000
0001
1000
0010
0100
0010
1000
0001
1000
0100
0010
0100
1000
0001
0100
,
0010
1000
0001
0010
0100
0010
0001
1000
0100
1000
0001
0010
0100
0010
0001
1000
,
0001
0000
0010
0100
1000
0000
0001
0000
0100
0000
0010
1000
0010
0000
0100
0010
,
1000
0001
0010
0100
1000
0001
0010
0001
1000
0010
0100
0010
1000
0001
0100
0010
,
1000
0001
1000
0100
0010
0100
1000
0001
0010
0001
1000
0010
0100
0001
1000
0001
,
0010
0000
0010
0001
0000
0001
1000
0000
,
1000
0000
0010
0100
0001
0000
0010
0000
0100
0000
1000
0100
0010
0000
0001
1000
,
0001
0100
0010
1000
0001
0100
0001
1000
0100
0010
0100
1000
0001
0100
0010
1000
,
0001
0100
0001
1000
0100
0010
0100
1000
0001
0010
0100
0010
0001
1000
0010
0100
,
0001
1000
0100
1000
0001
0100
0010
1000
0001
0100
0001
1000
0100
0010
0100
1000
,
0001
0000
0100
0010
1000
0000
0001
0000
0010
0000
0100
1000
0001
0000
1000
0010
,
1000
0001
0010
0100
1000
0001
0010
0001
1000
0010
0100
0010
1000
0001
0100
0010
,
1000
0001
0010
0100
0010
0001
1000
0100
1000
0001
0100
0001
1000
0010
0100
0001
,
1000
0001
0010
0100
1000
0001
0010
0100
1000
0010
0100
0010
1000
0001
0100
0010
,
1000
0000
0001
0100
0010
0000
1000
0000
0001
0000
0010
0100
1000
0000
0010
0100
,
0001
1000
0100
0010
0100
1000
0001
0010
0001
1000
0010
0100
0010
1000
0001
0100
,
0001
1000
0100
0010
0100
1000
0001
0010
0100
1000
0001
0100
0010
1000
0001
0100
,
0001
0000
0001
1000
0000
1000
0100
1000
,
0010
0000
0010
1000
0000
0000
1001
0000
,
0002
0000
0000
0023
0000
0000
0230
0000
,
2300
0000
3000
0000
2002
3003
0000
0000
2002
0000
0000
0000
0000
0000
0000
0000
,
3003
0000
0000
0000
;

//---------------dance-single - 12 (CTalon)----------------
#NOTES:
     dance-single:
     12 (CTalon):
     Medium:
     12:
     1.000,1.000,0.203,0.500,0.394,1710.000,45.000,111.000,0.000,0.000:
1000
0100
1000
0010
0100
0001
0010
0100
,
1000
0010
1000
0001
0010
0100
1000
0010
,
0100
0001
0010
0001
1000
0100
0010
0001
,
0100
0000
0001
1000
0001
0000
0010
0000
0100
0000
1000
0010
0100
0000
0010
1000
,
0001
0100
0001
0010
0100
1000
0010
0100
,
0001
0010
0001
0100
0010
1000
0100
1000
,
2002
3003
0000
0000
0202
0303
0000
0000
0220
0330
0000
0000
2020
3030
0000
0000
,
1000
0100
0010
0100
1000
1000
0001
0000
,
1000
0100
0010
0100
1000
0010
0100
0010
,
1000
0001
0010
0100
0010
0001
0100
0010
,
1000
0100
1000
0010
0100
0001
0010
0100
,
1000
0000
0001
1000
0001
0000
0010
0000
0100
0000
1000
0001
0010
0000
0100
1000
,
0001
0010
0100
0010
0001
0100
0010
0100
,
0001
1000
0100
0010
0100
1000
0001
0100
,
0202
0303
0000
0000
2020
3030
0000
0000
2002
3003
0000
0000
0202
0303
0000
0000
,
0100
0001
0010
0100
1000
1000
0001
0000
,
1000
0100
1000
0010
0100
0001
0010
0100
,
1000
0010
1000
0001
0010
0100
1000
0010
,
0100
0001
0010
0001
1000
0100
0010
0001
,
0100
0000
0001
1000
0001
0000
0010
0000
0100
0000
1000
0010
0100
0000
0010
1000
,
0001
0100
0001
0010
0100
1000
0010
0100
,
0001
0010
0001
0100
0010
1000
0100
1000
,
2002
3003
0000
0000
0202
0303
0000
0000
0220
0330
0000
0000
2020
3030
0000
0000
,
1000
0100
0010
0100
1000
1000
0001
0000
,
1000
0100
0010
0100
1000
0010
0100
0010
,
1000
0001
0010
0100
0010
0001
0100
0010
,
1000
0100
1000
0010
0100
0001
0010
0100
,
1000
0000
0001
1000
0001
0000
0010
0000
0100
0000
1000
0010
0100
0000
0001
0010
,
0100
1000
0010
0100
0010
1000
0100
0010
,
0001
1000
0010
0100
0010
1000
0001
0100
,
0202
0303
0000
0000
2020
3030
0000
0000
2002
3003
0000
0000
0202
0303
0000
0000
,
0100
0001
0010
0100
1000
0001
0200
0300
,
0001
0010
0001
1000
0010
0100
0001
0010
,
0100
0010
0001
1000
0010
0100
0001
0010
,
0001
1000
0010
1000
0100
1000
0001
0100
,
0010
0000
1000
0100
0010
0000
0001
0000
1000
0000
0010
0100
0001
0000
0100
0001
,
1000
0010
0100
0001
1000
0100
0010
0001
,
0100
0010
1000
0100
1000
0001
1000
0010
,
1000
0000
1000
0100
0000
0100
1000
0000
,
1000
0000
0001
0100
0010
0000
1000
0000
0001
0000
0010
0100
1000
0000
0010
0100
,
0001
1000
0100
1000
0001
0010
0100
1000
,
0010
0100
0001
0100
0001
0010
0100
1000
,
0100
0010
0100
1000
0001
0100
0010
1000
,
0010
0000
1000
0001
1000
0000
0100
0000
0010
0000
0001
0010
0100
0000
0010
0001
,
1000
0010
0100
0001
0010
0100
1000
0100
,
1000
0001
0100
0010
1000
0100
0010
0001
,
1000
0100
1000
0100
1000
0010
0100
0001
,
1000
0000
0100
0010
0001
0000
1000
0000
0010
0000
0100
0001
0100
0000
0010
1000
,
0001
0100
0001
0100
0010
1000
0100
0010
,
0001
1000
0001
1000
0010
0100
0001
0010
,
0100
0000
0100
1000
0000
1000
0001
0100
,
0010
0000
0010
1000
0000
0000
1001
0000
,
0002
0000
0000
0023
0000
0000
0230
0000
,
2300
0000
0000
3000
2002
3003
0000
0000
2002
3003
0000
0000
0000
0000
0000
0000
,
0001
0010
0001
0100
0010
1000
0100
0010
,
0001
0100
0001
1000
0100
0010
0001
0100
,
0010
1000
0100
1000
0001
0010
0100
1000
,
0010
0000
1000
0001
1000
0000
0100
0000
0010
0000
0001
0100
0010
0000
0100
0001
,
1000
0010
1000
0100
0010
0001
0100
0010
,
1000
0100
1000
0010
0100
0001
0010
0001
,
2002
3003
0000
0000
2020
3030
0000
0000
0220
0330
0000
0000
0202
0303
0000
0000
,
0001
0010
0100
0010
0001
0001
1000
0000
,
0001
0010
0100
0010
0001
0100
0010
0100
,
0001
1000
0100
0010
0100
1000
0010
0100
,
0001
0010
0001
0100
0010
1000
0100
0010
,
0001
0000
1000
0001
1000
0000
0100
0000
0010
0000
0001
1000
0100
0000
0010
0001
,
1000
0100
0010
0100
1000
0010
0100
0010
,
1000
0001
0010
0100
0010
0001
1000
0010
,
2020
3030
0000
0000
0202
0303
0000
0000
2002
3003
0000
0000
2200
3300
0000
0000
,
2000
3000
0000
0000
0000
0000
0000
0000
0000
0000
0000
0000
0000
0000
0000
0000
,
0100
1000
0010
0100
0001
0010
0100
1000
,
0001
0100
0010
0100
0001
1000
0100
0010
,
0001
1000
0100
0010
0100
1000
0010
0100
,
0001
0000
1000
0100
1000
0000
0001
0000
0100
0000
0010
1000
0001
0000
0010
0100
,
1000
0001
0100
0010
0100
0001
1000
0100
,
0010
0001
1000
0010
0100
0001
1000
0100
,
2200
3300
0000
0000
2002
3003
0000
0000
0202
0303
0000
0000
0220
0330
0000
0000
,
0100
0000
0001
0000
0010
0010
0100
0000
,
1000
0100
1000
0010
0100
0001
0010
0100
,
1000
0001
0100
0010
0100
0001
1000
0010
,
0100
0000
0001
1000
0001
0000
1000
0000
0100
0000
0010
0100
1000
0000
0001
0100
,
0010
0100
0001
1000
0100
1000
0001
0100
,
0010
0100
0001
1000
0100
0010
0001
0100
,
0010
0100
0001
1000
0001
0010
0100
1000
,
0002
0003
0000
0000
0020
0030
0000
0000
0200
0300
0000
0000
2000
3000
0000
0000
,
0001
0000
1000
0100
0010
0100
1000
0000
,
0001
0100
0010
0100
0001
1000
0100
0010
,
0001
1000
0100
1000
0010
0100
0001
1000
,
0001
0010
0100
1000
0001
0100
0010
0100
,
0001
0000
1000
0100
1000
0000
0001
0000
0100
0000
0010
1000
0100
0000
0010
0001
,
1000
0010
0100
0010
1000
0001
0010
0100
,
1000
0001
0100
0010
1000
0100
0010
0001
,
2002
3003
0000
0000
2020
3030
0000
0000
0220
0330
0000
0000
0202
0303
0000
0000
,
0001
0001
0010
0100
1000
0001
2000
3000
,
0010
0100
0010
1000
0100
0010
0100
1000
,
0001
0100
0010
0100
0001
0010
0100
1000
,
0001
0100
0001
0010
0100
0010
0001
1000
,
0010
0000
1000
0001
1000
0000
0001
0000
0010
0000
0100
1000
0001
0000
0100
0010
,
1000
0001
0100
0001
0010
0100
1000
0001
,
0100
0010
0100
0001
1000
0100
0010
0001
,
2002
3003
0000
0000
2020
3030
0000
0000
0202
0303
0000
0000
0220
0330
0000
0000
,
0020
0000
0000
0000
0000
0000
0000
0000
0030
0000
0000
0000
0000
0000
0000
0000
0000
0000
0000
0000
0000
0000
0000
0000
0000
0000
0000
0000
0000
0000
0000
0000
0000
0000
0000
0000
0000
0000
0000
0000
0000
0000
0000
0000
0000
0000
0000
0000
2000
0000
0000
0000
0000
0000
3000
0000
0000
0000
0000
0000
0000
0000
0000
0000
0000
0000
0000
0000
0000
0000
0000
0000
0000
0000
0000
0000
0000
0000
0000
0000
0000
0000
0000
0000
0000
0000
0000
0000
0000
0000
0000
0000
0000
0000
0000
0000
0002
0000
0000
0003
0000
0000
0000
0000
0000
0000
0000
0000
0000
0000
0000
0000
0000
0000
0000
0000
0000
0000
0000
0000
0000
0000
0000
0000
0000
0000
0000
0000
0000
0000
0000
0000
0000
0000
0000
0000
0000
0000
0000
0000
0000
0000
0000
0000
0000
0000
0000
0000
0000
0000
0000
0000
0000
0000
0000
0000
0000
0000
0000
0000
0000
0000
0000
0000
0000
0000
0000
0000
0000
0000
0000
0000
0000
0000
0000
0000
0000
0000
0000
0000
0000
0000
0000
0000
0000
0000
0000
0000
0000
0000
0000
0000
,
1000
0001
0010
0100
0010
0001
1000
0010
,
0100
0001
0010
0001
1000
0001
0010
0100
,
1000
0010
0100
0010
1000
0100
0010
0001
,
1000
0000
0010
0100
0001
0000
0010
0000
0100
0000
1000
0100
0010
0000
0001
1000
,
0010
1000
0001
0010
0100
0010
0001
0100
,
0010
1000
0001
0010
0001
0010
0100
1000
,
0010
0000
0010
1000
0000
1000
0100
0000
,
0100
0000
0010
0001
0010
0000
0001
0000
1000
0000
0010
0100
0001
0000
0010
0100
,
1000
0001
1000
0010
0100
0010
1000
0100
,
0010
0001
0010
0001
0100
0010
0100
0001
,
0010
0100
1000
0100
0010
0001
1000
0010
,
1000
0000
0010
1000
0001
0000
0010
0000
0100
0000
1000
0100
0010
0000
0100
0010
,
0001
1000
0010
0100
0001
0100
0010
0100
,
0001
0010
0100
1000
0100
1000
0010
0100
,
0001
0000
0001
0010
0000
0010
0100
0000
,
0100
0000
1000
0001
0100
0000
0010
0000
1000
0000
0001
0010
0100
0000
0010
0001
,
1000
0010
0100
0001
0010
0100
1000
0001
,
0100
0010
1000
0001
1000
0010
0100
0010
,
1000
0001
0010
0100
1000
0010
1000
0100
,
1000
0000
0100
0010
0001
0000
1000
0000
0010
0000
0100
0001
0100
0000
0010
1000
,
0001
0010
0100
1000
0010
1000
0100
0010
,
0001
0010
0001
1000
0010
0100
0001
0100
,
0010
0000
0010
1000
0000
1000
0100
0000
,
0100
0000
0010
0001
1000
0000
0001
0000
0100
0000
0001
0010
0100
0000
1000
0001
,
1000
0100
0010
0100
1000
0001
0100
0010
,
0100
0001
0010
0100
1000
0010
0100
0010
,
1000
0100
1000
0001
0100
0001
1000
0100
,
1000
0000
0010
0100
0001
0000
1000
0000
0001
0000
0010
0100
1000
0000
0001
1000
,
0001
0010
0100
0010
0001
1000
0010
0100
,
0001
0010
0100
0010
0001
0010
0100
1000
,
0010
0100
0010
0100
0001
1000
0001
0010
,
0001
0000
1000
0010
0100
0000
0001
0000
1000
0000
0100
0010
0001
0000
1000
0010
,
1000
0001
1000
0001
0100
0010
1000
0001
,
0100
0001
0100
0001
0010
0001
0100
0010
,
1000
0000
1000
0100
0000
0100
0010
0001
,
1000
0000
1000
0010
0000
0000
1010
0000
,
2000
0000
0000
3002
0000
0000
0023
0000
,
0230
0000
0300
0000
2200
3300
0000
0000
2002
0000
3003
0000
0000
0000
0000
0000
,
0001
0000
0100
0000
0001
0000
1000
0000
0100
0000
1000
0100
0000
1000
0001
0000
,
0100
0000
0010
0000
0100
0000
0010
0000
1000
0001
0010
0100
1000
0000
0001
0000
,
0100
0001
1000
0100
1000
0001
1000
0010
,
0100
0000
0001
1000
0001
0000
1000
0000
0100
0000
1000
0001
0100
0000
0001
0010
,
0100
0000
1000
0000
0010
0000
0100
0000
0001
0000
1000
0001
0000
1000
0001
0000
,
0100
0010
0100
0010
0100
0010
0100
0001
,
1000
0100
0010
0001
1000
0100
1000
0001
,
0100
0000
0001
1000
0001
0000
1000
0000
0100
0000
0010
0100
1000
0000
0001
0100
,
0010
1000
0010
0100
0001
1000
0001
1000
0100
0010
0001
1000
0100
1000
0001
0100
,
0001
0000
1000
0000
0100
0000
0010
0000
0100
1000
0001
0100
0001
0000
0100
0000
,
0010
0000
1000
0000
0010
0000
1000
0000
0001
0100
0001
1000
0100
0010
0100
1000
,
0001
0010
0100
1000
0001
1000
0010
0100
0001
1000
0010
0100
0001
0000
0100
0000
,
0001
0000
1000
0000
0100
0000
1000
0000
0001
0000
0100
0001
0000
0100
0010
0000
,
1000
0100
1000
0100
1000
0100
1000
0100
,
0010
0001
1000
0010
0100
0010
1000
0001
1000
0000
0010
0000
0100
0000
0001
0000
,
1000
0000
0010
0100
0010
0000
1000
0000
0100
0000
0010
0001
1000
0000
0001
0100
,
0010
1000
0010
0100
0001
1000
0100
0010
0001
1000
0100
1000
0001
0100
0010
0100
,
0001
0000
0010
0000
0100
0000
0010
0000
0100
1000
0001
1000
0010
0000
0100
0000
,
0001
0000
1000
0000
0010
0000
0100
0000
0001
1000
0100
0010
0001
1000
0100
1000
,
0001
0100
0010
0100
0001
1000
0100
0010
0001
1000
0100
1000
0001
0000
0010
0000
,
0001
0000
1000
0000
0001
0000
0010
0000
0100
0000
1000
0100
0000
1000
0001
0000
,
0010
0100
0010
0100
0010
0100
0010
0100
,
1000
0000
0001
0100
0001
0000
1000
0100
0010
0000
0001
1000
0001
0000
0100
0000
,
0010
0000
1000
0001
1000
0000
0001
0000
0010
0000
0100
1000
0001
0000
0100
0001
,
1000
0000
0010
0000
0100
0000
0010
0000
1000
0000
0001
1000
0000
0001
0100
0000
,
0010
0000
1000
0000
0010
0000
1000
0000
0100
0010
0001
1000
0001
0000
0100
0000
,
0010
0000
1000
0000
0001
0000
0100
0000
0001
1000
0100
1000
0001
0100
0010
0100
,
0001
1000
0001
0010
0100
1000
0001
1000
0010
0100
0010
1000
0001
0000
0010
0000
,
0001
0000
0100
0000
0001
0000
1000
0000
0001
0000
0100
0001
0000
0100
0010
0000
,
1000
0100
1000
0100
1000
0100
1000
0100
,
0020
0030
0000
0000
0002
0003
0000
0000
2000
3000
0000
0000
0020
0030
0000
0000
,
0200
0300
0000
0000
0000
0000
0000
0000
0001
0000
0000
0000
0000
0000
0000
0000
1000
0000
0000
0000
0100
0000
0000
0000
0000
0000
0000
0000
1000
0000
0000
0000
,
0001
0100
0010
1000
0100
0010
0100
1000
,
0001
0100
0010
1000
0010
0100
0001
0010
,
0100
0010
0001
0010
0100
1000
0010
0100
,
0001
0000
1000
0010
0100
0000
0001
0000
0010
0000
0100
1000
0001
0000
1000
0100
,
0010
0001
1000
0010
0100
0001
0010
0100
,
1000
0100
1000
0001
0100
0010
0100
0001
,
0010
0000
0010
0001
0000
0001
1000
0000
,
1000
0000
0010
0100
0001
0000
1000
0000
0001
0000
0010
0100
1000
0000
0010
0100
,
0001
0010
0001
1000
0010
0100
0010
1000
,
0001
0010
0100
1000
0100
0010
0100
1000
,
0001
0100
0010
1000
0010
0100
0001
1000
,
0100
0000
1000
0010
0100
0000
0001
0000
0010
0000
0100
1000
0001
0000
1000
0001
,
1000
0010
0100
0010
1000
0001
0010
0100
,
1000
0100
0010
0100
1000
0001
0100
0010
,
1000
0000
1000
0001
0000
0001
0100
0000
,
0100
0000
0010
1000
0001
0000
1000
0000
0001
0000
0100
0010
1000
0000
0100
1000
,
0001
1000
0010
0100
0001
0010
0100
1000
,
0100
0010
0001
0100
0010
1000
0001
0010
,
0100
0010
0001
1000
0001
0100
0010
1000
,
0001
0000
0010
0100
1000
0000
0001
0000
0100
0000
0010
1000
0010
0000
0100
0010
,
1000
0001
0100
0010
1000
0100
0010
0001
,
0010
0100
0010
0001
0100
0010
1000
0001
,
0010
0000
0010
0001
0000
0001
1000
0000
,
1000
0000
0010
0100
0001
0000
0010
0000
0100
0000
1000
0100
0010
0000
0001
1000
,
0001
0010
0100
1000
0010
0100
0001
1000
,
0001
0100
0010
1000
0100
0010
0001
0100
,
0010
1000
0001
0010
0100
0010
0001
1000
,
0001
0000
0100
0010
1000
0000
0001
0000
0010
0000
0100
1000
0001
0000
1000
0010
,
1000
0100
0010
0001
1000
0001
0100
0010
,
1000
0100
1000
0001
0010
0001
0100
0010
,
1000
0100
1000
0100
0010
0001
0100
0001
,
1000
0000
0001
0100
0010
0000
1000
0000
0001
0000
0010
0100
1000
0000
0010
0100
,
0001
1000
0001
1000
0010
0100
0001
0010
,
0100
1000
0100
1000
0001
0100
0010
0100
,
0001
0000
0001
1000
0000
1000
0100
1000
,
0010
0000
0010
1000
0000
0000
1001
0000
,
0002
0000
0000
0023
0000
0000
0230
0000
,
2300
0000
3000
0000
2002
3003
0000
0000
2002
0000
0000
0000
0000
0000
0000
0000
,
3003
0000
0000
0000
;

//---------------dance-single - 10 (CTalon)----------------
#NOTES:
     dance-single:
     10 (CTalon):
     Easy:
     10:
     1.000,1.000,0.203,0.554,0.284,1647.000,45.000,123.000,0.000,0.000:
1000
0100
1000
0010
0100
0001
0010
0100
,
1000
0010
1000
0001
0010
0100
1000
0010
,
0100
0001
0010
0001
1000
0100
0010
0001
,
0100
0000
0001
1000
0001
0000
0010
0000
0100
0000
1000
0010
0100
0000
0010
1000
,
0001
0100
0001
0010
0100
1000
0010
0100
,
0001
0010
0001
0100
0010
1000
0100
1000
,
2002
3003
0000
0000
0202
0303
0000
0000
0220
0330
0000
0000
2020
3030
0000
0000
,
1000
0100
0010
0100
1000
1000
0001
0000
,
1000
0100
0010
0100
1000
0010
0100
0010
,
1000
0001
0010
0100
0010
0001
0100
0010
,
1000
0100
1000
0010
0100
0001
0010
0100
,
1000
0000
0001
1000
0001
0000
0010
0000
0100
0000
1000
0001
0010
0000
0100
1000
,
0001
0010
0100
0010
0001
0100
0010
0100
,
0001
1000
0100
0010
0100
1000
0001
0100
,
0202
0303
0000
0000
2020
3030
0000
0000
2002
3003
0000
0000
0202
0303
0000
0000
,
0100
0001
0010
0100
1000
1000
0001
0000
,
1000
0100
1000
0010
0100
0001
0010
0100
,
1000
0010
1000
0001
0010
0100
1000
0010
,
0100
0001
0010
0001
1000
0100
0010
0001
,
0100
0000
0001
1000
0001
0000
0010
0000
0100
0000
1000
0010
0100
0000
0010
1000
,
0001
0100
0001
0010
0100
1000
0010
0100
,
0001
0010
0001
0100
0010
1000
0100
1000
,
2002
3003
0000
0000
0202
0303
0000
0000
0220
0330
0000
0000
2020
3030
0000
0000
,
1000
0100
0010
0100
1000
1000
0001
0000
,
1000
0100
0010
0100
1000
0010
0100
0010
,
1000
0001
0010
0100
0010
0001
0100
0010
,
1000
0100
1000
0010
0100
0001
0010
0100
,
1000
0000
0001
1000
0001
0000
0010
0000
0100
0000
1000
0010
0100
0000
0001
0010
,
0100
1000
0010
0100
0010
1000
0100
0010
,
0001
1000
0010
0100
0010
1000
0001
0100
,
0202
0303
0000
0000
2020
3030
0000
0000
2002
3003
0000
0000
0202
0303
0000
0000
,
0100
0001
0010
0100
1000
0001
0200
0300
,
0001
0010
0001
1000
0010
0100
0001
0010
,
0100
0010
0001
1000
0010
0100
0001
0010
,
0001
1000
0010
1000
0100
1000
0001
0100
,
0010
0000
1000
0100
0010
0000
0001
0000
1000
0000
0010
0100
0001
0000
0100
0001
,
1000
0010
0100
0001
1000
0100
0010
0001
,
0100
0010
1000
0100
1000
0001
1000
0010
,
1000
0000
1000
0100
0000
0100
1000
0000
,
1000
0000
0001
0100
0010
0000
1000
0000
0001
0000
0010
0100
1000
0000
0010
0100
,
0001
1000
0100
1000
0001
0010
0100
1000
,
0010
0100
0001
0100
0001
0010
0100
1000
,
0100
0010
0100
1000
0001
0100
0010
1000
,
0010
0000
1000
0001
1000
0000
0100
0000
0010
0000
0001
0010
0100
0000
0010
0001
,
1000
0010
0100
0001
0010
0100
1000
0100
,
1000
0001
0100
0010
1000
0100
0010
0001
,
1000
0100
1000
0100
1000
0010
0100
0001
,
1000
0000
0100
0010
0001
0000
1000
0000
0010
0000
0100
0001
0100
0000
0010
1000
,
0001
0100
0001
0100
0010
1000
0100
0010
,
0001
1000
0001
1000
0010
0100
0001
0010
,
0100
0000
0100
1000
0000
1000
0001
0100
,
0010
0000
0010
1000
0000
0000
1001
0000
,
0002
0000
0000
0023
0000
0000
0230
0000
,
2300
0000
0000
3000
2002
3003
0000
0000
2002
3003
0000
0000
0000
0000
0000
0000
,
0001
0010
0001
0100
0010
1000
0100
0010
,
0001
0100
0001
1000
0100
0010
0001
0100
,
0010
1000
0100
1000
0001
0010
0100
1000
,
0010
0000
1000
0001
1000
0000
0100
0000
0010
0000
0001
0100
0010
0000
0100
0001
,
1000
0010
1000
0100
0010
0001
0100
0010
,
1000
0100
1000
0010
0100
0001
0010
0001
,
2002
3003
0000
0000
2020
3030
0000
0000
0220
0330
0000
0000
0202
0303
0000
0000
,
0001
0010
0100
0010
0001
0001
1000
0000
,
0001
0010
0100
0010
0001
0100
0010
0100
,
0001
1000
0100
0010
0100
1000
0010
0100
,
0001
0010
0001
0100
0010
1000
0100
0010
,
0001
0000
1000
0001
1000
0000
0100
0000
0010
0000
0001
1000
0100
0000
0010
0001
,
1000
0100
0010
0100
1000
0010
0100
0010
,
1000
0001
0010
0100
0010
0001
1000
0010
,
2020
3030
0000
0000
0202
0303
0000
0000
2002
3003
0000
0000
2200
3300
0000
0000
,
2000
3000
0000
0000
0000
0000
0000
0000
0000
0000
0000
0000
0000
0000
0000
0000
,
0100
1000
0010
0100
0001
0010
0100
1000
,
0001
0100
0010
0100
0001
1000
0100
0010
,
0001
1000
0100
0010
0100
1000
0010
0100
,
0001
0000
1000
0100
1000
0000
0001
0000
0100
0000
0010
1000
0001
0000
0010
0100
,
1000
0001
0100
0010
0100
0001
1000
0100
,
0010
0001
1000
0010
0100
0001
1000
0100
,
2200
3300
0000
0000
2002
3003
0000
0000
0202
0303
0000
0000
0220
0330
0000
0000
,
0100
0000
0001
0000
0010
0010
0100
0000
,
1000
0100
1000
0010
0100
0001
0010
0100
,
1000
0001
0100
0010
0100
0001
1000
0010
,
0100
0000
0001
1000
0001
0000
1000
0000
0100
0000
0010
0100
1000
0000
0001
0100
,
0010
0100
0001
1000
0100
1000
0001
0100
,
0010
0100
0001
1000
0100
0010
0001
0100
,
0010
0100
0001
1000
0001
0010
0100
1000
,
0002
0003
0000
0000
0020
0030
0000
0000
0200
0300
0000
0000
2000
3000
0000
0000
,
0001
0000
1000
0100
0010
0100
1000
0000
,
0001
0100
0010
0100
0001
1000
0100
0010
,
0001
1000
0100
1000
0010
0100
0001
1000
,
0001
0010
0100
1000
0001
0100
0010
0100
,
0001
0000
1000
0100
1000
0000
0001
0000
0100
0000
0010
1000
0100
0000
0010
0001
,
1000
0010
0100
0010
1000
0001
0010
0100
,
1000
0001
0100
0010
1000
0100
0010
0001
,
2002
3003
0000
0000
2020
3030
0000
0000
0220
0330
0000
0000
0202
0303
0000
0000
,
0001
0001
0010
0100
1000
0001
2000
3000
,
0010
0100
0010
1000
0100
0010
0100
1000
,
0001
0100
0010
0100
0001
0010
0100
1000
,
0001
0100
0001
0010
0100
0010
0001
1000
,
0010
0000
1000
0001
1000
0000
0001
0000
0010
0000
0100
1000
0001
0000
0100
0010
,
1000
0001
0100
0001
0010
0100
1000
0001
,
0100
0010
0100
0001
1000
0100
0010
0001
,
2002
3003
0000
0000
2020
3030
0000
0000
0202
0303
0000
0000
0220
0330
0000
0000
,
0020
0000
0000
0000
0000
0000
0000
0000
0030
0000
0000
0000
0000
0000
0000
0000
0000
0000
0000
0000
0000
0000
0000
0000
0000
0000
0000
0000
0000
0000
0000
0000
0000
0000
0000
0000
0000
0000
0000
0000
0000
0000
0000
0000
0000
0000
0000
0000
2000
0000
0000
0000
0000
0000
3000
0000
0000
0000
0000
0000
0000
0000
0000
0000
0000
0000
0000
0000
0000
0000
0000
0000
0000
0000
0000
0000
0000
0000
0000
0000
0000
0000
0000
0000
0000
0000
0000
0000
0000
0000
0000
0000
0000
0000
0000
0000
0002
0000
0000
0003
0000
0000
0000
0000
0000
0000
0000
0000
0000
0000
0000
0000
0000
0000
0000
0000
0000
0000
0000
0000
0000
0000
0000
0000
0000
0000
0000
0000
0000
0000
0000
0000
0000
0000
0000
0000
0000
0000
0000
0000
0000
0000
0000
0000
0000
0000
0000
0000
0000
0000
0000
0000
0000
0000
0000
0000
0000
0000
0000
0000
0000
0000
0000
0000
0000
0000
0000
0000
0000
0000
0000
0000
0000
0000
0000
0000
0000
0000
0000
0000
0000
0000
0000
0000
0000
0000
0000
0000
0000
0000
0000
0000
,
1000
0001
0010
0100
0010
0001
1000
0010
,
0100
0001
0010
0001
1000
0001
0010
0100
,
1000
0010
0100
0010
1000
0100
0010
0001
,
1000
0000
0010
0100
0001
0000
0010
0000
0100
0000
1000
0100
0010
0000
0001
1000
,
0010
1000
0001
0010
0100
0010
0001
0100
,
0010
1000
0001
0010
0001
0010
0100
1000
,
0010
0000
0010
1000
0000
1000
0100
0000
,
0100
0000
0010
0001
0010
0000
0001
0000
1000
0000
0010
0100
0001
0000
0010
0100
,
1000
0001
1000
0010
0100
0010
1000
0100
,
0010
0001
0010
0001
0100
0010
0100
0001
,
0010
0100
1000
0100
0010
0001
1000
0010
,
1000
0000
0010
1000
0001
0000
0010
0000
0100
0000
1000
0100
0010
0000
0100
0010
,
0001
1000
0010
0100
0001
0100
0010
0100
,
0001
0010
0100
1000
0100
1000
0010
0100
,
0001
0000
0001
0010
0000
0010
0100
0000
,
0100
0000
1000
0001
0100
0000
0010
0000
1000
0000
0001
0010
0100
0000
0010
0001
,
1000
0010
0100
0001
0010
0100
1000
0001
,
0100
0010
1000
0001
1000
0010
0100
0010
,
1000
0001
0010
0100
1000
0010
1000
0100
,
1000
0000
0100
0010
0001
0000
1000
0000
0010
0000
0100
0001
0100
0000
0010
1000
,
0001
0010
0100
1000
0010
1000
0100
0010
,
0001
0010
0001
1000
0010
0100
0001
0100
,
0010
0000
0010
1000
0000
1000
0100
0000
,
0100
0000
0010
0001
1000
0000
0001
0000
0100
0000
0001
0010
0100
0000
1000
0001
,
1000
0100
0010
0100
1000
0001
0100
0010
,
0100
0001
0010
0100
1000
0010
0100
0010
,
1000
0100
1000
0001
0100
0001
1000
0100
,
1000
0000
0010
0100
0001
0000
1000
0000
0001
0000
0010
0100
1000
0000
0001
1000
,
0001
0010
0100
0010
0001
1000
0010
0100
,
0001
0010
0100
0010
0001
0010
0100
1000
,
0010
0100
0010
0100
0001
1000
0001
0010
,
0001
0000
1000
0010
0100
0000
0001
0000
1000
0000
0100
0010
0001
0000
1000
0010
,
1000
0001
1000
0001
0100
0010
1000
0001
,
0100
0001
0100
0001
0010
0001
0100
0010
,
1000
0000
1000
0100
0000
0100
0010
0001
,
1000
0000
1000
0010
0000
0000
1010
0000
,
2000
0000
0000
3002
0000
0000
0023
0000
,
0230
0000
0300
0000
2200
3300
0000
0000
2002
0000
3003
0000
0000
0000
0000
0000
,
0001
0000
0100
0000
0001
0000
1000
0000
0100
0000
1000
0100
0000
1000
0001
0000
,
0100
0000
0010
0000
0100
0000
0010
0000
1000
0001
1000
0001
1000
0000
0001
0000
,
0100
0001
1000
0100
1000
0001
1000
0010
,
0100
0000
0001
1000
0001
0000
1000
0000
0100
0000
1000
0001
0100
0000
0001
0010
,
0100
0000
1000
0000
0010
0000
0100
0000
0001
0000
1000
0001
0000
1000
0001
0000
,
0100
0010
0100
0010
0100
0010
0100
0001
,
2000
3000
0000
0000
0020
0030
0000
0000
2000
3000
0000
0000
0002
0003
0000
0000
,
0100
0000
0001
1000
0001
0000
1000
0000
0100
0000
0010
0100
1000
0000
0001
0100
,
0001
0000
1000
0000
0010
0000
0100
0000
0001
0000
1000
0001
0000
1000
0100
0000
,
0010
0000
0001
0000
0010
0000
0100
0000
1000
0001
1000
0001
1000
0000
0010
0000
,
0100
0001
0100
0001
1000
0001
0100
0001
,
1000
0001
0010
0001
0100
0010
1000
0100
,
1000
0000
0001
0000
0010
0000
0001
0000
1000
0000
0010
1000
0000
0010
0100
0000
,
0001
0010
0001
0010
0001
0010
0001
0010
,
0200
0300
0000
0000
2000
3000
0000
0000
0002
0003
0000
0000
0200
0300
0000
0000
,
0001
0000
0100
0010
0100
0000
0001
0000
0010
0000
0100
1000
0001
0000
1000
0010
,
1000
0000
0001
0000
1000
0000
0100
0000
0010
0000
0001
0010
0000
0001
1000
0000
,
0010
0000
0100
0000
0010
0000
0100
0000
0001
1000
0001
1000
0001
0000
0100
0000
,
0001
1000
0010
0100
0001
0010
0001
1000
,
0001
0100
0010
1000
0100
0010
0001
0100
,
0001
0000
1000
0000
0001
0000
0010
0000
0100
0000
1000
0100
0000
1000
0001
0000
,
0010
0100
0010
0100
0010
0100
0010
0100
,
2000
3000
0000
0000
0002
0003
0000
0000
0200
0300
0000
0000
0020
0030
0000
0000
,
0100
0000
0001
1000
0001
0000
1000
0000
0100
0000
0010
0001
1000
0000
0010
1000
,
0001
0000
0100
0000
0010
0000
0100
0000
0001
0000
1000
0001
0000
1000
0010
0000
,
0100
0000
0001
0000
0100
0000
0001
0000
1000
0001
1000
0001
1000
0000
0010
0000
,
0100
0001
1000
0010
1000
0100
1000
0001
,
0010
0100
1000
0010
0100
0001
1000
0100
,
1000
0000
0010
0000
1000
0000
0001
0000
1000
0000
0010
1000
0000
0010
0100
0000
,
0001
0010
0001
0010
0001
0010
0001
0010
,
0200
0300
0000
0000
2000
3000
0000
0000
0002
0003
0000
0000
0200
0300
0000
0000
,
0020
0030
0000
0000
0000
0000
0000
0000
1000
0000
0000
0000
0000
0000
0000
0000
0001
0000
0000
0000
0010
0000
0000
0000
0000
0000
0000
0000
0001
0000
0000
0000
,
1000
0010
0100
0001
0010
0100
0010
0001
,
1000
0010
0100
0001
0100
0010
1000
0100
,
0010
0100
1000
0100
0010
0001
0100
0010
,
1000
0000
0001
0100
0010
0000
1000
0000
0100
0000
0010
0001
1000
0000
0001
0010
,
0100
1000
0001
0100
0010
1000
0100
0010
,
0001
0010
0001
1000
0010
0100
0010
1000
,
0100
0000
0100
1000
0000
1000
0001
0000
,
0001
0000
0100
0010
1000
0000
0001
0000
1000
0000
0100
0010
0001
0000
0100
0010
,
1000
0100
1000
0001
0100
0010
0100
0001
,
1000
0100
0010
0001
0010
0100
0010
0001
,
1000
0010
0100
0001
0100
0010
1000
0001
,
0010
0000
0001
0100
0010
0000
1000
0000
0100
0000
0010
0001
1000
0000
0001
1000
,
0001
0100
0010
0100
0001
1000
0100
0010
,
0001
0010
0100
0010
0001
1000
0010
0100
,
0001
0000
0001
1000
0000
1000
0010
0000
,
0010
0000
0100
0001
1000
0000
0001
0000
1000
0000
0010
0100
0001
0000
0010
0001
,
1000
0001
0100
0010
1000
0100
0010
0001
,
0010
0100
1000
0010
0100
0001
1000
0100
,
0010
0100
1000
0001
1000
0010
0100
0001
,
1000
0000
0100
0010
0001
0000
1000
0000
0010
0000
0100
0001
0100
0000
0010
0100
,
0001
1000
0010
0100
0001
0010
0100
1000
,
0100
0010
0100
1000
0010
0100
0001
1000
,
0100
0000
0100
1000
0000
1000
0001
0000
,
0001
0000
0100
0010
1000
0000
0100
0000
0010
0000
0001
0010
0100
0000
1000
0001
,
1000
0100
0010
0001
0100
0010
1000
0001
,
1000
0010
0100
0001
0010
0100
1000
0010
,
0100
0001
1000
0100
0010
0100
1000
0001
,
1000
0000
0010
0100
0001
0000
1000
0000
0100
0000
0010
0001
1000
0000
0001
0100
,
0001
0010
0100
1000
0001
1000
0010
0100
,
0001
0010
0001
1000
0100
1000
0010
0100
,
0001
0010
0001
0010
0100
1000
0010
1000
,
0001
0000
1000
0010
0100
0000
0001
0000
1000
0000
0100
0010
0001
0000
0100
0010
,
1000
0001
1000
0001
0100
0010
1000
0100
,
0010
0001
0010
0001
1000
0010
0100
0010
,
1000
0000
1000
0001
0000
0001
0010
0001
,
0100
0000
0100
0001
0000
0000
1001
0000
,
2000
0000
0000
3200
0000
0000
0320
0000
,
0032
0000
0003
0000
2002
3003
0000
0000
2002
0000
0000
0000
0000
0000
0000
0000
,
3003
0000
0000
0000
;
