#TITLE:Ecreation;
#SUBTITLE:;
#ARTIST:Scott Brown;
#TITLETRANSLIT:;
#SUBTITLETRANSLIT:;
#ARTISTTRANSLIT:;
#CREDIT:;
#BANNER:ecreation.banner.jpg;
#BACKGROUND:ecreation.bg.jpg;
#LYRICSPATH:;
#CDTITLE:KOMBO.png;
#MUSIC:Ecreation.mp3;
#OFFSET:-0.112;
#SAMPLESTART:17.280;
#SAMPLELENGTH:25.940;
#SELECTABLE:YES;
#BPMS:0.000=167.500,38.000=83.750,39.000=167.500,53.000=83.750,54.000=167.500,186.000=83.800,187.000=167.600;
#STOPS:;
#BGCHANGES:;
// cache tags:
#FIRSTBEAT:16.000;
#LASTBEAT:253.250;
#SONGFILENAME:Songs/Definitive Keyboard Megapack/Ecreation[KOMBO]/Ecreation.sm;
#HASMUSIC:1;
#HASBANNER:1;
#MUSICLENGTH:102.042;
// end cache tags

//---------------dance-single - DESAFÍO----------------
#NOTES:
     dance-single:
     DESAFÍO:
     Challenge:
     17:
     1.000,1.000,1.000,0.108,1.000,723.000,221.000,11.000,0.000,2.000:

0000
0000
0000
0000
,
0000
0000
0000
0000
,
0000
0000
0000
0000
,
0000
0000
0000
0000
,
2002
3003
0010
0000
1001
0000
0100
0000
1001
0000
0010
0000
1001
0000
0100
0000
,
1001
0010
1001
0100
1001
0010
1001
0100
,
1001
0010
1001
0100
1001
0010
1001
0100
,
0101
1000
0010
1000
0010
1000
0010
1000
0010
1000
0010
1000
0010
1000
0010
1000
,
0001
0000
0010
0010
0010
0010
0010
1000
0000
0100
0000
1000
0001
0001
0010
0010
,
0010
0000
0100
0010
0100
1000
0010
0010
0210
0000
0000
0000
1300
0000
0001
0001
,
0001
0001
0001
0010
0000
1000
0000
0010
0100
0100
0001
0001
0001
0000
1000
0001
,
0010
0100
0001
0001
0210
0300
0000
0200
0300
0000
0200
0300
1001
0000
0010
0010
,
0110
0010
0010
1000
0011
0100
0000
1000
1001
0001
0010
0010
1010
0000
0100
0010
,
1001
1000
0010
0010
0210
0000
0000
0000
0301
0000
0010
0010
0110
0010
0010
1000
,
0011
0100
0000
1000
1001
0001
0010
0010
0110
0000
0100
0010
0100
1000
0010
0010
,
0011
1100
0011
1100
0011
1100
0011
1100
1001
0000
0010
0010
1010
0010
0010
1000
,
1100
0100
0000
1000
1001
0001
0010
0010
0110
0000
0100
0100
0110
0100
0100
0010
,
0000
0010
0000
1000
1000
1000
0001
0001
1001
0000
0010
0010
1010
0010
0010
1000
,
1100
0100
0000
1000
1001
0001
0010
0010
0110
0000
0100
0100
0110
0100
0100
0010
,
0000
0010
0000
1000
1000
1000
0001
0001
1001
0000
0010
0010
1010
0010
0010
1000
,
1100
0100
0000
1000
1001
0001
0010
0010
0110
0000
0100
0100
0110
0100
0100
0010
,
0000
0010
0000
1000
1000
1000
0001
0001
1001
0000
0010
0010
1010
0010
0010
1000
,
1100
0100
0000
1000
1001
0001
0010
0010
0110
0000
0100
0100
0100
0100
0100
0010
,
0000
0000
0010
0000
0000
0000
0010
0000
1000
0001
1000
0001
1000
0001
1000
0001
1001
0000
0000
0000
0001
0000
0001
0000
1100
0000
1000
0000
0010
0000
0010
0000
,
0101
0001
0000
1000
1001
0001
0100
0100
0110
0000
0100
0100
0110
0010
0010
0001
,
1001
1000
0000
0100
0101
0001
0010
0010
1001
0000
0010
0010
0101
0100
1000
1000
,
0011
0010
0000
0100
0110
0010
0001
0001
1001
0000
0001
0001
1001
1000
1000
0010
,
0110
0100
0000
0001
0011
0010
1000
1000
1001
0000
1000
1000
0011
0001
0100
0100
,
1010
1000
0000
0001
1001
1000
0010
0010
0110
0000
0010
0010
0110
0100
0100
1000
,
1001
0001
0000
0010
1010
1000
0100
0100
1001
0000
0001
0001
1100
1000
0010
0010
,
0101
0001
0000
1000
1001
0001
0100
0100
0110
0000
0000
0000
0000
0000
0000
0000
,
0010
0100
0010
0100
0010
0100
0010
0100
0010
0100
0010
0100
0010
0100
0010
0100
1001
0000
0000
0000
0000
0000
1000
0000
0110
0000
0001
0000
0000
0000
0000
0000
,
0011
0000
0010
0000
1100
0000
0100
0000
0011
0000
0000
0010
1100
0010
0000
0000
,
0011
0000
0010
0000
1001
0000
1010
0000
0011
0000
0000
0010
0101
0010
0000
0000
,
0011
0000
0100
0000
1010
0000
0100
0000
0011
0000
0000
0010
1100
0010
0000
0000
,
0110
0000
0000
0000
1001
0000
0110
0000
1001
0000
0000
1000
0011
1000
0000
0000
,
0011
0000
0010
0000
1100
0000
0010
0000
1001
0000
0000
0010
1001
0010
0000
0000
,
1100
0000
0001
0000
1100
0000
0011
0000
1100
0000
0000
0001
1100
0001
0000
0000
,
1100
0000
0001
0000
0110
0000
1000
0000
0011
1100
0011
1100
0011
1100
0011
1100
,
0011
1100
0011
1100
0011
1100
0011
1100
0011
0000
0001
1000
0110
0001
0100
0000
,
0011
0000
0010
0000
1100
0000
0100
0000
0011
0000
1000
0010
1100
0010
0100
0000
,
0011
0000
0010
0000
1001
0000
1010
0000
0011
0000
1000
0010
0101
0010
0001
0000
,
0011
0000
0100
0000
1010
0000
0100
0000
0011
0000
0100
0010
1100
0010
1000
0000
,
0110
0000
0010
0000
1001
0000
0110
0000
1001
0000
0010
1000
0011
1000
0010
0000
,
0011
0000
0010
0000
1100
0000
1000
0000
1001
0000
1000
0010
1001
0010
1000
0000
,
1100
0000
0001
0000
1100
0000
0011
0000
1100
0000
1000
0001
1100
0001
1000
0000
,
1100
0000
0001
0000
0110
0000
0010
0010
0210
0000
0000
0000
1310
0101
1010
0101
,
1010
0101
1010
0101
1010
0000
0010
0010
1010
0010
0010
1000
1100
0100
0000
1000
,
1001
0001
0010
0010
0110
0000
0100
0100
0110
0100
0100
0010
0000
0010
0000
1000
,
1000
1000
0001
0001
1001
0000
0100
0100
0101
0100
0100
0001
0011
0010
0000
0001
,
1001
1000
0100
0100
0110
0000
0010
0010
0110
0010
0010
0100
0000
0100
0000
0001
,
0001
0001
1000
1000
1001
0000
0010
0010
1010
0010
0010
1000
1100
0100
0000
1000
,
1001
0001
0010
0010
0110
0000
0100
0100
0110
0100
0100
0010
0000
0010
0000
1000
,
1000
1000
0001
0001
1001
0000
0010
0010
1010
0010
0010
1000
1100
0100
0000
1000
,
1001
0001
0010
0010
0110
0000
0100
0100
0110
0100
0100
0010
0000
0100
0000
0100
,
0001
1000
0001
1000
0001
1000
0001
1000
1001
0000
0000
0000
0010
0000
0010
0000
1010
0000
0010
0000
0010
0000
1000
0000
1100
0000
0100
0000
0000
0000
1000
0000
,
1001
0001
0010
0010
0110
0000
0100
0100
0110
0100
0100
0010
0000
0010
0000
1000
,
1000
1000
0001
0001
0110
0000
1000
1000
1100
1000
1000
0100
0101
0001
0000
0100
,
0110
0010
1000
1000
1001
0000
0001
0001
1001
0001
0001
1000
0000
1000
0000
0100
,
0100
0100
0010
0010
1010
0000
0001
0001
1001
0001
0001
1000
1100
0100
0000
1000
,
1010
0010
0001
0001
0101
0000
0100
0100
0101
0100
0100
0001
0000
0001
0000
1000
,
1000
1000
0010
0010
1010
0000
0010
0010
1010
0010
0010
1000
1100
0100
0000
1000
,
1001
0001
0010
0010
0110
0000
0000
0000
0000
0000
0000
0000
0000
0000
0000
0000
,
0020
0000
0000
0000
2032
3003
0000
0000
0000
0000
0000
0000
0000
0000
0000
0000
;
