#TITLE:[3-1] Neon Love;
#SUBTITLE:;
#ARTIST:Metea11;
#TITLETRANSLIT:;
#SUBTITLETRANSLIT:;
#ARTISTTRANSLIT:;
#CREDIT:Aoreo;
#BANNER:../Beast 4 - bn.png;
#BACKGROUND:../Beast 4 - bg.png;
#LYRICSPATH:;
#CDTITLE:;
#MUSIC:Neon Love.ogg;
#OFFSET:0.007;
#SAMPLESTART:37.143;
#SAMPLELENGTH:12.000;
#SELECTABLE:YES;
#BPMS:0.000=168.000;
#STOPS:;
#BGCHANGES:;
// cache tags:
#FIRSTBEAT:16.000;
#LASTBEAT:355.500;
#SONGFILENAME:Songs/Beast Aoreo BEAST! 4/Neon Love - [Aoreo]/Neon Love.sm;
#HASMUSIC:1;
#HASBANNER:1;
#MUSICLENGTH:129.642;
// end cache tags

//---------------dance-single - J. Nero----------------
#NOTES:
     dance-single:
     J. Nero:
     Challenge:
     16:
     1.000,1.000,0.039,0.239,1.000,1076.000,5.000,31.000,0.000,0.000:
0000
0000
0000
0000
,
0000
0000
0000
0000
,
0000
0000
0000
0000
,
0000
0000
0000
0000
,
0001
0100
0010
0000
0001
0100
0010
0000
,
0001
0100
0010
0000
0001
0100
0010
0010
,
1000
0100
0010
0000
1000
0100
0010
0000
,
1000
0100
0010
0000
1000
0100
0010
0010
,
0001
1000
0001
0100
0010
0100
0001
1000
0001
0100
0010
1000
0100
1000
0100
0010
,
0001
1000
0010
1000
0100
0010
0001
1000
0100
1000
0010
1000
0100
0010
0001
1000
,
0001
0010
0100
1000
0010
1000
0001
0100
0010
0100
0010
1000
0100
0010
0001
1000
,
0001
0100
0010
1000
0100
1000
0001
0010
0100
1000
0010
1000
0100
0010
0001
0010
,
0100
1000
0100
1000
0010
0100
0001
1000
0001
0010
0100
1000
0010
0100
0001
1000
,
0100
1000
0001
0100
0010
0100
0001
1000
0100
0010
0001
1000
0100
1000
0001
0100
,
0010
0100
0001
1000
0100
0010
0100
1000
0001
0100
0001
1000
0010
0100
0001
0010
,
0100
0010
0001
1000
0001
0100
0010
0100
0001
1000
0001
0010
0100
1000
0001
1000
,
0200
1300
0002
0013
0200
1300
0020
0130
,
0002
0013
0200
1300
0002
0103
0020
1030
,
0001
0000
1000
0100
0010
0000
0100
1000
0001
0000
0100
0001
0100
0010
1000
0001
,
0010
0100
1000
0001
1000
0000
0001
0000
0010
0000
0100
0000
2000
0000
0000
0000
,
3001
0000
0100
0000
0001
0000
0100
0000
0010
0000
1000
0100
1000
0001
0010
0100
,
1000
0000
0001
0100
0001
0100
0010
0000
1000
0000
0001
0010
0100
0010
0001
0000
,
1000
0100
1000
0001
0100
0010
0100
0001
1000
0100
0010
0001
1000
0001
0100
0000
,
0002
0013
0200
1300
0020
0130
0002
1003
,
0010
0100
0001
1000
0100
0010
0001
0100
0000
0001
1000
0000
0001
0100
0010
0100
,
0001
1000
0100
1000
0001
0100
0010
0100
,
0001
1000
0001
1000
0001
1000
0010
0010
,
1000
0100
1000
0100
1000
0100
0010
0010
,
0001
0100
0001
0100
0001
0100
0010
0010
,
1000
0001
1000
0001
1000
0001
0100
0100
,
0001
0100
0001
0010
0100
1000
0001
0100
0001
1000
0010
1000
0100
0010
0001
1000
,
0001
0100
0010
1000
0001
0010
0100
1000
0001
0100
0010
1000
0001
0010
0001
1000
0100
1000
0010
0100
0001
1000
0100
0010
,
0001
1000
0100
1000
0001
0010
0001
0100
0010
1000
0001
1000
0001
0010
0100
1000
,
0010
0100
0001
0100
0001
1000
0010
0100
0001
0000
0010
0000
0100
0000
1000
0000
,
0001
0100
0010
0100
0001
1000
0100
0010
0001
0000
1000
0100
1000
0001
0010
0100
,
1000
0000
0001
0000
0100
0000
0010
0000
1000
0001
1000
0010
0100
0000
0001
0000
,
1000
0001
0010
0100
1000
0010
0100
0001
0100
0001
1000
0100
0010
0001
0100
0010
,
1000
0010
1000
0100
0010
0001
0100
0010
1000
0000
0001
0000
0010
0000
0100
0000
,
1000
0001
0010
0100
1000
0001
0100
0010
1000
0001
0010
0100
1000
0010
0100
0001
,
0100
0000
0010
0000
1000
0000
0001
0000
1000
0100
1000
0100
0000
0000
1000
0000
,
0001
0100
0010
0100
0001
0100
0010
0100
,
0001
1000
0100
1000
0001
1000
0100
1000
,
0010
0100
0010
1000
0010
0100
0010
1000
,
0001
1000
0100
0010
0100
1000
0001
1000
0010
0100
0001
0100
0010
1000
0001
0010
,
0100
1000
0001
1000
0000
0001
0100
0010
0000
1000
0100
1000
0000
0001
0100
0010
,
0000
1000
0100
0010
0000
0001
1000
0100
0000
1000
0001
1000
0000
0001
0100
0001
,
0000
1000
0100
1000
0000
0010
0100
0010
0000
0100
0001
1000
0001
0010
0100
1000
,
0001
1000
0100
1000
0001
0100
0010
0100
0001
1000
0001
0010
0100
1000
0001
0100
,
0001
1000
0010
1000
0010
0100
0001
1000
0001
1000
0100
0010
0001
1000
0001
0100
,
0010
0000
0100
0000
0001
0000
1000
0000
0001
0000
0010
0000
0100
0000
1000
0000
0001
0000
0100
0000
0001
0000
1000
0000
0100
0000
0010
0000
0002
0003
0200
0300
,
0010
1000
0100
0010
0001
1000
0100
1000
0001
0100
0010
1000
0100
1000
0001
0100
,
0010
0000
1000
0000
0100
0000
0010
0000
0001
0000
1000
0000
0100
0000
1000
0000
0010
0000
0100
0000
0002
0003
2000
3000
0000
0000
0200
0300
2000
0000
3000
0000
,
0001
0100
0001
1000
0100
0010
0001
1000
0001
0100
0010
1000
0100
0010
0001
1000
,
0001
0100
0001
0100
0010
1000
0010
1000
,
0001
0100
0001
1000
0100
0010
0100
1000
0001
0100
0010
0100
0001
1000
0001
0010
0100
1000
0001
0100
0001
1000
0100
1000
,
0001
0100
0010
1000
0010
0100
0001
1000
0100
0010
0001
1000
0100
1000
0001
0100
0010
1000
0001
0010
0100
1000
0001
0100
,
0001
1000
0010
1000
0001
0100
0010
0100
0001
1000
0100
0010
0001
1000
0001
0100
0010
0100
0001
1000
0100
0010
0001
1000
,
0100
0000
1000
0000
0001
0000
0100
0000
0010
0000
0100
0000
0001
0000
0010
0000
0100
0000
1000
0000
0001
0000
0100
0000
0001
0000
0000
1000
0000
0000
0001
0000
0000
0010
0000
0000
0100
0000
0000
1000
0000
0000
0001
0000
0000
1000
0000
0000
,
0010
0100
0010
0100
0001
1000
0100
0010
0001
1000
0100
1000
0001
0100
0010
0100
,
0001
0000
0000
0000
0000
0000
0000
0000
0000
0000
0000
0000
0000
0000
0000
0000
0000
0000
0000
0000
0000
0000
0000
0000
1000
0000
0000
0000
0000
0000
0000
0000
0000
0000
0000
0000
0100
0000
0000
0000
0000
0000
0000
0000
0000
0000
0000
0000
0010
0000
0000
0000
0000
0000
0000
0000
0000
0000
0000
0000
0000
0000
0000
0000
0000
0000
0000
0000
0000
0000
0000
0000
0001
0000
0000
0000
0000
0000
0000
0000
0000
0000
0000
0000
0000
0000
0000
0000
0000
0000
0000
0000
0000
0000
0000
0000
4000
0000
0000
0000
0000
0000
3000
0000
0000
0000
0000
0000
0000
0000
0000
0000
0000
0000
0000
0000
0000
0000
0000
0000
4000
0000
0000
0000
0000
0000
3000
0000
0000
0000
0000
0000
0000
0000
0000
0000
0000
0000
0000
0000
0000
0000
0000
0000
0001
0000
0000
0000
0000
0000
0000
0000
0100
0000
0000
0000
0000
0000
0000
0000
0010
0000
0000
0000
0000
0000
0000
0000
0100
0000
0000
0000
0000
0000
0000
0000
0001
0000
0000
0000
0000
0000
0000
0000
0010
0000
0000
0000
0000
0000
0000
0000
,
0100
1000
0001
0100
0010
0100
0001
1000
0010
0100
0001
1000
0100
1000
0010
0100
0010
1000
0100
0010
0001
1000
0001
0100
,
0001
0000
1000
0000
0010
0000
0100
0000
0001
0000
1000
0000
0100
0000
0010
0000
0001
0000
1000
0000
0000
0001
0000
0000
0100
0000
0000
0010
0000
0000
0100
0000
0000
0001
0000
0000
1000
0000
0000
0001
0000
0000
0010
0000
0000
0100
0000
0000
,
1000
0100
0010
0100
1000
0001
0010
0100
1000
0001
0010
0100
0010
0001
1000
0010
,
0100
0001
1000
0001
0100
0010
0100
0001
2000
0000
3200
0000
0320
0000
0000
0030
,
0001
0000
4000
3000
0010
0000
0400
0300
0001
0000
0040
0030
0100
0000
4000
3000
,
0010
0000
0400
0300
0001
0000
0040
0030
0100
0000
0100
0000
1000
0000
0002
0003
,
0100
0000
0020
0030
1000
0000
0002
0003
0010
0000
0200
0300
1000
0000
0020
0030
,
0100
0000
0002
0003
0010
0000
0010
0000
0100
0000
0100
0000
1000
0100
1000
0100
,
1000
0100
1000
0001
0010
0100
1000
0001
1000
0100
0010
0001
1000
0010
1000
0010
,
0100
0001
0100
0001
0100
0001
0100
0001
0100
0001
0100
0001
0100
0001
0100
0001
,
1000
0100
0010
0100
1000
0001
0010
0100
1000
0001
0100
0010
0100
0001
1000
0001
,
0010
0100
1000
0010
0100
0001
0100
0010
1000
0100
0010
0001
1000
0100
1000
0001
,
0010
0100
1000
0010
0100
0001
0100
0010
1000
0100
0010
0001
1000
0001
0100
0010
,
1000
0001
1000
0001
1000
0010
0100
0001
0010
0100
1000
0001
1000
0001
0100
0010
,
0100
0001
0100
0001
0100
0010
1000
0010
1000
0001
1000
0001
1000
0001
0010
0100
,
1000
0001
1000
0001
1000
0100
1000
0100
0010
0001
0010
0001
1000
0001
1000
0001
,
1000
0010
1000
0010
0100
0010
0100
0010
0100
0001
0100
0001
1000
0001
1000
0001
,
1000
0100
1000
0100
0010
0001
0010
0001
1000
0001
1000
0001
0100
0001
0100
0010
,
1000
0100
1100
1000
0001
0010
0110
0100
,
1000
0001
1001
1000
0010
0100
0101
0001
,
2000
3100
0010
0100
1000
0001
0010
0100
,
1000
0001
0100
0010
0100
0001
1000
0100
,
0010
0001
0100
0010
1000
0100
0010
0100
,
1000
0001
0100
0010
0100
0001
1000
0100
,
0010
0001
0100
0010
1000
0001
0010
0100
,
1000
0001
0100
0010
1000
0100
0010
0001
,
1000
0001
0010
0100
0010
0001
1000
0010
,
1000
0001
0100
0010
1000
0001
0010
0100
,
2200
0000
0000
0000
0000
0000
0000
3300
;
