#TITLE:Final Fantasy V,VI,VII,VIII,IX,X Boss Battle Megamix;
#SUBTITLE:;
#ARTIST:植松伸夫;
#TITLETRANSLIT:;
#SUBTITLETRANSLIT:;
#ARTISTTRANSLIT:Nobuo Uematsu;
#CREDIT:;
#BANNER:ffv-x.png;
#BACKGROUND:ffv-x-bg.png;
#LYRICSPATH:;
#CDTITLE:kykaCD.png;
#MUSIC:Final Fantasy V,VI,VII,VIII,IX,X Boss Battle Megamix.mp3;
#OFFSET:-0.080;
#SAMPLESTART:54.300;
#SAMPLELENGTH:13.200;
#SELECTABLE:YES;
#BPMS:0.000=84.100,16.000=168.200,173.500=208.220,206.000=209.720,246.000=208.220,278.000=209.220,326.000=210.220,358.167=168.080,637.750=175.000,969.000=170.000,1289.000=153.000,1469.500=130.440;
#STOPS:;
#BGCHANGES:0.000=FFV.png=1.000=1=0=1,
174.000=FFVI.png=1.000=1=0=1,
358.000=FFVII.png=1.000=1=0=1,
638.000=FFVIII.png=1.000=1=0=1,
969.000=FFIX.png=1.000=1=0=1,
1289.000=FFX.png=1.000=1=0=1,
99999=-nosongbg-=1.000=0=0=0 // don't automatically add -songbackground-
;
// cache tags:
#FIRSTBEAT:0.000;
#LASTBEAT:1518.000;
#SONGFILENAME:Songs/toune 2/kukas/kyka's dwi's.sm;
#HASMUSIC:1;
#HASBANNER:1;
#MUSICLENGTH:544.444;
// end cache tags

//---------------dance-single - ----------------
#NOTES:
     dance-single:
     :
     Hard:
     11:
     0.900,1.000,1.000,0.703,0.536,2426.000,622.000,383.000,0.000,19.000:
1000
0100
0010
0001
0200
0010
1000
0301
0020
0100
1000
0001
0100
1000
0001
0100
,
0031
1000
0100
0010
0002
1000
0100
0013
2000
0100
0010
0001
0001
0010
0001
0100
,
3010
0100
0010
0100
0002
1000
0100
1000
0023
0100
0001
0001
1000
0100
0001
1000
,
0130
0001
1000
0001
0200
0001
0010
0301
2000
0100
0010
0001
0010
0100
0001
0100
,
3010
1000
0010
1000
0010
0100
0010
0100
,
0001
0100
0001
0100
0001
1000
0001
1000
,
0001
0010
0100
1000
0010
0100
0010
1000
,
0001
0100
0001
0010
0100
1000
0010
0100
,
0001
0000
0100
0010
0110
0000
0010
0100
,
0101
0000
1000
0100
0011
0100
1000
0000
,
2002
0000
0000
0000
3003
0010
0100
0010
,
1000
0110
1001
0101
,
1001
0000
1000
0010
0101
0000
0001
0010
,
0110
0000
0010
1000
0101
0000
1000
0001
,
0002
0000
2003
0000
,
3020
0100
0100
0130
,
1000
0000
0010
0100
0110
0000
0100
0010
,
1010
0000
0001
0010
1100
0010
0001
0000
,
2002
0000
0000
0000
3003
0100
0010
0100
,
0001
0110
1001
1010
,
1001
0000
0001
0100
1010
0000
1000
0100
,
0110
0000
0100
0001
1010
0000
0001
1000
,
2000
0000
3002
0000
,
0203
0010
0010
0310
,
1100
1100
0010
0001
0200
0000
0311
0000
,
1001
1001
2000
0000
3020
0000
0131
0000
,
1001
0000
1000
0100
0000
0010
0200
0000
,
0000
1000
1000
1000
,
2300
0000
0000
3020
0000
0000
0230
0000
,
0000
0001
0000
0000
0010
0000
0010
0000
,
0310
0000
1000
0100
0000
1000
0020
0000
,
0000
0100
0100
0100
,
2030
0000
0000
0000
,
0000
0000
0000
0000
,
3001
0100
0010
1000
0100
1000
0010
0100
,
0001
1000
0001
0100
0010
0000
1000
0100
,
1000
0010
0100
0001
1000
0001
0100
0001
,
1000
0010
0100
0000
1000
0010
0100
0001
,
1000
0100
0010
0001
0100
0001
0100
1000
,
0100
0010
0100
0001
1100
0000
0012
0000
,
0100
1000
0010
0100
,
1000
0013
1001
1020
,
0100
1000
0100
0001
,
0100
0000
1030
0000
1100
0001
0100
0101
,
1000
0010
0110
1000
0001
0101
0010
1000
,
1100
0010
0100
0001
1100
0010
0100
0011
,
0010
0100
0110
1000
0001
1001
0100
0001
,
1010
0100
0001
1000
1100
0010
0100
0101
,
1000
0100
0110
1000
0001
0101
1000
0100
,
0110
0001
1001
1000
1100
0001
0100
0101
,
1000
0100
0011
0100
0010
1100
0001
0100
,
1010
0100
0011
0100
1100
0000
0101
0000
,
1100
1100
0000
0110
0000
1001
1001
0000
,
0101
1001
2200
0000
,
0320
0000
0032
0000
,
0203
0000
0000
3300
0110
0000
1100
0000
,
0110
0101
0000
1001
0000
1100
0011
0000
,
0110
0000
0000
0000
1001
0000
0000
0000
1100
0000
1000
0100
1000
0000
0101
0000
,
0000
0000
0000
0000
1001
0000
0010
0100
0010
0000
1100
0000
0000
0000
0000
0000
,
0110
0000
0000
0000
1100
0000
0000
0000
0101
0000
1000
0100
1000
0000
0101
0000
,
0000
0000
0000
0000
1001
0000
0010
0100
0010
0000
1100
0000
0000
0000
0001
0000
,
0110
0010
1001
0100
1100
0010
0100
0001
,
1000
0100
0010
0001
0101
0000
1000
1100
,
0000
0010
0100
0001
1001
0000
1000
0110
,
0000
0001
0010
0100
1000
0001
0100
0001
,
0101
0000
1001
0000
1100
0010
0100
0001
,
1000
0100
1000
0010
0110
0000
1000
0011
,
0000
0010
0100
1000
0010
0000
0100
0101
,
0000
1000
0100
0010
0100
1000
0010
0100
,
1001
1100
0220
0000
,
0330
0000
2200
3300
0022
0000
0033
0220
,
0000
0330
2200
3300
0022
0000
0033
0220
,
0000
0330
2002
3003
0202
0000
0000
0303
,
2200
0000
3300
0220
0000
0000
0330
2200
,
0000
3300
0022
0033
2002
0000
3003
0220
,
0000
0330
2200
3300
0202
0000
0000
0000
,
0000
0000
0000
0000
0303
0000
2200
3300
,
0220
0330
2002
3003
0220
0000
0000
0000
,
0330
0000
2200
3300
0022
0000
0033
0220
,
0000
0330
2200
3300
0022
0000
0033
0220
,
0000
0330
2002
3003
2200
0000
3300
0220
,
0000
0330
0022
0033
2002
0000
0000
0000
,
0000
0000
0000
0000
3003
1001
0010
0001
,
0100
0010
0100
0001
2002
0000
0000
0000
,
0000
0000
0000
0000
,
0000
0000
3003
0000
1100
0000
0000
0110
,
0000
0000
1001
0000
0101
0000
0000
1100
,
0000
0000
0110
0000
1001
0000
0000
0101
,
0000
0000
1001
0000
1100
0100
0010
0110
,
1000
0000
0000
0010
0000
0000
1001
0000
0000
0010
0000
0000
0101
0000
0010
0000
1000
0000
0020
0000
0000
0000
0000
0000
,
0130
0001
1000
0020
0000
0000
0130
0010
1000
0001
0100
0001
,
0010
0001
0100
0010
0000
1000
1100
0010
0100
0002
0000
0000
,
1003
0100
0010
0200
0000
0000
0310
0100
1000
0010
0100
0010
,
0100
0001
0010
0100
0000
0100
1010
0100
0001
0200
0000
0000
,
0310
1000
0001
0200
0000
0000
0310
0100
0001
1000
0010
1000
,
0100
1000
0010
0100
0000
0001
0011
0100
0010
2000
0000
0000
,
3001
0010
0100
0020
0000
0000
0130
0010
0001
0100
0010
0100
,
0010
1000
0100
0010
0000
0010
1002
1000
1000
2000
0000
3000
,
0100
0100
0100
0200
0000
0300
0010
0010
0010
0100
0100
0103
,
1020
1030
0210
0310
2001
3001
0201
0001
0001
0002
0000
0003
,
0010
0010
0010
0020
0000
0030
1000
1000
1000
1000
1000
1300
,
0210
0310
1002
0103
0210
0310
2001
0001
0001
0002
0000
0003
,
0010
0010
0010
0020
0000
0030
0100
0100
0100
0010
0010
3010
,
0201
0301
0120
0130
1002
1003
1020
1000
1000
2000
0000
3000
,
0100
0100
0100
0200
0000
0300
0001
0001
0001
0001
0001
0031
,
0120
0130
2001
3010
0120
0130
1002
0000
1003
0010
0100
0001
,
1000
0100
1000
0010
0100
0001
2001
0000
3001
0100
0010
1000
,
0001
0100
0001
1000
0010
0100
0002
0000
1000
0100
0100
0100
,
0010
0000
0013
0020
0100
0100
0230
0000
0010
0001
0001
0001
,
2300
0000
0010
0010
0010
3010
1100
0000
0001
0100
0001
1000
,
0110
0000
1000
0010
0100
0001
1001
0000
1000
0010
0100
0001
,
0011
0000
0001
0100
0010
1000
2001
0000
3001
0100
0010
1000
,
0001
0010
0001
0100
0010
1000
1002
0000
1003
0010
0100
0001
,
1000
0010
1000
0001
0100
0010
2000
0000
0001
0010
0010
0010
,
0100
0000
3100
0200
0010
0010
0320
0000
0100
1000
1000
1000
,
0032
0000
0100
0100
0100
0103
0011
0000
1000
0010
1000
0001
,
0110
0000
0001
0100
0010
1000
1001
0000
0001
0100
0010
1000
,
1100
0001
1000
0010
0100
0001
1010
0100
0001
1000
0100
1000
,
0010
0100
0001
1000
0010
0100
0001
0010
0001
0010
0001
0100
,
0010
1000
0100
1000
0010
0100
0001
0100
0001
1000
0100
0010
,
0100
1000
0010
0100
0001
1000
0001
0100
0001
1000
0100
0010
,
0100
1000
0010
0200
0000
0300
0101
0010
1000
0001
0010
0001
,
0100
0010
1000
0001
0100
0010
1000
0100
1000
0100
1000
0010
,
0100
0001
0010
0001
0100
0010
1000
0010
1000
0001
0010
0100
,
0010
0001
0100
0010
1000
0001
1000
0010
1000
0001
0010
0100
,
0010
0001
0100
0020
0000
0030
1200
0000
0000
1000
0000
0300
,
0022
0000
0033
0220
0000
0330
1002
0000
1000
1000
0000
0100
,
0100
0000
0010
0010
0000
0103
0220
0000
0330
2002
0000
3003
,
2200
0000
3300
0022
0000
0033
0210
0010
0010
0001
0001
0001
,
0010
0010
0010
0001
0001
0001
2302
0000
0000
3113
0000
0000
,
2200
0000
3300
0220
0000
0330
2001
0000
0001
0001
0000
0010
,
0010
0000
0100
0100
0000
3010
0220
0000
0330
2002
0000
3003
,
0022
0000
0033
2200
0000
3300
1020
0000
0000
1000
0000
0000
,
0100
0000
0000
1000
1000
1000
1031
0000
0100
2002
0000
0000
,
0000
3003
0000
1000
0010
0100
2002
0000
3003
2200
0000
3300
,
0220
0000
0330
0001
0010
0001
0101
0000
0100
0220
0000
0000
,
0000
0000
0330
1000
0001
1000
2200
0300
0000
0020
0030
0000
,
0002
0003
0000
0020
0130
0100
3001
0000
0010
2002
0000
0000
,
0000
3003
0000
0001
0100
0010
2002
0000
3003
0022
0000
0033
,
0220
0000
0330
1000
0100
1000
1010
0000
0010
0220
0000
0000
,
0000
0000
0330
0001
1000
0001
0022
0030
0000
0200
0300
0000
,
2000
3000
0000
0200
0300
0000
2003
0000
0001
0001
0000
0000
,
3020
0000
0000
0100
0100
0100
0230
0000
0000
2000
3000
0000
,
0302
0000
0000
1000
1000
1000
2003
0000
0010
3020
0000
0000
,
0000
0000
0000
2031
0001
0001
3022
0030
0000
0020
0030
0000
,
0020
0030
0000
0020
0030
0000
0203
0000
1000
1000
0000
0000
,
0302
0000
0000
1000
1000
1000
2003
0000
0000
0100
0000
0000
,
3200
0000
0000
0010
0010
0010
0320
0000
0001
0032
0000
0000
,
0000
0000
0000
1203
1000
1000
2320
3000
0000
2000
3000
0000
,
2000
3000
0000
2000
3000
0000
2030
0000
0010
0010
0000
0000
,
3002
0000
0000
0100
0100
0100
0203
0000
0000
0001
0000
0000
,
0302
0000
0000
0010
0010
0010
0023
0000
0001
0032
0000
0000
,
0000
0000
0000
2103
0100
0100
3022
0030
0000
0020
0030
0000
,
0020
0030
0000
0020
0030
0000
0203
0000
0000
0010
0010
0010
,
0320
0000
0000
1000
1000
1000
2030
0000
0000
0001
0001
0001
,
3002
0000
0000
0100
0100
0100
0203
0001
0001
0001
0001
0001
,
0302
1000
1000
1000
1000
1000
2003
0001
0001
0001
0001
0001
,
3002
0100
0100
0100
0100
0100
0103
0010
1000
0002
0000
0000
,
0103
0001
1000
0002
0000
0000
0103
0010
1000
0100
0010
0100
,
1000
0000
0010
0000
0100
0000
0001
0000
0000
0000
1000
0000
1001
0000
0000
0000
0000
0000
0000
0000
0000
1100
0000
0000
,
0000
0000
0110
0000
0000
1001
0000
0000
,
0101
0000
0000
0000
0000
0000
0000
0000
0000
0000
0000
0000
0000
0000
0000
0000
2200
3300
0000
0000
0000
0000
0000
0000
0000
0000
0000
0000
0000
0000
0000
0000
1001
0000
0000
0000
0000
0000
0000
0000
0000
0000
0000
0000
0000
0000
0000
0000
0000
0000
0000
0000
0000
0000
0000
0000
0101
0000
0000
0000
0000
0000
0000
0000
,
0000
0000
1001
0000
0000
1100
0000
0000
,
0110
0000
0000
0000
0000
0000
0000
0000
0000
0000
0000
0000
0000
0000
0000
0000
2002
3003
0000
0000
0000
0000
0000
0000
0000
0000
0000
0000
0000
0000
0000
0000
1100
0000
0000
0000
0000
0000
0000
0000
0000
0000
0000
0000
0000
0000
0000
0000
0000
0000
0000
0000
0000
0000
0000
0000
0110
0000
0000
0000
0000
0000
0000
0000
,
0000
0000
0011
0000
0000
0101
0000
0000
,
1001
0000
0000
0000
0000
0000
0000
0000
0000
0000
0000
0000
0000
0000
0000
0000
0220
0330
0000
0000
0000
0000
0000
0000
0000
0000
0000
0000
0000
0000
0000
0000
1100
0000
0000
0000
0000
0000
0000
0000
0000
0000
0000
0000
0000
0000
0000
0000
0000
0000
0000
0000
0000
0000
0000
0000
0101
0000
0000
0000
0000
0000
0000
0000
,
0000
0000
1001
0000
0000
0101
0000
0000
,
1001
0000
0000
0000
0000
0000
0000
0000
0000
0000
0000
0000
0000
0000
0000
0000
1100
0000
0000
0000
0000
0000
0000
0000
0000
0000
0000
0000
0000
0000
0000
0000
0220
0330
0000
0000
0000
0000
0000
0000
0000
0000
0000
0000
0000
0000
0000
0000
0110
0000
0000
0000
0000
0000
0000
0000
0000
0000
0000
0000
0000
0000
0000
0000
,
0000
0011
0000
0000
1001
0000
0000
1001
,
0000
0000
0000
0000
0000
0000
0000
0000
0000
0000
0000
0000
0000
0000
0000
0000
1100
0000
0000
0000
0000
0000
0000
0000
0000
0000
0000
0000
0000
0000
0000
0000
2002
3003
0000
0000
0000
0000
0000
0000
0000
0000
0000
0000
0000
0000
0000
0000
0101
0000
0000
0000
0000
0000
0000
0000
0000
0000
0000
0000
0000
0000
0000
0000
,
0000
0110
0000
0000
1100
0000
0000
0011
,
0000
0000
0000
0000
0000
0000
0000
0000
0000
0000
0000
0000
0000
0000
0000
0000
1010
0000
0000
0000
0000
0000
0000
0000
0000
0000
0000
0000
0000
0000
0000
0000
0202
0303
0000
0000
0000
0000
0000
0000
0000
0000
0000
0000
0000
0000
0000
0000
1010
0000
0000
0000
0000
0000
0000
0000
0000
0000
0000
0000
0000
0000
0000
0000
,
0000
1001
0000
0000
1001
0000
0000
0011
,
0000
0000
0000
0000
0000
0000
0000
0000
0000
0000
0000
0000
0000
0000
0000
0000
0110
0000
0000
0000
0000
0000
0000
0000
0000
0000
0000
0000
0000
0000
0000
0000
2020
3030
0000
0000
0000
0000
0000
0000
0000
0000
0000
0000
0000
0000
0000
0000
0101
0000
0000
0000
0000
0000
0000
0000
0000
0000
0000
0000
0000
0000
0000
0000
,
0000
0110
0000
0000
0101
0000
0000
0110
,
0000
1010
0011
1010
,
0101
0000
1001
0100
0010
0100
1000
0001
,
0100
0001
0010
0100
1000
0010
0100
0001
,
0010
0001
0100
0001
1000
0100
0010
0010
,
0001
0100
0001
0100
1000
0100
0010
0010
,
0100
0001
1000
0100
0010
0001
0100
0001
,
0010
0100
1000
0010
0100
0001
1000
0010
,
0100
0001
0010
0001
0010
0001
0100
0010
,
1000
0100
1000
0010
0100
0001
0010
0001
,
0100
0000
0000
0010
0000
0000
1001
0000
0100
0000
0100
0000
0110
0000
0010
0000
0010
0000
1001
0000
1000
0000
1000
0000
,
1100
0100
0100
0011
0010
0010
1100
0100
0100
0011
0010
0010
,
1001
0001
0001
1100
0010
0001
0110
1000
0001
1001
0100
0010
,
1100
0001
0010
0101
0010
1000
1010
0100
0001
0011
0100
1000
,
0101
0000
1000
0000
0010
0000
0110
0000
0000
0000
0000
0000
1100
0000
0000
1100
0000
0000
0000
0000
0000
0110
0000
0000
,
0101
0000
1001
0101
0000
1001
1100
0000
,
0110
0000
0101
0000
1001
1100
0000
0110
,
0101
0000
0011
1100
0000
1100
0110
0000
,
1001
0000
0101
0000
1100
0110
0000
1001
,
0101
0000
1100
0110
0000
1001
0101
0000
,
1100
0000
0110
0000
1001
0101
0000
0101
,
0011
0000
0110
1100
0000
0110
1001
0000
,
0101
0000
1001
1000
0010
0100
0001
1000
,
0001
0100
0001
1000
0100
0010
0001
0110
,
0001
1000
0101
0010
0100
1001
0010
0100
,
1001
1000
0001
0110
0001
1000
0110
1000
,
0011
0100
1010
0000
0000
1100
0000
0000
,
0011
0000
0000
0101
0000
0000
2002
0000
,
0000
0000
3113
0000
0000
1100
0000
0000
,
0110
0000
0000
1001
0000
0000
0202
0000
,
2323
3030
0000
0000
0000
0000
0000
0000
0000
0000
0000
0000
0000
0000
0000
0000
0110
0000
0000
0000
0000
0000
0000
0000
0010
0000
0000
0000
0100
0000
0000
0000
0010
0000
0000
0000
0000
0000
0000
0000
1000
0000
0000
0000
0100
0000
0000
0000
1000
0000
0000
0000
0000
0000
0000
0000
0001
0000
0000
0000
0100
0000
0000
0000
,
0001
0000
0010
0001
0010
0000
0001
0100
0001
0000
1000
0100
1000
0000
0010
0100
,
0010
0000
1000
0001
0100
0001
0100
0001
1000
0100
0010
0001
0100
0001
1000
0100
,
0010
0100
1000
0010
0100
0001
1000
0001
0100
0001
0010
0001
0100
0001
1000
0001
,
0100
0001
1000
0010
0110
0000
0000
0000
1000
0000
0000
0000
0001
0000
0000
0000
,
0100
0101
1000
1100
,
0010
0000
0110
0000
0001
1100
0011
0000
,
0100
0010
1000
1001
,
0101
1001
1000
1100
,
0010
0100
0001
1001
,
1000
0000
0000
0000
1100
0010
0001
0100
0010
1000
0010
0100
0101
0001
0010
0100
,
1000
0010
0100
0010
0100
0010
0100
0010
0100
0010
0100
0010
0100
0010
1000
0010
,
1000
0010
1000
0010
0101
0000
0000
0000
1000
0000
0000
0000
0010
0000
0000
0000
,
0200
0300
0000
0000
0000
0000
0000
0000
0000
0000
0000
0000
0000
0000
0000
0000
1001
0000
0000
0000
0000
0000
0000
0000
0000
0000
0000
0000
0000
0000
0000
0000
0010
0000
0000
0000
0000
0000
0000
0000
0000
0000
0000
0000
0000
0000
0000
0000
1100
0000
0000
0000
0000
0000
0000
0000
0000
0000
0000
0000
0000
0000
0000
0000
,
0020
0030
0000
0000
0000
0000
0000
0000
0000
0000
0000
0000
0000
0000
0000
0000
0011
0000
0000
0000
0000
0000
0000
0000
0000
0000
0000
0000
0000
0000
0000
0000
0010
0000
0000
0000
0000
0000
0000
0000
1100
0000
0000
0000
0000
0000
0000
0000
0011
0000
0000
0000
0000
0000
0000
0000
0000
0000
0000
0000
0000
0000
0000
0000
,
0200
0300
0000
0000
0000
0000
0000
0000
0000
0000
0000
0000
0000
0000
0000
0000
0010
0000
0000
0000
0000
0000
0000
0000
0000
0000
0000
0000
0000
0000
0000
0000
1000
0000
0000
0000
0000
0000
0000
0000
0000
0000
0000
0000
0000
0000
0000
0000
0101
0000
0000
0000
0000
0000
0000
0000
0000
0000
0000
0000
0000
0000
0000
0000
,
2002
3003
0000
0000
0000
0000
0000
0000
0000
0000
0000
0000
0000
0000
0000
0000
1100
0000
0000
0000
0000
0000
0000
0000
0000
0000
0000
0000
0000
0000
0000
0000
0010
0000
0000
0000
0000
0000
0000
0000
0000
0000
0000
0000
0000
0000
0000
0000
0101
0000
0000
0000
0000
0000
0000
0000
0000
0000
0000
0000
0000
0000
0000
0000
,
2000
3000
0000
0000
0000
0000
0000
0000
0000
0000
0000
0000
0000
0000
0000
0000
0001
0000
0000
0000
0000
0000
0000
0000
0000
0000
0000
0000
0000
0000
0000
0000
1000
0000
0000
0000
0000
0000
0000
0000
0000
0000
0000
0000
0000
0000
0000
0000
0101
0000
0000
0000
0000
0000
0000
0000
0000
0000
0000
0000
0000
0000
0000
0000
,
0020
0030
0000
0000
0000
0000
0000
0000
0000
0000
0000
0000
0000
0000
0000
0000
0101
0000
0000
0000
0000
0000
0000
0000
0000
0000
0000
0000
0000
0000
0000
0000
1000
0000
0000
0000
0000
0000
0000
0000
0000
0000
0000
0000
0000
0000
0000
0000
1100
0000
0000
0000
0000
0000
0000
0000
0000
0000
0000
0000
0000
0000
0000
0000
,
0020
0030
0000
0000
0000
0000
0000
0000
0000
0000
0000
0000
0000
0000
0000
0000
0110
0000
0000
0000
0000
0000
0000
0000
0000
0000
0000
0000
0000
0000
0000
0000
0001
0000
0000
0000
0000
0000
0000
0000
0000
0000
0000
0000
0000
0000
0000
0000
0011
0000
0000
0000
0001
0000
0000
0000
0010
0000
0000
0000
0001
0000
0000
0000
,
0020
0030
0000
0000
0100
0000
0000
0000
1000
0000
0000
0000
0100
0000
0000
0000
2100
0000
0000
0000
0000
0000
0000
0000
0000
0000
0000
0000
0000
0000
0000
0000
0020
0030
0000
0000
0000
0000
0000
0000
0000
0000
0000
0000
0000
0000
0000
0000
0000
0000
0000
0000
0000
0000
0000
0000
0000
0000
0000
0000
0000
0000
0000
0000
,
0200
0300
0000
0000
0000
0000
0000
0000
3000
0000
0000
0000
0000
0000
0000
0000
0020
0000
0000
0000
0000
0000
0000
0000
0000
0000
0000
0000
0000
0000
0000
0000
0002
0003
0000
0000
0000
0000
0000
0000
0030
0000
0000
0000
0000
0000
0000
0000
0002
0000
0000
0000
0000
0000
0000
0000
0000
0000
0000
0000
0000
0000
0000
0000
,
0200
0300
0000
0000
0000
0000
0000
0000
0003
0000
0000
0000
0000
0000
0000
0000
2000
0000
0000
0000
0000
0000
0000
0000
0000
0000
0000
0000
0000
0000
0000
0000
0020
0030
0000
0000
0000
0000
0000
0000
3020
0000
0000
0000
0000
0000
0000
0000
0230
0000
0000
0000
0000
0000
0000
0000
0000
0000
0000
0000
0000
0000
0000
0000
,
2000
3000
0000
0000
0000
0000
0000
0000
0000
0000
0000
0000
0000
0000
0000
0000
0000
0000
0000
0000
0000
0000
0000
0000
0000
0000
0000
0000
0000
0000
0000
0000
0002
0003
0000
0000
0000
0000
0000
0000
0000
0000
0000
0000
0000
0000
0000
0000
0320
0000
0000
0000
0000
0000
0000
0000
0030
0000
0000
0000
0000
0000
0000
0000
,
0220
0300
0000
0000
0000
0000
0000
0000
0030
0000
0000
0000
0000
0000
0000
0000
0200
0000
0000
0000
0000
0000
0000
0000
0000
0000
0000
0000
0000
0000
0000
0000
0020
0030
0000
0000
0000
0000
0000
0000
0300
0000
0000
0000
0000
0000
0000
0000
0020
0000
0000
0000
0000
0000
0000
0000
0000
0000
0000
0000
0000
0000
0000
0000
,
2000
3000
0000
0000
0000
0000
0000
0000
0000
0000
0000
0000
0000
0000
0000
0000
0000
0000
0000
0000
0000
0000
0000
0000
0000
0000
0000
0000
0000
0000
0000
0000
0002
0003
0000
0000
0000
0000
0000
0000
0030
0000
0000
0000
0000
0000
0000
0000
2000
0000
0000
0000
0000
0000
0000
0000
0000
0000
0000
0000
0000
0000
0000
0000
,
0200
0300
0000
0000
0000
0000
0000
0000
3000
0000
0000
0000
0000
0000
0000
0000
0020
0000
0000
0000
0000
0000
0000
0000
0000
0000
0000
0000
0000
0000
0000
0000
0002
0003
0000
0000
0000
0000
0000
0000
0030
0000
0000
0000
0000
0000
0000
0000
2000
0000
0000
0000
0000
0000
0000
0000
0000
0000
0000
0000
0000
0000
0000
0000
,
0200
0300
0000
0000
0000
0000
0000
0000
3000
0000
0000
0000
0000
0000
0000
0000
0002
0000
0000
0000
0000
0000
0000
0000
0000
0000
0000
0000
0000
0000
0000
0000
0020
0030
0000
0000
0000
0000
0000
0000
0003
0000
0000
0000
0000
0000
0000
0000
0200
0000
0000
0000
0000
0000
0000
0000
0000
0000
0000
0000
0000
0000
0000
0000
,
2000
3000
0000
0000
0000
0000
0000
0000
0300
0000
0000
0000
0000
0000
0000
0000
1001
0000
0000
0000
0000
0000
0000
0000
0100
0000
0000
0000
0000
0000
0000
0000
0001
0000
0000
0000
0000
0000
0000
0000
1000
0000
0000
0000
0000
0000
0000
0000
0101
0000
0000
0000
0000
0000
0000
0000
0000
0000
0000
0000
0000
0000
0000
0000
,
1000
0000
0010
0000
0100
0000
0011
0010
,
0100
1000
1001
0000
0000
0101
0000
0000
,
1001
0000
0000
1100
0000
0000
0110
0000
,
2002
3003
0000
0000
0000
0000
0000
0000
0000
0000
0000
0000
0000
0000
0000
0000
1100
0000
0000
0000
0000
0000
0000
0000
0001
0000
0000
0000
0000
0000
0000
0000
0100
0000
0000
0000
0000
0000
0000
0000
0001
0000
0000
0000
0000
0000
0000
0000
0011
0000
0000
0000
0000
0000
0000
0000
0000
0000
0000
0000
0000
0000
0000
0000
,
0100
0000
0010
0000
1000
0000
0101
1000
,
0010
0100
1001
0000
0000
0110
0000
0000
,
0101
0000
0000
0011
0000
0000
1001
0000
,
2200
3300
0000
0000
0000
0000
0000
0000
0000
0000
0000
0000
0000
0000
0000
0000
0101
0000
0000
0000
0000
0000
0000
0000
0000
0000
0000
0000
0000
0000
0000
0000
0000
0000
0000
0000
0000
0000
0000
0000
1100
0000
0000
0000
0000
0000
0000
0000
0000
0000
0000
0000
0000
0000
0000
0000
0000
0000
0000
0000
0000
0000
0000
0000
,
0110
0000
0000
1001
0000
0000
0101
0000
,
2002
3003
0000
0000
0000
0000
0000
0000
0000
0000
0000
0000
0000
0000
0000
0000
1100
0000
0000
0000
0000
0000
0000
0000
0001
0000
0000
0000
0000
0000
0000
0000
0010
0000
0000
0000
0000
0000
0000
0000
0001
0000
0000
0000
0000
0000
0000
0000
0100
0000
0000
0000
0000
0000
0000
0000
0010
0000
0000
0000
0000
0000
0000
0000
,
1000
0000
0000
0100
0000
0000
0010
0000
0000
0001
0000
0000
0100
0000
0000
0001
0000
0000
0100
0000
0000
0010
1000
0001
,
0010
0000
0000
0001
0010
0100
1000
0000
0000
0001
0000
0000
0010
0000
0000
0001
0000
0000
0100
0000
0000
0010
0000
0000
,
1000
0010
0100
0001
1000
0001
0100
0010
,
1000
0100
0010
0210
0000
0000
0010
0000
0000
0010
0000
0000
,
0010
0000
0000
0010
0000
0000
0310
1000
0001
0100
0001
0010
,
0001
0100
0001
2000
0000
0000
0100
0000
0000
0100
0000
0000
,
0100
0100
0100
0100
,
3100
0000
0010
0000
0100
0000
0210
0000
0000
0010
0000
0000
0000
0000
0000
0010
0000
0000
2302
0000
0000
0000
0000
0000
,
0000
3003
2200
0000
0000
3300
0220
0000
,
0000
0330
2002
0000
0000
0000
0000
0000
,
0000
0000
0000
0000
,
0000
0000
3003
0000
1000
0000
0010
0000
0100
0000
0010
0000
1000
0000
0010
1000
,
0010
0100
0010
1000
0010
0000
0100
0000
0001
0000
0010
0000
0001
0000
1000
0100
,
0010
0001
0010
0100
1000
0000
0010
0000
0100
0000
0001
0000
0010
0000
0001
0100
,
0010
0100
0010
1000
0001
0000
0100
0000
0001
0000
1000
0000
0100
0000
0010
0001
,
0010
0001
0100
0010
1000
0000
0000
0000
0100
0000
0010
0000
1001
0000
0000
0000
,
1000
0100
0011
0000
0100
0010
0100
0010
,
0001
1000
0101
0000
1000
0010
0100
0001
,
0010
0100
1100
0000
0010
0100
0001
1000
,
0001
0000
0100
0000
1001
0000
0100
0000
0010
0000
0100
0000
0001
0000
0100
0001
,
0100
0010
0100
0001
0100
0000
0010
0000
1000
0000
0100
0000
1000
0000
0001
0010
,
0100
1000
0100
0010
0001
0000
0100
0000
0010
0000
1000
0000
0100
0000
1000
0010
,
0100
0010
0100
0001
1000
0000
0010
0000
1000
0000
0001
0000
0010
0000
0100
1000
,
0100
1000
0010
0100
0001
0000
1000
0000
0010
0000
0100
0000
0001
0000
0010
0000
,
0000
0010
0001
0100
0010
1000
0000
1000
,
0100
0010
0001
0010
0000
0010
0100
0010
,
0001
1000
0001
0100
0001
0010
0001
0100
,
0010
0000
1000
0000
0001
0000
0100
0000
0010
0000
0100
0000
0001
0000
0100
0001
,
0100
0010
0100
0001
0100
0000
0010
0000
1000
0000
0100
0000
1000
0000
0001
0010
,
0100
1000
0100
0010
0001
0000
0100
0000
0010
0000
1000
0000
0100
0000
1000
0010
,
0100
0010
0100
0001
1000
0000
0010
0000
1000
0000
0001
0000
0010
0000
0100
1000
,
0100
1000
0010
0100
0001
0000
0000
0000
0010
0000
0100
0000
1001
0000
0000
0000
,
0001
0010
1100
0000
0010
0100
0010
0100
,
1000
0001
1010
0000
0001
0100
0010
1000
,
0100
0010
0011
0000
0100
0010
1000
0001
,
1000
0000
0010
0000
1001
0000
0010
0000
0100
0000
0010
0000
1000
0000
0010
1000
,
0010
0100
0010
1000
0010
0000
0100
0000
0001
0000
0010
0000
0001
0000
1000
0100
,
0010
0001
0010
0100
1000
0000
0010
0000
0100
0000
0001
0000
0010
0000
0001
0100
,
0010
0100
0010
1000
0001
0000
0100
0000
0001
0000
1000
0000
0100
0000
0010
0001
,
0010
0001
0100
0010
1000
0000
0001
0000
0100
0000
0010
0000
1000
0000
0100
0000
,
0000
0100
1000
0010
0100
0001
0000
0001
,
0010
0100
1000
0100
0000
0100
0010
0100
,
1000
0001
1000
0010
1000
0100
1000
0010
,
0100
0001
1001
0000
0000
0000
1100
0000
,
0000
0110
0000
1001
,
2200
0000
0000
0000
,
0000
0000
0000
0000
0000
0000
0000
3300
,
0101
0001
0100
0101
0000
0000
0000
0000
0000
1100
0000
0000
,
0000
0110
0000
1001
,
0220
0000
0000
0000
,
0000
0000
0000
0000
,
1331
1001
1001
1001
0000
0000
0000
0000
0000
0110
0000
0000
,
0001
0010
0001
0022
0000
0000
0000
0033
0000
0110
0000
0000
,
2002
0000
0000
0000
0000
0000
0000
0000
0000
0000
0000
3003
,
1100
0010
0100
0001
1000
0001
0100
0001
0100
0010
0000
0000
,
0110
0110
0110
0110
0000
0000
1000
0000
0000
0101
0000
0000
,
0001
0101
1000
1100
,
0220
0000
0000
0000
0000
0330
2002
0000
0000
0000
0000
3003
,
2200
0000
0000
0000
0000
3300
0220
0000
0000
0000
0000
0000
,
0000
0000
0000
0000
0330
0000
1100
0000
0000
0010
0000
0000
0100
0000
0000
0001
0000
0000
1000
0000
0000
0001
0000
0000
,
0010
0000
0001
0100
0001
0000
1000
0100
1000
0000
0010
0000
0100
0000
0001
0000
,
1000
0010
0100
0001
1000
0001
0100
0010
,
1000
0000
0010
0100
0010
0000
1000
0001
1000
0000
0010
0000
0100
0000
0001
0000
,
1000
0001
0101
0101
0101
0101
0101
0101
,
1000
0010
1100
1100
1100
1100
1100
1100
,
0010
0100
0110
0110
0110
0110
0110
0110
,
0001
1000
1100
1100
1100
1100
1100
1100
,
0001
0100
0011
0011
0011
0011
0011
0011
,
0100
0010
1001
1001
1001
1001
1001
1001
,
1000
0100
0101
0101
0101
0101
0101
0101
,
0001
1000
1100
1100
1100
1100
1100
1100
,
0010
0100
1001
0000
0000
0000
1100
0000
,
0010
1000
0010
0101
0000
0000
0000
0000
0000
1001
0000
0000
,
2200
0000
0000
0000
0000
0000
0000
0000
0000
0000
0000
3300
,
0001
1000
0100
0010
0100
1000
0010
0100
0001
1000
0000
0000
,
0101
0101
0101
0101
0000
0000
1000
0000
0000
1100
0000
0000
,
0010
0101
0010
1100
,
0202
0000
0000
0000
0000
0303
2002
0000
0000
0000
0000
3003
,
2200
0000
0000
0000
0000
3300
0220
0000
0000
0000
0000
0000
,
0000
0000
0000
0000
0330
0000
1100
0000
0000
0000
0000
0000
0010
0000
0000
0110
0000
0000
0000
0000
0000
0001
0000
0000
,
1000
0001
1100
0000
0110
0000
1001
0000
,
0100
0101
0000
0001
1000
0100
0110
0000
,
1001
0000
2000
0000
0010
0010
0000
0001
,
0010
0100
0010
0000
0001
0000
0010
0000
,
0010
0001
0000
0010
3200
0001
0010
0000
,
0010
0000
0302
0000
1000
0100
0000
0010
,
0100
0010
1000
0000
0010
0000
0100
0000
,
0010
1000
0000
0100
1000
0010
0100
0000
,
0010
0000
0000
0000
1003
0000
0000
0000
0100
0000
0010
0001
0010
0000
0000
0000
,
0110
0000
0000
1100
0000
0000
0110
0000
,
1100
0000
0010
0100
0010
0000
0000
0000
1100
0000
0000
0000
0000
0000
0101
0000
,
0000
0000
0000
0000
1001
0000
0000
0000
1100
0000
0010
0100
0001
0000
0000
0000
,
1100
0000
0000
0110
0000
0000
1001
0000
,
0101
0000
1000
0100
1000
0000
0000
0000
0110
0000
0000
0000
0000
0000
0101
0000
,
0000
0000
0000
0000
1001
0000
1000
0010
1000
0000
0000
0000
0001
1000
0100
1000
,
0010
0100
0001
1000
0001
0100
0010
1000
0100
1000
0010
0100
0002
0000
0000
0000
,
0000
0000
0000
0000
0003
1100
0000
0000
,
0110
1001
1100
0000
0000
0101
0000
0000
,
1001
1100
0000
0110
,
0000
1100
0000
0000
0110
0000
1001
0000
,
0000
0101
0000
0000
,
0000
1100
0000
0000
1100
0110
1001
0000
,
0000
0000
0000
0000
0000
1100
0000
0000
,
0110
1001
1100
0000
0000
0000
0000
0000
,
0000
1100
0000
0000
0110
1001
2200
3300
,
0202
0303
2002
3003
2200
3300
0220
0330
,
2002
3003
0202
0000
0000
0000
0000
0000
,
0000
0000
0000
0000
0000
0303
1010
0000
,
0000
1010
0000
0000
0110
0000
1001
0000
,
0101
0000
1001
0000
0000
1100
0000
0000
,
0110
1001
0101
1001
,
0000
0101
0000
0000
0011
0000
0101
0000
,
1001
0000
1100
0000
0000
0101
0000
0000
,
1001
1100
0110
1001
,
0000
0101
0000
0000
1001
0000
1100
0000
,
0110
0000
1001
1000
0000
0010
0010
0000
,
0100
0001
1000
0100
0010
0001
0100
0100
,
0000
0010
0010
0000
1000
0001
0100
0001
,
1000
0100
0010
0010
0000
0001
0001
0000
,
0100
0010
1000
0100
1000
0010
0100
0100
,
0000
0010
0010
0000
1000
0001
0100
0001
,
0010
0100
1100
0100
0010
0110
0001
1000
,
0101
0010
0100
1000
0010
0100
0011
1000
,
0100
0110
0001
1000
1100
0010
0100
0001
,
1000
0000
0000
0100
0000
0000
0011
0000
0000
0000
0000
0000
1100
0000
0110
0000
1001
0000
0202
0000
0000
0000
0303
0000
,
2002
0000
3003
2200
0000
3300
0110
0000
1001
2200
0000
0000
,
0000
0000
0000
0000
0000
0000
0000
0000
0000
0000
0000
0000
0000
0000
0000
0000
0000
0000
0000
0000
3300
0000
0000
0000
1000
0000
0000
0010
0000
0000
0100
0000
0000
0010
0000
0000
1000
0000
0000
0000
0000
0000
0001
0000
0000
0100
0000
0000
,
0001
0010
0001
0010
0100
1000
0100
1000
0010
0100
0010
1000
0001
0000
0100
0010
,
1000
0100
1000
0010
0100
0001
0010
0001
0100
0010
1000
0001
1000
0000
0010
0100
,
0010
1000
0100
1000
0010
0100
0001
0010
0001
0100
0010
1000
0001
0000
0100
0010
,
1000
0100
1000
0010
0100
0001
0010
0001
0100
0010
1000
0001
0100
0000
0010
1000
,
0100
1000
0001
0010
0001
0100
0010
1000
0001
0010
0001
0100
0010
0000
1000
0100
,
0010
0001
0100
0001
1000
0100
0010
0100
1010
0000
0000
0000
0000
0000
1100
0000
,
1100
0000
0110
0000
0000
0101
0000
0010
,
1100
0010
0100
0001
0110
0000
0000
1100
,
0110
0000
1001
0000
0000
1100
0000
0100
,
1001
1000
0010
0100
1001
0000
0000
0000
;
