#TITLE:[F-4] DRMSEQNS;
#SUBTITLE:;
#ARTIST:CCIVORY;
#TITLETRANSLIT:;
#SUBTITLETRANSLIT:;
#ARTISTTRANSLIT:;
#CREDIT:;
#BANNER:../Beast 4 - bn.png;
#BACKGROUND:../Beast 4 - bg.png;
#LYRICSPATH:;
#CDTITLE:;
#MUSIC:DRMSEQNS.ogg;
#OFFSET:0.255;
#SAMPLESTART:102.614;
#SAMPLELENGTH:12.000;
#SELECTABLE:YES;
#BPMS:0.000=245.000;
#STOPS:;
#BGCHANGES:;
// cache tags:
#FIRSTBEAT:4.000;
#LASTBEAT:835.750;
#SONGFILENAME:Songs/Beast Aoreo BEAST! 4/DRMSEQNS - [Aoreo]/DRMSEQNS.sm;
#HASMUSIC:1;
#HASBANNER:1;
#MUSICLENGTH:205.206;
// end cache tags

//---------------dance-single - J. Nero----------------
#NOTES:
     dance-single:
     J. Nero:
     Challenge:
     21:
     1.000,1.000,0.000,0.078,1.000,2415.000,0.000,16.000,0.000,0.000:
0000
0000
0000
0000
,
1000
0100
1000
0001
0100
0001
1000
0010
0100
0001
1000
0001
0100
0010
0100
0001
,
1000
0100
1000
0001
0010
0100
0010
0001
1000
0100
1000
0001
0100
0001
1000
0010
,
0100
0010
1000
0001
0100
0001
0100
0010
1000
0001
0100
0001
1000
0100
1000
0001
,
0010
0100
1000
0001
0010
0001
1000
0100
1000
0001
0010
0100
1000
0001
1000
0010
,
0100
0001
1000
0010
0100
0010
1000
0001
1000
0001
0010
0100
1000
0001
0010
0001
,
1000
0100
1000
0001
0100
0010
1000
0001
0010
0100
1000
0001
0100
0001
1000
0100
,
1000
0001
0100
0010
0100
0001
1000
0100
1000
0001
0100
0010
0100
0001
1000
0001
,
0100
0010
1000
0010
0100
0001
1000
0100
1000
0001
0010
0100
1000
0001
1000
0010
,
0100
0001
1000
0001
0100
0010
0100
0001
1000
0100
1000
0001
0010
0100
0010
0001
,
1000
0100
1000
0001
1000
0010
0100
0010
1000
0001
0100
0001
1000
0100
0010
0001
,
1000
0100
1000
0001
0100
0010
0100
0001
1000
0001
0010
0100
1000
0001
0010
0001
,
1000
0010
1000
0001
0100
0010
0100
0001
1000
0010
0100
0001
1000
0001
0010
0100
,
1000
0001
1000
0100
0010
0100
1000
0001
0100
0001
1000
0010
0100
0001
0100
0001
,
1000
0010
0100
0001
1000
0100
1000
0001
0010
0100
0010
0001
1000
0001
0100
0010
,
1000
0001
0100
0001
1000
0001
0010
0100
1000
0001
1000
0100
1000
0001
0100
0010
,
0100
0001
1000
0010
0100
0010
1000
0001
0100
0001
1000
0010
0100
0001
1000
0100
,
1000
0001
0010
0100
1000
0001
0100
0010
,
0100
0001
1000
0100
1000
0001
0100
0010
,
0100
0001
1000
0100
0010
0100
1000
0010
,
0100
0010
1000
0001
0010
0100
1000
0001
,
0100
0001
1000
0010
0100
0010
1000
0001
,
0100
0001
0010
0100
1000
0010
0100
0010
,
1000
0100
0010
0100
1000
0010
0100
0001
,
2000
3100
0020
0130
2000
3010
0200
0301
,
0010
0100
0010
0001
1000
0010
0100
0010
,
1000
0001
0100
0010
0100
0001
1000
0100
,
1000
0010
0100
0010
1000
0001
0010
0001
,
0100
0010
0100
0001
1000
0001
0010
0100
,
0010
0001
1000
0001
0100
0010
0100
0001
,
1000
0100
1000
0001
0100
0010
0100
0001
,
0010
0100
1000
0001
0100
0010
0100
0001
,
2000
3100
0020
0130
2000
3010
0200
0301
,
1000
0001
0100
0001
1000
0010
0100
0010
1000
0001
0100
0001
0100
0010
1000
0001
,
1000
0100
0010
0100
1000
0001
0010
0100
0010
0001
1000
0001
0100
0010
0100
0001
,
1000
0100
1000
0001
0010
0001
1000
0010
0100
0010
1000
0001
1000
0100
0010
0001
,
1000
0100
1000
0001
0010
0100
1000
0001
1000
0010
0100
0001
1000
0001
0100
0010
,
0100
0001
1000
0100
0010
0100
1000
0001
0010
0100
1000
0001
1000
0010
0100
0010
,
1000
0001
0100
0001
1000
0010
0100
0001
1000
0001
1000
0010
0100
0001
1000
0001
,
0010
0100
0010
0001
1000
0100
0010
0001
1000
0100
1000
0001
0100
0010
0100
0001
,
1000
0001
0100
0010
0100
0001
1000
0001
0100
0010
0100
0001
1000
0100
1000
0001
,
0010
0100
1000
0001
1000
0010
0100
0010
1000
0001
0100
0001
1000
0100
0010
0100
,
1000
0001
0100
0010
1000
0010
0100
0001
1000
0100
1000
0001
0100
0001
1000
0010
,
0100
0010
1000
0001
0100
0001
1000
0100
0010
0001
1000
0100
0010
0100
1000
0001
,
0100
0010
0100
0001
1000
0100
0010
0001
1000
0001
0100
0010
0100
0001
1000
0001
,
0100
0010
0100
0001
1000
0100
0010
0001
1000
0001
0100
0010
0100
0001
1000
0001
,
0010
0100
1000
0001
1000
0010
1000
0001
0010
0100
0010
0001
1000
0001
0100
0010
,
2000
0000
0000
3000
,
0001
0001
0000
0100
0100
0000
0001
1000
,
0001
0100
0001
1000
0010
0100
0001
1000
0001
0100
0010
1000
0001
1000
0100
0010
,
0100
1000
0001
0010
0100
0010
0001
1000
0001
0100
0010
0100
0001
1000
0001
0100
,
0010
1000
0001
0100
0001
1000
0100
0010
0001
1000
0100
1000
0001
0100
0001
1000
,
0010
0100
0010
1000
0001
0010
0100
1000
0001
0010
0001
1000
0010
0100
0010
1000
,
0001
1000
0010
0100
0010
1000
0001
0100
0001
1000
0100
0010
0001
1000
0100
1000
,
0001
0100
0010
1000
0010
0100
0001
0010
0100
1000
0100
1000
0001
0100
0010
0100
,
0001
1000
0010
0100
0001
1000
0100
1000
0001
0100
0010
1000
0001
1000
0100
0010
,
0001
1000
0100
1000
0001
0100
0001
1000
0100
0010
0001
1000
0100
1000
0001
0100
,
0010
0100
0001
1000
0001
1000
0100
0010
0100
1000
0001
0100
0010
0100
0001
1000
,
0100
0010
0001
1000
0100
1000
0001
0100
0010
1000
0001
1000
0010
0100
0010
1000
,
0001
1000
0100
0010
0001
1000
0100
1000
0001
0100
0001
1000
0100
0010
0001
1000
,
0100
1000
0001
0100
0010
0100
0001
1000
0001
0010
0100
1000
0001
1000
0010
0100
,
0001
0100
0010
1000
0001
0100
0010
0100
0001
1000
0100
0010
0100
1000
0001
0010
,
0100
1000
0001
1000
0010
0100
0010
1000
0001
0100
0001
1000
0010
1000
0001
0100
,
0001
1000
0100
1000
0001
0010
0100
1000
0001
0010
0001
1000
0010
0100
0010
1000
,
0001
0100
0001
1000
0100
1000
0001
0010
0100
0010
0001
1000
0100
1000
0001
0100
,
0001
1000
0100
0010
0001
1000
0001
0100
0001
1000
0100
0010
0100
1000
0001
0100
,
0001
0100
0010
1000
0001
0100
0010
0100
0001
1000
0100
1000
0001
0100
0010
0100
,
0001
1000
0100
0010
0100
1000
0001
0010
0001
1000
0100
0010
0001
1000
0001
0100
,
0010
0100
0001
1000
0001
0100
0010
0100
0001
1000
0100
0010
0100
1000
0001
0100
,
0001
1000
0010
0100
0010
1000
0001
1000
0100
0010
0001
1000
0100
1000
0001
0100
,
0010
0100
0001
1000
0001
0010
0100
1000
0001
0100
0010
0100
0001
1000
0100
1000
,
0001
0100
0010
0100
0001
1000
0001
0100
0010
0100
0001
1000
0100
1000
0001
0100
,
0001
1000
0010
0100
0010
1000
0001
0100
0001
1000
0100
0010
0100
1000
0001
0100
,
0010
0100
0001
1000
0010
1000
0001
0100
0001
1000
0100
0010
0100
1000
0001
0010
,
0100
0010
0001
1000
0100
1000
0001
0010
0001
1000
0100
1000
0001
0100
0001
1000
,
0010
0100
0001
1000
0100
1000
0001
0010
0100
1000
0001
0010
0001
1000
0010
0100
,
0010
1000
0001
0100
0001
1000
0010
0100
0010
1000
0001
0010
0100
1000
0001
1000
,
0100
0010
0001
1000
0001
0100
0010
0100
0001
1000
0001
0100
0010
0100
0001
1000
,
0100
0010
0100
1000
0001
0010
0100
1000
0001
0100
0001
1000
0010
0100
0010
1000
,
0001
0100
0001
0100
0010
1000
0001
1000
0100
0010
0001
1000
0100
1000
0001
0100
,
0010
0100
0001
1000
0001
0010
0100
1000
0001
0100
0001
1000
0010
0100
0010
1000
,
0001
0100
0010
0100
,
0001
0010
0100
1000
,
0001
0100
0010
0100
,
0001
0000
1000
0100
0000
0100
0010
0000
,
0100
1000
0010
0100
,
0001
0010
0100
1000
,
0001
0100
0010
0100
,
0001
0000
1000
0100
1000
0001
0010
0100
,
2000
3000
0000
0000
0001
0000
0000
0000
0100
0000
0000
0000
0010
0000
0000
0000
,
0100
0001
0010
0100
,
1000
0010
0100
0010
,
1000
0000
0100
0010
0000
0010
0001
0000
,
1000
0100
0010
0100
,
1000
0000
0001
0000
0100
0000
0010
1000
,
0100
0010
0100
1000
0010
0100
0001
1000
,
0100
0000
0010
0100
0000
0100
1000
0000
,
0001
0100
0010
0100
,
0001
0010
0100
1000
,
0001
0100
0010
0100
,
0001
0000
1000
0100
0000
0100
0010
0000
,
0100
1000
0010
0100
,
0001
0010
0100
1000
,
0001
0100
0010
0100
,
0001
0000
1000
0100
1000
0001
0010
0100
,
2000
3000
0000
0000
0001
0000
0000
0000
0100
0000
0000
0000
0010
0000
0000
0000
,
0100
0001
0010
0100
,
1000
0010
0100
0010
,
1000
0000
0100
0010
0000
0010
0001
0000
,
1000
0100
0010
0100
,
1000
0001
0100
0010
,
1000
0100
0010
0001
,
1000
0000
0100
0010
0100
1000
0010
0100
,
0001
0100
0001
1000
0010
0100
0010
1000
0001
0100
0001
1000
0100
1000
0001
0010
,
0100
1000
0001
0100
0001
1000
0100
0010
0100
1000
0001
0100
0010
0100
0001
1000
,
0010
0100
0001
0100
0001
1000
0010
0100
0001
1000
0100
1000
0001
0010
0100
1000
,
0001
0100
0001
1000
0010
0100
0010
1000
0001
0100
0001
1000
0100
0010
0100
1000
,
0001
0100
0010
0100
0001
1000
0100
1000
0001
0100
0010
0100
0001
1000
0001
0010
,
0100
1000
0001
0100
0010
0100
0001
1000
0100
0010
0100
1000
0001
0100
0001
1000
,
0010
0100
0010
1000
0001
0100
0010
1000
0001
0010
0100
0010
0001
1000
0100
1000
,
0001
0100
0010
0100
0001
1000
0010
0100
0001
1000
0100
1000
0001
0100
0001
1000
,
0010
0100
0010
1000
0001
0100
0001
1000
0100
0010
0001
1000
0100
1000
0001
0100
,
0010
0100
0001
1000
0001
0010
0100
1000
0001
0100
0010
0100
0001
1000
0100
0010
,
0100
1000
0001
0100
0001
1000
0010
0100
0010
1000
0001
0100
0001
1000
0100
0010
,
0001
1000
0100
1000
0001
0100
0010
0100
0001
1000
0001
0010
0100
0010
0001
1000
,
0001
0100
0010
0100
0001
1000
0100
1000
0001
0100
0001
1000
0010
0100
0010
1000
,
0001
0100
0001
0100
0010
1000
0001
1000
0100
0010
0100
1000
0001
0010
0001
1000
,
0010
0100
0001
1000
0001
1000
0100
0010
0001
1000
0100
1000
0001
0100
0010
0100
,
0001
1000
0001
0010
0100
1000
0001
0100
0010
0100
0001
1000
0100
0010
0001
1000
,
0010
0100
0010
1000
0001
0010
0100
1000
0001
0100
0001
1000
0010
0100
0010
1000
,
0001
0100
0001
1000
0100
0010
0100
1000
0001
0010
0001
1000
0100
1000
0001
0100
,
0010
1000
0001
1000
0010
0100
0001
1000
0100
0010
0100
0010
0001
1000
0100
1000
,
0001
0100
0010
0100
0001
1000
0001
0010
0100
1000
0001
0100
0010
0100
0001
1000
,
0100
1000
0001
0100
0010
0100
0001
1000
0001
0010
0100
1000
0001
0100
0001
1000
,
0010
0100
0010
1000
0001
1000
0100
0010
0100
1000
0001
0100
0010
0100
0001
1000
,
0100
0010
0001
1000
0100
1000
0001
0100
0010
0100
0001
1000
0001
0010
0100
1000
,
0001
0100
0001
1000
0010
0100
0010
1000
0001
0100
0010
0100
0001
1000
0100
0010
,
0001
0100
0010
0100
,
0001
0010
0100
1000
,
0001
0100
0010
0100
,
0001
0000
1000
0100
0000
0100
0010
0000
,
0100
1000
0010
0100
,
0001
0010
0100
1000
,
0001
0100
0010
0100
,
0001
0000
1000
0100
1000
0001
0010
0100
,
2000
3000
0000
0000
0001
0000
0000
0000
0100
0000
0000
0000
0010
0000
0000
0000
,
0100
0001
0010
0100
,
1000
0010
0100
0010
,
1000
0000
0100
0010
0000
0010
0001
0000
,
1000
0100
0010
0100
,
1000
0001
0100
0010
,
1000
0100
0010
0001
,
1000
0000
0010
0100
0001
0010
0100
1000
,
0001
0100
0001
1000
0100
0010
0001
1000
0001
0010
0100
1000
0001
1000
0010
0100
,
0010
1000
0001
0100
0010
0100
0001
1000
0001
0010
0100
0010
0001
1000
0001
0010
,
0100
1000
0001
0010
0001
1000
0010
0100
0001
1000
0010
1000
0001
0010
0001
1000
,
0100
0010
0100
1000
0001
0100
0010
1000
0001
0100
0001
1000
0100
0010
0100
1000
,
0001
1000
0100
0010
0100
1000
0001
0010
0001
1000
0010
0100
0001
1000
0010
1000
,
0001
0010
0100
1000
0100
0010
0001
0100
0001
1000
0010
1000
0001
0010
0100
0010
,
0001
1000
0100
0010
0001
1000
0010
1000
0001
0010
0100
1000
0001
1000
0010
0100
,
0001
1000
0010
1000
0001
0010
0001
1000
0010
0100
0001
1000
0010
1000
0001
0010
,
0100
0010
0001
1000
0001
1000
0010
0100
0010
1000
0001
0010
0100
0010
0001
1000
,
0010
0100
0001
1000
0010
1000
0001
0010
0100
1000
0001
1000
0100
0010
0100
1000
,
0001
1000
0010
0100
0001
1000
0010
1000
0001
0010
0001
1000
0010
0100
0001
1000
,
0010
1000
0001
0010
0100
0010
0001
1000
0001
0100
0010
1000
0001
1000
0100
0010
,
0001
1000
0100
1000
0001
0010
0100
0010
0001
1000
0010
0100
0010
1000
0001
0100
,
0010
1000
0001
1000
0010
0100
0010
1000
0001
0010
0100
1000
0001
1000
0010
0100
,
0001
1000
0010
1000
0001
0100
0010
1000
0001
0100
0001
1000
0100
0010
0100
1000
,
0001
1000
0000
0001
0100
0000
0002
0003
,
1000
0001
0100
0010
1000
0001
1000
0100
0010
0001
1000
0010
0100
0001
1000
0100
,
1000
0100
0010
0001
1000
0100
0010
0100
1000
0001
0100
0001
1000
0100
0010
0100
,
1000
0001
0100
0010
0100
0001
1000
0010
1000
0001
0100
0010
1000
0001
1000
0100
,
0010
0100
1000
0001
1000
0100
0010
0100
1000
0001
0100
0010
0100
0001
1000
0100
,
1000
0001
0010
0100
0010
0001
1000
0001
0100
0010
1000
0001
0100
0001
1000
0100
,
0010
0100
1000
0001
1000
0010
0100
0001
1000
0100
0010
0100
1000
0001
0100
0001
,
1000
0100
0010
0100
1000
0001
1000
0100
0010
0100
1000
0001
0100
0001
1000
0100
,
1000
0001
0010
0100
0010
0001
1000
0100
1000
0001
0100
0010
0100
0001
1000
0100
,
0010
0100
1000
0001
0010
0001
1000
0100
1000
0001
0100
0010
0100
0001
1000
0010
,
0100
0010
1000
0001
0100
0001
1000
0010
1000
0001
0100
0001
1000
0100
1000
0001
,
0010
0100
1000
0001
0100
0001
1000
0010
0100
0001
1000
0010
1000
0001
0010
0100
,
0010
0001
1000
0100
1000
0001
0010
0100
0010
0001
1000
0010
0100
0001
1000
0001
,
0100
0010
1000
0001
1000
0100
0010
0100
1000
0001
1000
0100
0010
0100
1000
0001
,
0100
0010
0100
0001
1000
0010
0100
0001
1000
0100
1000
0001
0010
0100
0010
0001
,
2000
0000
0000
0000
0000
0000
3001
0100
,
0010
1000
0100
0010
0100
1000
0010
0100
,
0001
0100
0010
0100
,
0001
0010
0100
1000
,
0001
0100
0010
0100
,
0001
0000
1000
0100
0000
0100
0010
0000
,
0100
1000
0010
0100
,
0001
0010
0100
1000
,
0001
0100
0010
0100
,
0001
0000
1000
0100
1000
0001
0010
0100
,
2000
3000
0000
0000
0001
0000
0000
0000
0100
0000
0000
0000
0010
0000
0000
0000
,
0100
0001
0010
0100
,
1000
0010
0100
0010
,
1000
0000
0100
0010
0000
0010
0001
0000
,
1000
0100
0010
0100
,
1000
0000
0001
0000
0100
0000
0010
1000
,
0100
0010
0100
1000
0010
0100
0001
0010
,
0200
0300
1000
0001
0100
0010
0100
0001
,
1000
0100
1000
0001
0100
0001
1000
0010
0100
0010
1000
0001
0100
0001
1000
0100
,
0010
0100
1000
0001
0100
0010
0100
0001
1000
0100
0010
0001
1000
0001
0100
0010
,
0100
0001
1000
0001
0010
0100
1000
0001
1000
0010
0100
0010
1000
0001
0100
0001
,
1000
0100
1000
0001
0010
0100
1000
0001
0100
0001
1000
0100
0010
0100
1000
0001
,
0100
0010
0100
0001
1000
0100
0010
0001
1000
0100
1000
0001
0100
0010
0100
0001
,
1000
0001
0010
0100
1000
0001
1000
0010
0100
0010
1000
0001
1000
0001
0010
0100
,
1000
0001
0100
0001
1000
0100
1000
0001
0100
0001
0100
0010
1000
0001
0100
0001
,
1000
0010
1000
0001
0010
0001
1000
0010
0100
0001
1000
0010
0100
0001
1000
0001
;

//---------------dance-single - J. Nero----------------
#NOTES:
     dance-single:
     J. Nero:
     Hard:
     19:
     1.000,1.000,0.000,0.229,1.000,1919.000,0.000,47.000,17.000,0.000:
0000
0000
0000
0000
,
0000
0000
0000
0000
,
0000
0000
0000
0000
,
0000
0000
0000
0000
,
0000
0000
0000
0000
,
0000
0000
0000
0000
,
0000
0000
0000
0000
,
0000
0000
0000
0000
,
0000
0000
0000
0000
,
1000
0001
0100
0001
1000
0010
0100
0001
1000
0100
1000
0001
0010
0100
0010
0001
,
1000
0100
1000
0001
1000
0010
0100
0010
1000
0001
0100
0001
1000
0100
0010
0001
,
1000
0100
1000
0001
0100
0010
0100
0001
1000
0001
0010
0100
1000
0001
0010
0001
,
1000
0010
1000
0001
0100
0010
0100
0001
1000
0010
0100
0001
1000
0001
0010
0100
,
1000
0001
1000
0100
0010
0100
1000
0001
0100
0001
1000
0010
0100
0001
0100
0001
,
1000
0010
0100
0001
1000
0100
1000
0001
0010
0100
0010
0001
1000
0001
0100
0010
,
1000
0001
0100
0001
1000
0001
0010
0100
1000
0001
1000
0100
1000
0001
0100
0010
,
0100
0001
1000
0010
0100
0010
1000
0001
0100
0001
1000
0010
0100
0001
1000
0100
,
1000
0001
0010
0100
1000
0001
0100
0010
,
0100
0001
1000
0100
1000
0001
0100
0010
,
0100
0001
1000
0100
0010
0100
1000
0010
,
0100
0010
1000
0001
0010
0100
1000
0001
,
0100
0001
1000
0010
0100
0010
1000
0001
,
0100
0001
0010
0100
1000
0010
0100
0010
,
1000
0100
0010
0100
1000
0010
0100
0001
,
2000
3100
0020
0130
2000
3010
0200
0301
,
0010
0100
0010
0001
1000
0010
0100
0010
,
1000
0001
0100
0010
0100
0001
1000
0100
,
1000
0010
0100
0010
1000
0001
0010
0001
,
0100
0010
0100
0001
1000
0001
0010
0100
,
0010
0001
1000
0001
0100
0010
0100
0001
,
1000
0100
1000
0001
0100
0010
0100
0001
,
0010
0100
1000
0001
0100
0010
0100
0001
,
2000
3100
0020
0130
2000
3010
0200
0301
,
1000
0001
0100
0001
1000
0010
0100
0010
1000
0001
0100
0001
0100
0010
1000
0001
,
1000
0100
0010
0100
1000
0001
0010
0100
0010
0001
1000
0001
0100
0010
0100
0001
,
1000
0100
1000
0001
0010
0001
1000
0010
0100
0010
1000
0001
1000
0100
0010
0001
,
1000
0100
1000
0001
0010
0100
1000
0001
1000
0010
0100
0001
1000
0001
0100
0010
,
0100
0001
1000
0100
0010
0100
1000
0001
0010
0100
1000
0001
1000
0010
0100
0010
,
1000
0001
0100
0001
1000
0010
0100
0001
1000
0001
1000
0010
0100
0001
1000
0001
,
0010
0100
0010
0001
1000
0100
0010
0001
1000
0100
1000
0001
0100
0010
0100
0001
,
1000
0001
0100
0010
0100
0001
1000
0001
0100
0010
0100
0001
1000
0100
1000
0001
,
0010
0100
1000
0001
1000
0010
0100
0010
1000
0001
0100
0001
1000
0100
0010
0100
,
1000
0001
0100
0010
1000
0010
0100
0001
1000
0100
1000
0001
0100
0001
1000
0010
,
0100
0010
1000
0001
0100
0001
1000
0100
0010
0001
1000
0100
0010
0100
1000
0001
,
0100
0010
0100
0001
1000
0100
0010
0001
1000
0001
0100
0010
0100
0001
1000
0001
,
0100
0010
0100
0001
1000
0100
0010
0001
1000
0001
0100
0010
0100
0001
1000
0001
,
0010
0100
1000
0001
1000
0010
1000
0001
0010
0100
0010
0001
1000
0001
0100
0010
,
2000
0000
0000
3000
,
0001
0001
0000
0100
0100
0000
0001
1000
,
0MM1
0000
0MM0
0000
1MM0
0000
1MM0
00M0
00M0
00M0
00M0
00M0
01M0
00M0
01M0
00M0
,
0000
0000
1000
1000
0000
0000
0001
0001
,
0000
0000
0100
0100
0000
0000
0001
0001
,
0000
0000
0010
0010
0000
0000
0100
0100
,
0000
0000
1000
1000
0000
0000
0100
0100
,
0000
0000
1000
1000
0000
0000
0001
0001
,
0000
0000
0100
0100
0000
0000
0001
0001
,
0000
0000
0010
0010
0000
0000
0100
0100
,
0000
0000
1000
1000
0000
0000
0001
0001
,
0000
0000
0100
0100
0000
0000
0010
0010
,
0000
0000
1000
1000
0000
0000
0100
0100
,
0000
0000
1000
1000
0000
0000
0001
0001
,
0000
0000
0100
0100
0000
0000
0001
0001
,
0000
0000
0010
0010
0000
0000
0100
0100
,
0000
0000
1000
1000
0000
0000
0001
0001
,
0000
0000
0100
0100
0000
0000
0001
1000
,
0001
1000
0100
0010
0001
1000
0001
0100
0001
1000
0100
0010
0100
1000
0001
0100
,
0001
0100
0010
1000
0001
0100
0010
0100
0001
1000
0100
1000
0001
0100
0010
0100
,
0001
1000
0100
0010
0100
1000
0001
0010
0001
1000
0100
0010
0001
1000
0001
0100
,
0010
0100
0001
1000
0001
0100
0010
0100
0001
1000
0100
0010
0100
1000
0001
0100
,
0001
1000
0010
0100
0010
1000
0001
1000
0100
0010
0001
1000
0100
1000
0001
0100
,
0010
0100
0001
1000
0001
0010
0100
1000
0001
0100
0010
0100
0001
1000
0100
1000
,
0001
0100
0010
0100
0001
1000
0001
0100
0010
0100
0001
1000
0100
1000
0001
0100
,
0001
1000
0010
0100
0010
1000
0001
0100
0001
1000
0100
0010
0100
1000
0001
0100
,
0010
0100
0001
1000
0010
1000
0001
0100
0001
1000
0100
0010
0100
1000
0001
0010
,
0100
0010
0001
1000
0100
1000
0001
0010
0001
1000
0100
1000
0001
0100
0001
1000
,
0010
0100
0001
1000
0100
1000
0001
0010
0100
1000
0001
0010
0001
1000
0010
0100
,
0010
1000
0001
0100
0001
1000
0010
0100
0010
1000
0001
0010
0100
1000
0001
1000
,
0100
0010
0001
1000
0001
0100
0010
0100
0001
1000
0001
0100
0010
0100
0001
1000
,
0100
0010
0100
1000
0001
0010
0100
1000
0001
0100
0001
1000
0010
0100
0010
1000
,
0001
0100
0001
0100
0010
1000
0001
1000
0100
0010
0001
1000
0100
1000
0001
0100
,
0010
0100
0001
1000
0001
0010
0100
1000
0001
0100
0001
1000
0010
0100
0010
1000
,
0001
0100
0010
0100
,
0001
0010
0100
1000
,
0001
0100
0010
0100
,
0001
0000
1000
0100
0000
0100
0010
0000
,
0100
1000
0010
0100
,
0001
0010
0100
1000
,
0001
0100
0010
0100
,
0001
0000
1000
0100
1000
0001
0010
0100
,
2000
3000
0000
0000
0001
0000
0000
0000
0100
0000
0000
0000
0010
0000
0000
0000
,
0100
0001
0010
0100
,
1000
0010
0100
0010
,
1000
0000
0100
0010
0000
0010
0001
0000
,
1000
0100
0010
0100
,
1000
0000
0001
0000
0100
0000
0010
1000
,
0100
0010
0100
1000
0010
0100
0001
1000
,
0100
0000
0010
0100
0000
0100
1000
0000
,
0001
0100
0010
0100
,
0001
0010
0100
1000
,
0001
0100
0010
0100
,
0001
0000
1000
0100
0000
0100
0010
0000
,
0100
1000
0010
0100
,
0001
0010
0100
1000
,
0001
0100
0010
0100
,
0001
0000
1000
0100
1000
0001
0010
0100
,
2000
3000
0000
0000
0001
0000
0000
0000
0100
0000
0000
0000
0010
0000
0000
0000
,
0100
0001
0010
0100
,
1000
0010
0100
0010
,
1000
0000
0100
0010
0000
0010
0001
0000
,
1000
0100
0010
0100
,
1000
0001
0100
0010
,
1000
0100
0010
0001
,
1000
0000
0100
0010
0100
1000
0010
0100
,
0001
0010
0002
0103
0010
1000
0200
0310
,
0001
0100
0020
1030
0001
0100
0020
0130
,
0001
0010
0200
1300
0001
0100
0020
0130
,
0001
1000
0200
0310
0001
0100
0020
1030
,
0001
0100
0020
0130
0001
0010
0200
1300
,
0010
0100
0002
1003
0100
0010
0200
1300
,
0001
0100
0020
0130
0001
1000
0002
0013
,
0100
1000
0020
0130
0001
1000
0200
1300
,
0001
0100
0010
1000
0001
0100
0001
1000
0100
0010
0001
1000
0100
1000
0001
0100
,
0010
0100
0001
1000
0001
0010
0100
1000
0001
0100
0010
0100
0001
1000
0100
0010
,
0100
1000
0001
0100
0001
1000
0010
0100
0010
1000
0001
0100
0001
1000
0100
0010
,
0001
1000
0100
1000
0001
0100
0010
0100
0001
1000
0001
0010
0100
0010
0001
1000
,
0001
0100
0010
0100
0001
1000
0100
1000
0001
0100
0001
1000
0010
0100
0010
1000
,
0001
0100
0001
0100
0010
1000
0001
1000
0100
0010
0100
1000
0001
0010
0001
1000
,
0010
0100
0001
1000
0001
1000
0100
0010
0001
1000
0100
1000
0001
0100
0010
0100
,
0001
1000
0001
0010
0100
1000
0001
0100
0010
0100
0001
1000
0100
0010
0001
1000
,
0010
0100
0010
1000
0001
0010
0100
1000
0001
0100
0001
1000
0010
0100
0010
1000
,
0001
0100
0001
1000
0100
0010
0100
1000
0001
0010
0001
1000
0100
1000
0001
0100
,
0010
1000
0001
1000
0010
0100
0001
1000
0100
0010
0100
0010
0001
1000
0100
1000
,
0001
0100
0010
0100
0001
1000
0001
0010
0100
1000
0001
0100
0010
0100
0001
1000
,
0100
1000
0001
0100
0010
0100
0001
1000
0001
0010
0100
1000
0001
0100
0001
1000
,
0010
0100
0010
1000
0001
1000
0100
0010
0100
1000
0001
0100
0010
0100
0001
1000
,
0100
0010
0001
1000
0100
1000
0001
0100
0010
0100
0001
1000
0001
0010
0100
1000
,
0001
0100
0001
1000
0010
0100
0010
1000
0001
0100
0010
0100
0001
1000
0100
0010
,
0001
0100
0010
0100
,
0001
0010
0100
1000
,
0001
0100
0010
0100
,
0001
0000
1000
0100
0000
0100
0010
0000
,
0100
1000
0010
0100
,
0001
0010
0100
1000
,
0001
0100
0010
0100
,
0001
0000
1000
0100
1000
0001
0010
0100
,
2000
3000
0000
0000
0001
0000
0000
0000
0100
0000
0000
0000
0010
0000
0000
0000
,
0100
0001
0010
0100
,
1000
0010
0100
0010
,
1000
0000
0100
0010
0000
0010
0001
0000
,
1000
0100
0010
0100
,
1000
0001
0100
0010
,
1000
0100
0010
0001
,
1000
0000
0010
0100
0001
0010
0100
1000
,
0001
0100
0001
1000
0100
0010
0001
1000
0001
0010
0100
1000
0001
1000
0010
0100
,
0010
1000
0001
0100
0010
0100
0001
1000
0001
0010
0100
0010
0001
1000
0001
0010
,
0100
1000
0001
0010
0001
1000
0010
0100
0001
1000
0010
1000
0001
0010
0001
1000
,
0100
0010
0100
1000
0001
0100
0010
1000
0001
0100
0001
1000
0100
0010
0100
1000
,
0001
1000
0100
0010
0100
1000
0001
0010
0001
1000
0010
0100
0001
1000
0010
1000
,
0001
0010
0100
1000
0100
0010
0001
0100
0001
1000
0010
1000
0001
0010
0100
0010
,
0001
1000
0100
0010
0001
1000
0010
1000
0001
0010
0100
1000
0001
1000
0010
0100
,
0001
1000
0010
1000
0001
0010
0001
1000
0010
0100
0001
1000
0010
1000
0001
0010
,
0100
0010
0001
1000
0001
1000
0010
0100
0010
1000
0001
0010
0100
0010
0001
1000
,
0010
0100
0001
1000
0010
1000
0001
0010
0100
1000
0001
1000
0100
0010
0100
1000
,
0001
1000
0010
0100
0001
1000
0010
1000
0001
0010
0001
1000
0010
0100
0001
1000
,
0010
1000
0001
0010
0100
0010
0001
1000
0001
0100
0010
1000
0001
1000
0100
0010
,
0001
1000
0100
1000
0001
0010
0100
0010
0001
1000
0010
0100
0010
1000
0001
0100
,
0010
1000
0001
1000
0010
0100
0010
1000
0001
0010
0100
1000
0001
1000
0010
0100
,
0001
1000
0010
1000
0001
0100
0010
1000
0001
0100
0001
1000
0100
0010
0100
1000
,
0001
1000
0000
0001
0100
0000
0002
0003
,
2000
0000
0000
0000
,
0000
0000
0000
0000
,
0000
0000
0000
0000
,
3002
0000
0000
0023
0000
0000
0230
0000
,
2300
0000
0000
0000
,
0000
0000
0000
0000
3002
0000
0203
0302
,
2003
0000
0000
3200
,
0320
0000
0032
2003
3020
0000
0230
0000
,
0301
1000
0001
0100
0010
0100
0001
1000
0001
0010
0100
1000
0001
0100
0001
1000
,
0010
0100
0001
1000
0100
1000
0001
0010
0100
1000
0001
0100
0010
0100
0001
1000
,
0100
0010
0001
1000
0001
0100
0010
0100
0001
1000
0010
0100
0010
1000
0001
0010
,
0100
1000
0001
1000
0001
0100
0010
0100
0001
1000
0001
0100
0010
1000
0001
1000
,
0010
0100
0001
1000
0001
0010
0100
0010
0001
1000
0001
0010
0100
0010
0001
1000
,
0010
0100
0010
1000
0001
0100
0010
1000
0001
0010
0001
1000
0100
0010
0100
1000
,
0002
0000
0000
0000
0000
0003
0001
0100
,
0010
1000
0100
0010
0100
1000
0010
0100
,
0001
0100
0010
0100
,
0001
0010
0100
1000
,
0001
0100
0010
0100
,
0001
0000
1000
0100
0000
0100
0010
0000
,
0100
1000
0010
0100
,
0001
0010
0100
1000
,
0001
0100
0010
0100
,
0001
0000
1000
0100
1000
0001
0010
0100
,
2000
3000
0000
0000
0001
0000
0000
0000
0100
0000
0000
0000
0010
0000
0000
0000
,
0100
0001
0010
0100
,
1000
0010
0100
0010
,
1000
0000
0100
0010
0000
0010
0001
0000
,
1000
0100
0010
0100
,
1000
0000
0001
0000
0100
0000
0010
1000
,
0100
0010
0100
1000
0010
0100
0001
0010
,
0200
0300
1000
0001
0100
0010
0100
0001
,
1000
0100
1000
0001
0100
0001
1000
0010
0100
0010
1000
0001
0100
0001
1000
0100
,
0010
0100
1000
0001
0100
0010
0100
0001
1000
0100
0010
0001
1000
0001
0100
0010
,
0100
0001
1000
0001
0010
0100
1000
0001
1000
0010
0100
0010
1000
0001
0100
0001
,
1000
0100
1000
0001
0010
0100
1000
0001
0100
0001
1000
0100
0010
0100
1000
0001
,
0100
0010
0100
0001
1000
0100
0010
0001
1000
0100
1000
0001
0100
0010
0100
0001
,
1000
0001
0010
0100
1000
0001
1000
0010
0100
0010
1000
0001
1000
0001
0010
0100
,
1000
0001
0100
0001
1000
0100
1000
0001
0100
0001
0100
0010
1000
0001
0100
0001
,
1000
0010
1000
0001
0010
0001
1000
0010
0100
0001
1000
0010
0100
0001
1000
0001
;

//---------------dance-single - J. Nero----------------
#NOTES:
     dance-single:
     J. Nero:
     Medium:
     18:
     1.000,1.000,0.000,0.409,1.000,1714.000,0.000,84.000,17.000,0.000:
0000
0000
0000
0000
,
0000
0000
0000
0000
,
0000
0000
0000
0000
,
0000
0000
0000
0000
,
0000
0000
0000
0000
,
0000
0000
0000
0000
,
0000
0000
0000
0000
,
0000
0000
0000
0000
,
0000
0000
0000
0000
,
1000
0001
0100
0001
1000
0010
0100
0001
1000
0100
1000
0001
0010
0100
0010
0001
,
1000
0100
1000
0001
1000
0010
0100
0010
1000
0001
0100
0001
1000
0100
0010
0001
,
1000
0100
1000
0001
0100
0010
0100
0001
1000
0001
0010
0100
1000
0001
0010
0001
,
1000
0010
1000
0001
0100
0010
0100
0001
1000
0010
0100
0001
1000
0001
0010
0100
,
1000
0001
1000
0100
0010
0100
1000
0001
0100
0001
1000
0010
0100
0001
0100
0001
,
1000
0010
0100
0001
1000
0100
1000
0001
0010
0100
0010
0001
1000
0001
0100
0010
,
1000
0001
0100
0001
1000
0001
0010
0100
1000
0001
1000
0100
1000
0001
0100
0010
,
0100
0001
1000
0010
0100
0010
1000
0001
0100
0001
1000
0010
0100
0001
1000
0100
,
1000
0001
0010
0100
1000
0001
0100
0010
,
0100
0001
1000
0100
1000
0001
0100
0010
,
0100
0001
1000
0100
0010
0100
1000
0010
,
0100
0010
1000
0001
0010
0100
1000
0001
,
0100
0001
1000
0010
0100
0010
1000
0001
,
0100
0001
0010
0100
1000
0010
0100
0010
,
1000
0100
0010
0100
1000
0010
0100
0001
,
2000
3100
0020
0130
2000
3010
0200
0301
,
0010
0100
0010
0001
1000
0010
0100
0010
,
1000
0001
0100
0010
0100
0001
1000
0100
,
1000
0010
0100
0010
1000
0001
0010
0001
,
0100
0010
0100
0001
1000
0001
0010
0100
,
0010
0001
1000
0001
0100
0010
0100
0001
,
1000
0100
1000
0001
0100
0010
0100
0001
,
0010
0100
1000
0001
0100
0010
0100
0001
,
2000
3100
0020
0130
2000
3010
0200
0301
,
1000
0001
0100
0001
1000
0010
0100
0010
1000
0001
0100
0001
0100
0010
1000
0001
,
1000
0100
0010
0100
1000
0001
0010
0100
0010
0001
1000
0001
0100
0010
0100
0001
,
1000
0100
1000
0001
0010
0001
1000
0010
0100
0010
1000
0001
1000
0100
0010
0001
,
1000
0100
1000
0001
0010
0100
1000
0001
1000
0010
0100
0001
1000
0001
0100
0010
,
0100
0001
1000
0100
0010
0100
1000
0001
0010
0100
1000
0001
1000
0010
0100
0010
,
1000
0001
0100
0001
1000
0010
0100
0001
1000
0001
1000
0010
0100
0001
1000
0001
,
0010
0100
0010
0001
1000
0100
0010
0001
1000
0100
1000
0001
0100
0010
0100
0001
,
1000
0001
0100
0010
0100
0001
1000
0001
0100
0010
0100
0001
1000
0100
1000
0001
,
0010
0100
1000
0001
1000
0010
0100
0010
1000
0001
0100
0001
1000
0100
0010
0100
,
1000
0001
0100
0010
1000
0010
0100
0001
1000
0100
1000
0001
0100
0001
1000
0010
,
0100
0010
1000
0001
0100
0001
1000
0100
0010
0001
1000
0100
0010
0100
1000
0001
,
0100
0010
0100
0001
1000
0100
0010
0001
1000
0001
0100
0010
0100
0001
1000
0001
,
0100
0010
0100
0001
1000
0100
0010
0001
1000
0001
0100
0010
0100
0001
1000
0001
,
0010
0100
1000
0001
1000
0010
1000
0001
0010
0100
0010
0001
1000
0001
0100
0010
,
2000
0000
0000
3000
,
0001
0001
0000
0100
0100
0000
0001
1000
,
0MM1
0000
0MM0
0000
1MM0
0000
1MM0
00M0
00M0
00M0
00M0
00M0
01M0
00M0
01M0
00M0
,
0000
0000
1000
1000
0000
0000
0001
0001
,
0000
0000
0100
0100
0000
0000
0001
0001
,
0000
0000
0010
0010
0000
0000
0100
0100
,
0000
0000
1000
1000
0000
0000
0100
0100
,
0000
0000
1000
1000
0000
0000
0001
0001
,
0000
0000
0100
0100
0000
0000
0001
0001
,
0000
0000
0010
0010
0000
0000
0100
0100
,
0000
0000
1000
1000
0000
0000
0001
0001
,
0000
0000
0100
0100
0000
0000
0010
0010
,
0000
0000
1000
1000
0000
0000
0100
0100
,
0000
0000
1000
1000
0000
0000
0001
0001
,
0000
0000
0100
0100
0000
0000
0001
0001
,
0000
0000
0010
0010
0000
0000
0100
0100
,
0000
0000
1000
1000
0000
0000
0001
0001
,
0000
0000
0100
0100
0000
0000
0001
1000
,
0200
0300
1000
0000
0010
0000
0100
0000
0001
0000
0010
0000
0100
0000
1000
0000
,
0001
0100
0010
0100
0001
1000
0100
0010
,
0001
1000
0010
0100
0010
1000
0001
0010
,
0100
1000
0001
0100
0010
0100
0001
1000
,
0100
0010
0001
1000
0100
1000
0001
0100
,
0010
0100
0001
1000
0001
0010
0100
1000
,
0001
0100
0010
0100
0001
1000
0100
1000
,
0001
0100
0010
0100
0001
0010
0100
1000
,
0001
0100
0001
1000
0010
1000
0001
0100
0001
1000
0100
0010
0100
1000
0001
0010
,
0100
0010
0001
1000
0100
1000
0001
0010
0001
1000
0100
1000
0001
0100
0001
1000
,
0010
0100
0001
1000
0100
1000
0001
0010
0100
1000
0001
0010
0001
1000
0010
0100
,
0010
1000
0001
0100
0001
1000
0010
0100
0010
1000
0001
0010
0100
1000
0001
1000
,
0100
0010
0001
1000
0001
0100
0010
0100
0001
1000
0001
0100
0010
0100
0001
1000
,
0100
0010
0100
1000
0001
0010
0100
1000
0001
0100
0001
1000
0010
0100
0010
1000
,
0001
0100
0001
0100
0010
1000
0001
1000
0100
0010
0001
1000
0100
1000
0001
0100
,
0010
0100
0001
1000
0001
0010
0100
1000
0001
0100
0001
1000
0010
0100
0010
1000
,
0001
0100
0010
0100
,
0001
0010
0100
1000
,
0001
0100
0010
0100
,
0001
0000
1000
0100
0000
0100
0010
0000
,
0100
1000
0010
0100
,
0001
0010
0100
1000
,
0001
0100
0010
0100
,
0001
0000
1000
0100
1000
0001
0010
0100
,
2000
3000
0000
0000
0001
0000
0000
0000
0100
0000
0000
0000
0010
0000
0000
0000
,
0100
0001
0010
0100
,
1000
0010
0100
0010
,
1000
0000
0100
0010
0000
0010
0001
0000
,
1000
0100
0010
0100
,
1000
0000
0001
0000
0100
0000
0010
1000
,
0100
0010
0100
1000
0010
0100
0001
1000
,
0100
0000
0010
0100
0000
0100
1000
0000
,
0001
0100
0010
0100
,
0001
0010
0100
1000
,
0001
0100
0010
0100
,
0001
0000
1000
0100
0000
0100
0010
0000
,
0100
1000
0010
0100
,
0001
0010
0100
1000
,
0001
0100
0010
0100
,
0001
0000
1000
0100
1000
0001
0010
0100
,
2000
3000
0000
0000
0001
0000
0000
0000
0100
0000
0000
0000
0010
0000
0000
0000
,
0100
0001
0010
0100
,
1000
0010
0100
0010
,
1000
0000
0100
0010
0000
0010
0001
0000
,
1000
0100
0010
0100
,
1000
0001
0100
0010
,
1000
0100
0010
0001
,
1000
0000
0100
0010
0100
1000
0010
0100
,
0001
0010
0002
0103
0010
1000
0200
0310
,
0001
0100
0020
1030
0001
0100
0020
0130
,
0001
0010
0200
1300
0001
0100
0020
0130
,
0001
1000
0200
0310
0001
0100
0020
1030
,
0001
0100
0020
0130
0001
0010
0200
1300
,
0010
0100
0002
1003
0100
0010
0200
1300
,
0001
0100
0020
0130
0001
1000
0002
0013
,
0100
1000
0020
0130
0001
1000
0200
1300
,
0002
0003
0100
0000
0020
0000
0130
0000
0001
0000
1000
0000
0200
0000
0310
0000
,
0001
1000
0002
0103
0010
0100
0002
1003
,
0100
0010
0200
1300
0001
0100
0020
0130
,
0001
1000
0200
1300
0001
0100
0020
0130
,
0001
1000
0200
1300
0001
0100
0002
1003
,
0010
0100
0020
1030
0100
0010
0200
1300
,
0001
0100
0020
0130
0001
1000
0002
0013
,
0100
1000
0002
0103
0010
1000
0200
1300
,
0001
0100
0010
1000
0001
0010
0100
1000
0001
0100
0001
1000
0010
0100
0010
1000
,
0001
0100
0001
1000
0100
0010
0100
1000
0001
0010
0001
1000
0100
1000
0001
0100
,
0010
1000
0001
1000
0010
0100
0001
1000
0100
0010
0100
0010
0001
1000
0100
1000
,
0001
0100
0010
0100
0001
1000
0001
0010
0100
1000
0001
0100
0010
0100
0001
1000
,
0100
1000
0001
0100
0010
0100
0001
1000
0001
0010
0100
1000
0001
0100
0001
1000
,
0010
0100
0010
1000
0001
1000
0100
0010
0100
1000
0001
0100
0010
0100
0001
1000
,
0100
0010
0001
1000
0100
1000
0001
0100
0010
0100
0001
1000
0001
0010
0100
1000
,
0001
0100
0001
1000
0010
0100
0010
1000
0001
0100
0010
0100
0001
1000
0100
0010
,
0001
0100
0010
0100
,
0001
0010
0100
1000
,
0001
0100
0010
0100
,
0001
0000
1000
0100
0000
0100
0010
0000
,
0100
1000
0010
0100
,
0001
0010
0100
1000
,
0001
0100
0010
0100
,
0001
0000
1000
0100
1000
0001
0010
0100
,
2000
3000
0000
0000
0001
0000
0000
0000
0100
0000
0000
0000
0010
0000
0000
0000
,
0100
0001
0010
0100
,
1000
0010
0100
0010
,
1000
0000
0100
0010
0000
0010
0001
0000
,
1000
0100
0010
0100
,
1000
0001
0100
0010
,
1000
0100
0010
0001
,
1000
0000
0010
0100
0001
0010
0100
1000
,
0001
0100
0001
1000
0100
0010
0001
1000
0001
0010
0100
1000
0001
1000
0010
0100
,
0010
1000
0001
0100
0010
0100
0001
1000
0001
0010
0100
0010
0001
1000
0001
0010
,
0100
1000
0001
0010
0001
1000
0010
0100
0001
1000
0010
1000
0001
0010
0001
1000
,
0100
0010
0100
1000
0001
0100
0010
1000
0001
0100
0001
1000
0100
0010
0100
1000
,
0001
1000
0100
0010
0100
1000
0001
0010
0001
1000
0010
0100
0001
1000
0010
1000
,
0001
0010
0100
1000
0100
0010
0001
0100
0001
1000
0010
1000
0001
0010
0100
0010
,
0001
1000
0100
0010
0001
1000
0010
1000
0001
0010
0100
1000
0001
1000
0010
0100
,
0001
1000
0010
1000
0001
0010
0001
1000
0010
0100
0001
1000
0010
1000
0001
0010
,
0100
0010
0001
1000
0001
1000
0010
0100
0010
1000
0001
0010
0100
0010
0001
1000
,
0010
0100
0001
1000
0010
1000
0001
0010
0100
1000
0001
1000
0100
0010
0100
1000
,
0001
1000
0010
0100
0001
1000
0010
1000
0001
0010
0001
1000
0010
0100
0001
1000
,
0010
1000
0001
0010
0100
0010
0001
1000
0001
0100
0010
1000
0001
1000
0100
0010
,
0001
1000
0100
1000
0001
0010
0100
0010
0001
1000
0010
0100
0010
1000
0001
0100
,
0010
1000
0001
1000
0010
0100
0010
1000
0001
0010
0100
1000
0001
1000
0010
0100
,
0001
1000
0010
1000
0001
0100
0010
1000
0001
0100
0001
1000
0100
0010
0100
1000
,
0001
1000
0000
0001
0100
0000
0002
0003
,
2000
0000
0000
0000
,
0000
0000
0000
0000
,
0000
0000
0000
0000
,
3002
0000
0000
0023
0000
0000
0230
0000
,
2300
0000
0000
0000
,
0000
0000
0000
0000
3002
0000
0203
0302
,
2003
0000
0000
3200
,
0320
0000
0032
2003
3020
0000
0230
0000
,
0302
0000
0000
0000
,
0000
0000
2003
3200
,
0320
0230
2300
3002
,
0203
0000
0000
0000
0302
0023
0230
0000
2300
0000
0000
0000
3002
0000
0203
0000
,
0320
0000
0000
0000
,
0000
0000
0000
0000
0000
0000
0000
0000
2030
0000
0000
0000
3002
0023
0230
0000
,
2300
0000
0000
0000
0000
0000
3001
0100
,
0010
1000
0100
0010
0100
1000
0010
0100
,
0001
0100
0010
0100
,
0001
0010
0100
1000
,
0001
0100
0010
0100
,
0001
0000
1000
0100
0000
0100
0010
0000
,
0100
1000
0010
0100
,
0001
0010
0100
1000
,
0001
0100
0010
0100
,
0001
0000
1000
0100
1000
0001
0010
0100
,
2000
3000
0000
0000
0001
0000
0000
0000
0100
0000
0000
0000
0010
0000
0000
0000
,
0100
0001
0010
0100
,
1000
0010
0100
0010
,
1000
0000
0100
0010
0000
0010
0001
0000
,
1000
0100
0010
0100
,
1000
0000
0001
0000
0100
0000
0010
1000
,
0100
0010
0100
1000
0010
0100
0001
0010
,
0200
0300
1000
0001
0100
0010
0100
0001
,
1000
0100
1000
0001
0100
0001
1000
0010
0100
0010
1000
0001
0100
0001
1000
0100
,
0010
0100
1000
0001
0100
0010
0100
0001
1000
0100
0010
0001
1000
0001
0100
0010
,
0100
0001
1000
0001
0010
0100
1000
0001
1000
0010
0100
0010
1000
0001
0100
0001
,
1000
0100
1000
0001
0010
0100
1000
0001
0100
0001
1000
0100
0010
0100
1000
0001
,
0100
0010
0100
0001
1000
0100
0010
0001
1000
0100
1000
0001
0100
0010
0100
0001
,
1000
0001
0010
0100
1000
0001
1000
0010
0100
0010
1000
0001
1000
0001
0010
0100
,
1000
0001
0100
0001
1000
0100
1000
0001
0100
0001
0100
0010
1000
0001
0100
0001
,
1000
0010
1000
0001
0010
0001
1000
0010
0100
0001
1000
0010
0100
0001
1000
0001
;

//---------------dance-single - J. Nero----------------
#NOTES:
     dance-single:
     J. Nero:
     Easy:
     17:
     1.000,1.000,0.000,0.487,1.000,1650.000,0.000,100.000,17.000,0.000:
0000
0000
0000
0000
,
0000
0000
0000
0000
,
0000
0000
0000
0000
,
0000
0000
0000
0000
,
0000
0000
0000
0000
,
0000
0000
0000
0000
,
0000
0000
0000
0000
,
0000
0000
0000
0000
,
0000
0000
0000
0000
,
1000
0001
0100
0001
1000
0010
0100
0001
1000
0100
1000
0001
0010
0100
0010
0001
,
1000
0100
1000
0001
1000
0010
0100
0010
1000
0001
0100
0001
1000
0100
0010
0001
,
1000
0100
1000
0001
0100
0010
0100
0001
1000
0001
0010
0100
1000
0001
0010
0001
,
1000
0010
1000
0001
0100
0010
0100
0001
1000
0010
0100
0001
1000
0001
0010
0100
,
1000
0001
1000
0100
0010
0100
1000
0001
0100
0001
1000
0010
0100
0001
0100
0001
,
1000
0010
0100
0001
1000
0100
1000
0001
0010
0100
0010
0001
1000
0001
0100
0010
,
1000
0001
0100
0001
1000
0001
0010
0100
1000
0001
1000
0100
1000
0001
0100
0010
,
0100
0001
1000
0010
0100
0010
1000
0001
0100
0001
1000
0010
0100
0001
1000
0100
,
1000
0001
0010
0100
1000
0001
0100
0010
,
0100
0001
1000
0100
1000
0001
0100
0010
,
0100
0001
1000
0100
0010
0100
1000
0010
,
0100
0010
1000
0001
0010
0100
1000
0001
,
0100
0001
1000
0010
0100
0010
1000
0001
,
0100
0001
0010
0100
1000
0010
0100
0010
,
1000
0100
0010
0100
1000
0010
0100
0001
,
2000
3100
0020
0130
2000
3010
0200
0301
,
0010
0100
0010
0001
1000
0010
0100
0010
,
1000
0001
0100
0010
0100
0001
1000
0100
,
1000
0010
0100
0010
1000
0001
0010
0001
,
0100
0010
0100
0001
1000
0001
0010
0100
,
0010
0001
1000
0001
0100
0010
0100
0001
,
1000
0100
1000
0001
0100
0010
0100
0001
,
0010
0100
1000
0001
0100
0010
0100
0001
,
2000
3100
0020
0130
2000
3010
0200
0301
,
1000
0001
0100
0001
1000
0010
0100
0010
1000
0001
0100
0001
0100
0010
1000
0001
,
1000
0100
0010
0100
1000
0001
0010
0100
0010
0001
1000
0001
0100
0010
0100
0001
,
1000
0100
1000
0001
0010
0001
1000
0010
0100
0010
1000
0001
1000
0100
0010
0001
,
1000
0100
1000
0001
0010
0100
1000
0001
1000
0010
0100
0001
1000
0001
0100
0010
,
0100
0001
1000
0100
0010
0100
1000
0001
0010
0100
1000
0001
1000
0010
0100
0010
,
1000
0001
0100
0001
1000
0010
0100
0001
1000
0001
1000
0010
0100
0001
1000
0001
,
0010
0100
0010
0001
1000
0100
0010
0001
1000
0100
1000
0001
0100
0010
0100
0001
,
1000
0001
0100
0010
0100
0001
1000
0001
0100
0010
0100
0001
1000
0100
1000
0001
,
0010
0100
1000
0001
1000
0010
0100
0010
1000
0001
0100
0001
1000
0100
0010
0100
,
1000
0001
0100
0010
1000
0010
0100
0001
1000
0100
1000
0001
0100
0001
1000
0010
,
0100
0010
1000
0001
0100
0001
1000
0100
0010
0001
1000
0100
0010
0100
1000
0001
,
0100
0010
0100
0001
1000
0100
0010
0001
1000
0001
0100
0010
0100
0001
1000
0001
,
0100
0010
0100
0001
1000
0100
0010
0001
1000
0001
0100
0010
0100
0001
1000
0001
,
0010
0100
1000
0001
1000
0010
1000
0001
0010
0100
0010
0001
1000
0001
0100
0010
,
2000
0000
0000
3000
,
0001
0001
0000
0100
0100
0000
0001
1000
,
0MM1
0000
0MM0
0000
1MM0
0000
1MM0
00M0
00M0
00M0
00M0
00M0
01M0
00M0
01M0
00M0
,
0000
0000
1000
1000
0000
0000
0001
0001
,
0000
0000
0100
0100
0000
0000
0001
0001
,
0000
0000
0010
0010
0000
0000
0100
0100
,
0000
0000
1000
1000
0000
0000
0100
0100
,
0000
0000
1000
1000
0000
0000
0001
0001
,
0000
0000
0100
0100
0000
0000
0001
0001
,
0000
0000
0010
0010
0000
0000
0100
0100
,
0000
0000
1000
1000
0000
0000
0001
0001
,
0000
0000
0100
0100
0000
0000
0010
0010
,
0000
0000
1000
1000
0000
0000
0100
0100
,
0000
0000
1000
1000
0000
0000
0001
0001
,
0000
0000
0100
0100
0000
0000
0001
0001
,
0000
0000
0010
0010
0000
0000
0100
0100
,
0000
0000
1000
1000
0000
0000
0001
0001
,
0000
0000
0100
0100
0000
0000
0001
1000
,
0200
0300
1000
0000
0010
0000
0100
0000
0001
0000
0010
0000
0100
0000
1000
0000
,
0001
0100
0010
0100
0001
1000
0100
0010
,
0001
1000
0010
0100
0010
1000
0001
0010
,
0100
1000
0001
0100
0010
0100
0001
1000
,
0100
0010
0001
1000
0100
1000
0001
0100
,
0010
0100
0001
1000
0001
0010
0100
1000
,
0001
0100
0010
0100
0001
1000
0100
1000
,
0001
0100
0010
0100
0001
0010
0100
1000
,
0001
0100
0001
1000
0010
1000
0001
0100
0001
1000
0100
0010
0100
1000
0001
0010
,
0100
0010
0001
1000
0100
1000
0001
0010
0001
1000
0100
1000
0001
0100
0001
1000
,
0010
0100
0001
1000
0100
1000
0001
0010
0100
1000
0001
0010
0001
1000
0010
0100
,
0010
1000
0001
0100
0001
1000
0010
0100
0010
1000
0001
0010
0100
1000
0001
1000
,
0100
0010
0001
1000
0001
0100
0010
0100
0001
1000
0001
0100
0010
0100
0001
1000
,
0100
0010
0100
1000
0001
0010
0100
1000
0001
0100
0001
1000
0010
0100
0010
1000
,
0001
0100
0001
0100
0010
1000
0001
1000
0100
0010
0001
1000
0100
1000
0001
0100
,
0010
0100
0001
1000
0001
0010
0100
1000
0001
0100
0001
1000
0010
0100
0010
1000
,
0001
0100
0010
0100
,
0001
0010
0100
1000
,
0001
0100
0010
0100
,
0001
0000
1000
0100
0000
0100
0010
0000
,
0100
1000
0010
0100
,
0001
0010
0100
1000
,
0001
0100
0010
0100
,
0001
0000
1000
0100
1000
0001
0010
0100
,
2000
3000
0000
0000
0001
0000
0000
0000
0100
0000
0000
0000
0010
0000
0000
0000
,
0100
0001
0010
0100
,
1000
0010
0100
0010
,
1000
0000
0100
0010
0000
0010
0001
0000
,
1000
0100
0010
0100
,
1000
0000
0001
0000
0100
0000
0010
1000
,
0100
0010
0100
1000
0010
0100
0001
1000
,
0100
0000
0010
0100
0000
0100
1000
0000
,
0001
0100
0010
0100
,
0001
0010
0100
1000
,
0001
0100
0010
0100
,
0001
0000
1000
0100
0000
0100
0010
0000
,
0100
1000
0010
0100
,
0001
0010
0100
1000
,
0001
0100
0010
0100
,
0001
0000
1000
0100
1000
0001
0010
0100
,
2000
3000
0000
0000
0001
0000
0000
0000
0100
0000
0000
0000
0010
0000
0000
0000
,
0100
0001
0010
0100
,
1000
0010
0100
0010
,
1000
0000
0100
0010
0000
0010
0001
0000
,
1000
0100
0010
0100
,
1000
0001
0100
0010
,
1000
0100
0010
0001
,
1000
0000
0100
0010
0100
1000
0010
0100
,
0001
0010
0002
0103
0010
1000
0200
0310
,
0001
0100
0020
1030
0001
0100
0020
0130
,
0001
0010
0200
1300
0001
0100
0020
0130
,
0001
1000
0200
0310
0001
0100
0020
1030
,
0001
0100
0020
0130
0001
0010
0200
1300
,
0010
0100
0002
1003
0100
0010
0200
1300
,
0001
0100
0020
0130
0001
1000
0002
0013
,
0100
1000
0020
0130
0001
1000
0200
1300
,
0002
0003
0100
0000
0020
0000
0130
0000
0001
0000
1000
0000
0200
0000
0310
0000
,
0001
1000
0002
0103
0010
0100
0002
1003
,
0100
0010
0200
1300
0001
0100
0020
0130
,
0001
1000
0200
1300
0001
0100
0020
0130
,
0001
1000
0200
1300
0001
0100
0002
1003
,
0010
0100
0020
1030
0100
0010
0200
1300
,
0001
0100
0020
0130
0001
1000
0002
0013
,
0100
1000
0002
0103
0010
1000
0200
1300
,
0001
0100
0010
1000
0001
0010
0100
1000
0001
0100
0001
1000
0010
0100
0010
1000
,
0001
0100
0001
1000
0100
0010
0100
1000
0001
0010
0001
1000
0100
1000
0001
0100
,
0010
1000
0001
1000
0010
0100
0001
1000
0100
0010
0100
0010
0001
1000
0100
1000
,
0001
0100
0010
0100
0001
1000
0001
0010
0100
1000
0001
0100
0010
0100
0001
1000
,
0100
1000
0001
0100
0010
0100
0001
1000
0001
0010
0100
1000
0001
0100
0001
1000
,
0010
0100
0010
1000
0001
1000
0100
0010
0100
1000
0001
0100
0010
0100
0001
1000
,
0100
0010
0001
1000
0100
1000
0001
0100
0010
0100
0001
1000
0001
0010
0100
1000
,
0001
0100
0001
1000
0010
0100
0010
1000
0001
0100
0010
0100
0001
1000
0100
0010
,
0001
0100
0010
0100
,
0001
0010
0100
1000
,
0001
0100
0010
0100
,
0001
0000
1000
0100
0000
0100
0010
0000
,
0100
1000
0010
0100
,
0001
0010
0100
1000
,
0001
0100
0010
0100
,
0001
0000
1000
0100
1000
0001
0010
0100
,
2000
3000
0000
0000
0001
0000
0000
0000
0100
0000
0000
0000
0010
0000
0000
0000
,
0100
0001
0010
0100
,
1000
0010
0100
0010
,
1000
0000
0100
0010
0000
0010
0001
0000
,
1000
0100
0010
0100
,
1000
0001
0100
0010
,
1000
0100
0010
0001
,
1000
0000
0010
0100
0001
0010
0100
1000
,
0001
0100
0020
0130
0001
1000
0200
0310
,
0001
1000
0200
1300
0001
0100
0020
0130
,
0001
1000
0002
0013
0100
1000
0200
0310
,
0001
0100
0020
0130
0001
1000
0002
0013
,
0100
1000
0002
0103
0010
0100
0002
0013
,
0100
1000
0002
0103
0010
0100
0002
1003
,
0100
0010
0002
1003
0010
0100
0002
1003
,
0100
1000
0002
0013
0100
1000
0020
0130
,
0001
0100
0010
1000
0001
1000
0010
0100
0010
1000
0001
0010
0100
0010
0001
1000
,
0010
0100
0001
1000
0010
1000
0001
0010
0100
1000
0001
1000
0100
0010
0100
1000
,
0001
1000
0010
0100
0001
1000
0010
1000
0001
0010
0001
1000
0010
0100
0001
1000
,
0010
1000
0001
0010
0100
0010
0001
1000
0001
0100
0010
1000
0001
1000
0100
0010
,
0001
1000
0100
1000
0001
0010
0100
0010
0001
1000
0010
0100
0010
1000
0001
0100
,
0010
1000
0001
1000
0010
0100
0010
1000
0001
0010
0100
1000
0001
1000
0010
0100
,
0001
1000
0010
1000
0001
0100
0010
1000
0001
0100
0001
1000
0100
0010
0100
1000
,
0001
1000
0000
0001
0100
0000
0002
0003
,
2000
0000
0000
0000
,
0000
0000
0000
0000
,
0000
0000
0000
0000
,
3002
0000
0000
0023
0000
0000
0230
0000
,
2300
0000
0000
0000
,
0000
0000
0000
0000
3002
0000
0203
0302
,
2003
0000
0000
3200
,
0320
0000
0032
2003
3020
0000
0230
0000
,
0302
0000
0000
0000
,
0000
0000
2003
3200
,
0320
0230
2300
3002
,
0203
0000
0000
0000
0302
0023
0230
0000
2300
0000
0000
0000
3002
0000
0203
0000
,
0320
0000
0000
0000
,
0000
0000
0000
0000
0000
0000
0000
0000
2030
0000
0000
0000
3002
0023
0230
0000
,
2300
0000
0000
0000
0000
0000
3001
0100
,
0010
1000
0100
0010
0100
1000
0010
0100
,
0001
0100
0010
0100
,
0001
0010
0100
1000
,
0001
0100
0010
0100
,
0001
0000
1000
0100
0000
0100
0010
0000
,
0100
1000
0010
0100
,
0001
0010
0100
1000
,
0001
0100
0010
0100
,
0001
0000
1000
0100
1000
0001
0010
0100
,
2000
3000
0000
0000
0001
0000
0000
0000
0100
0000
0000
0000
0010
0000
0000
0000
,
0100
0001
0010
0100
,
1000
0010
0100
0010
,
1000
0000
0100
0010
0000
0010
0001
0000
,
1000
0100
0010
0100
,
1000
0000
0001
0000
0100
0000
0010
1000
,
0100
0010
0100
1000
0010
0100
0001
0010
,
0200
0300
1000
0001
0100
0010
0100
0001
,
1000
0100
1000
0001
0100
0001
1000
0010
0100
0010
1000
0001
0100
0001
1000
0100
,
0010
0100
1000
0001
0100
0010
0100
0001
1000
0100
0010
0001
1000
0001
0100
0010
,
0100
0001
1000
0001
0010
0100
1000
0001
1000
0010
0100
0010
1000
0001
0100
0001
,
1000
0100
1000
0001
0010
0100
1000
0001
0100
0001
1000
0100
0010
0100
1000
0001
,
0100
0010
0100
0001
1000
0100
0010
0001
1000
0100
1000
0001
0100
0010
0100
0001
,
1000
0001
0010
0100
1000
0001
1000
0010
0100
0010
1000
0001
1000
0001
0010
0100
,
1000
0001
0100
0001
1000
0100
1000
0001
0100
0001
0100
0010
1000
0001
0100
0001
,
1000
0010
1000
0001
0010
0001
1000
0010
0100
0001
1000
0010
0100
0001
1000
0001
;
