#TITLE:Revolution Deathsquad;
#SUBTITLE:Inhuman Rampage;
#ARTIST:Dragonforce;
#TITLETRANSLIT:;
#SUBTITLETRANSLIT:;
#ARTISTTRANSLIT:;
#CREDIT:;
#BANNER:Revolution Deathsquad-bn.PNG;
#BACKGROUND:Revolution Deathsquad-bg.png;
#LYRICSPATH:;
#CDTITLE:;
#MUSIC:DragonForce - 02 - Revolution Deathsquad.mp3;
#OFFSET:-0.280;
#SAMPLESTART:237.000;
#SAMPLELENGTH:13.000;
#SELECTABLE:YES;
#BPMS:0.000=254.999,30.000=199.999;
#STOPS:;
#BGCHANGES:;
// cache tags:
#FIRSTBEAT:0.000;
#LASTBEAT:1571.000;
#SONGFILENAME:Songs/CMDKDF Pack/Revolution Deathsquad v2/Revolution Deathsquad.sm;
#HASMUSIC:1;
#HASBANNER:1;
#MUSICLENGTH:472.920;
// end cache tags

//---------------dance-single - ----------------
#NOTES:
     dance-single:
     :
     Hard:
     11:
     1.000,1.000,0.681,0.402,0.917,3135.000,322.000,190.000,0.000,0.000:

1001
1000
0100
0010
0001
0100
0010
1000
,
0100
0010
0001
0100
0001
0010
0011
1001
,
0001
0010
0100
1000
0010
0100
0001
0010
,
0100
1000
0001
0010
0100
1000
0100
0010
0001
0010
0100
1000
0110
0000
1001
0000
,
1000
0100
0010
0100
1000
0001
0010
0100
,
0010
0001
1000
0100
0001
0100
1000
0010
,
1001
0000
0011
0101
1001
0101
0110
1001
,
1010
0101
2002
0000
,
0000
0000
0000
3003
,
2000
0000
0000
3200
0000
0000
0302
0000
,
0200
0003
0000
0320
0000
0031
0100
0010
,
2000
0000
0000
3002
0000
0000
0023
0000
,
0230
0000
0300
0012
0000
0000
0203
0000
,
0320
0000
0000
0230
0000
0000
0302
0000
,
2003
0000
0000
3200
0000
0310
0001
1000
,
0200
0000
0000
2300
0000
0000
3200
0000
,
2300
0000
0000
3002
0000
0000
0000
0000
,
2003
0000
0000
3020
0000
0000
0032
0000
,
0023
0000
0000
2030
0000
0000
3100
0010
,
0200
0000
0000
0320
0000
0000
0031
1000
,
0100
0010
0001
0010
0100
1000
0001
1000
,
0020
0000
0000
0230
0000
0000
0302
0000
,
0023
0000
0000
0230
0000
1300
0100
1000
,
0010
0100
0010
1000
0000
1000
0100
0010
,
0001
1000
0001
0100
0010
1000
0001
0000
1000
0001
1000
0010
0100
0001
1000
0000
,
0220
0000
0000
0330
,
0110
1001
0000
0000
,
1001
0000
0101
0000
0000
0000
0101
0000
1010
0000
0000
0000
1000
0100
1000
0100
,
1001
0000
1100
0000
0000
0000
1100
0000
0011
0000
0000
0000
0001
1000
0001
1000
,
0001
1000
0100
0010
0001
0100
0010
1000
0100
0010
0001
1000
0001
0010
0100
1000
,
0002
0000
0000
0000
,
1003
0001
1000
0001
0100
0010
0100
0001
,
1000
0100
0000
0100
0010
0000
0011
0000
,
0001
0100
0001
0100
0001
0010
0100
1000
,
0001
0010
0000
0010
0100
0000
1100
1000
,
0002
0000
2003
0000
,
3001
1000
0000
1000
0100
0000
0110
0000
,
0010
0001
0000
0001
0100
0010
0000
0010
,
0200
0000
0000
0000
,
0310
1000
0000
1000
0010
1000
0100
0010
,
0001
0010
0000
0010
1000
0000
0010
0001
,
0100
0010
0000
0010
1000
0100
1000
0001
,
1000
0000
0000
0000
0100
0000
0000
0000
0010
0000
0000
0000
0001
0000
0000
0000
0000
0000
1000
0000
0000
0100
0000
0000
,
0010
0000
1001
0000
,
0010
0100
0000
0010
0100
0000
1001
0000
,
1000
0100
0000
0100
0010
0001
1000
0000
,
1001
0000
0011
0000
1100
0000
0220
0330
,
1010
0000
1000
0100
0000
0000
0100
0000
,
0011
0000
0001
0100
0000
0000
0100
0000
,
0110
0000
1001
0110
,
1001
0001
1000
0001
0000
1000
0100
0000
,
0010
0001
0000
0100
0010
1000
0000
1000
,
0100
0000
0100
0010
0000
0000
0001
0000
,
1000
0000
0000
0001
0000
0000
0100
0000
,
0010
2002
0000
3003
,
1100
0100
0000
0100
0010
0000
0011
0000
,
0001
0000
1000
0010
0000
0000
0100
0000
,
1001
0000
0011
0000
1100
0101
0000
0110
,
0000
0011
0000
0000
0000
0000
0001
0000
,
1000
0000
0010
0100
0000
0000
0010
0000
,
1000
0000
1000
0100
0000
0000
0010
0000
,
0012
0000
0000
0000
0000
0000
1000
0100
,
0020
0000
0000
0033
,
1001
0000
0000
0000
0000
0000
0000
0000
0000
0000
0000
0000
0000
0000
0000
1001
,
0000
0000
0000
0000
,
1001
1000
0100
0010
0001
1000
0001
0010
,
0100
0000
0000
1000
0000
0000
0001
0000
0000
0010
0000
0000
0001
0000
0000
0100
0000
0000
0010
0000
0000
0100
0001
0010
,
0100
0000
0000
0110
0000
0000
0011
0000
,
1001
0000
0000
1010
0000
0000
1100
0000
,
1001
1000
0100
0010
0001
0010
0100
1000
0010
0100
0001
1000
0001
0100
0010
0100
,
0110
0110
0110
0110
,
0001
0000
1000
0000
0100
0010
0100
0000
0010
0000
0001
0000
1000
0001
1000
0000
,
0010
0000
1000
0000
0010
1000
0100
0000
0010
0000
0001
0000
0010
0001
0100
0000
,
1010
0000
0000
1001
0000
0000
0011
0000
,
0110
1100
1010
1010
,
1000
0000
0100
0000
1000
0100
0001
0000
0100
0000
1000
0000
0001
0100
1000
0000
,
0100
0000
0001
0000
0010
1000
0010
0000
0001
0000
0100
0000
1000
0100
1000
0000
,
0100
0000
0010
0000
1000
0100
0001
0000
0100
0000
1000
0000
0010
0100
0010
0000
,
1000
0100
0010
0100
1000
0001
0100
0010
1000
0001
1000
0100
0010
0001
1000
0001
,
1001
0000
1000
0000
0100
0010
0001
0000
0100
0000
0010
0000
1000
0100
0010
0000
,
0100
0000
1000
0000
0001
0100
0010
0000
0010
0000
1000
0000
0010
1000
0100
0000
,
0010
0000
0001
0000
0010
0100
1000
0000
0010
0000
0100
0000
0001
0010
0100
0000
,
0010
0000
0001
0000
1000
0010
0100
0000
0010
0000
1000
0000
1000
0100
1000
0100
,
1000
0001
1000
0001
0010
0100
0010
0100
1000
0100
1000
0010
1000
0010
1000
0010
,
0100
0001
0100
0001
0010
0001
0010
0001
0010
0100
0010
0100
1000
0100
1000
0100
,
1000
0100
0010
0100
1000
0000
0001
0100
,
0010
1000
0001
0000
1001
0000
1001
0000
,
0001
0010
0100
1000
0001
0100
0010
1000
0100
0010
0100
1000
0010
1000
0010
1000
,
0100
0010
0001
0010
0100
0010
0001
0100
0020
0000
1030
0000
0100
0010
0001
0000
,
1000
0100
0010
0001
0100
0010
0100
0001
0010
0100
1000
0100
0010
0100
1000
0001
,
1000
0100
0010
0001
0010
0000
0100
0000
1000
0000
0010
0000
2000
0000
0000
0000
,
3001
0000
0001
0000
0001
1000
0100
0000
0100
0000
0100
0000
0100
1000
0010
0000
,
0010
0000
0010
0000
0010
0100
0001
0000
0001
1000
0001
1000
0010
0100
0001
0100
,
0110
0000
0110
1001
1000
0100
1000
0001
,
0101
0000
0101
0011
0000
0001
0010
0100
,
2000
0000
0000
3000
0000
0000
0000
0000
,
0000
0011
0110
1100
0110
0011
1001
0000
,
0220
0000
0000
0330
,
0010
1000
0100
0010
0100
1000
0001
1000
,
0100
0010
0000
0010
1100
0000
0010
0100
,
0010
1000
0010
1000
0100
0010
0001
0100
,
0010
0000
0000
0000
1000
0000
0000
0000
0100
0000
0000
0000
0010
0000
0000
0000
0000
0000
0001
0000
0000
1000
0000
0000
,
0002
0000
1003
0000
,
1000
0100
0000
0010
0001
0000
0101
0000
,
0010
1000
0000
0010
0100
0001
0000
1000
,
1000
0001
0100
0010
1000
0100
0010
0001
0100
0010
1000
0100
0010
0000
0100
0000
,
0010
0001
0010
0100
0010
0001
0010
0001
,
0100
0010
0000
0010
0001
0000
0010
1000
,
0100
1000
0100
0010
0100
1000
0100
0010
,
0001
1000
0000
0010
0100
0000
0001
0001
,
2001
0000
3100
0000
,
0100
0010
0000
0010
0001
0000
0101
0000
,
0010
0100
0000
0010
0100
1000
0000
1000
,
0100
0001
0000
0010
0100
1000
0002
0000
,
1003
0000
0100
1000
0000
0100
0100
0000
,
1001
0000
0001
0010
0000
0100
0100
0000
,
0110
0011
0101
1001
,
0020
0000
1030
0100
0020
0000
0030
0000
,
0001
0010
0000
0010
0001
0100
0000
0100
,
0010
0000
0010
1000
0000
0000
0101
0000
,
2001
0000
0000
0002
3000
0000
1003
0000
,
0100
0020
0001
0001
,
0031
0001
0000
0100
1000
0000
0100
0000
,
0010
0000
1000
0100
0000
0000
0010
0000
,
0011
0000
1001
0000
1100
1100
0000
0101
,
0000
1100
0000
0000
0000
0000
0110
0000
,
1001
0000
1000
0100
0000
0001
0100
0000
,
0010
0000
0001
0100
0000
0000
0010
0000
,
2000
0000
0000
0000
0000
0000
0001
0010
,
0200
0000
0000
3300
,
1001
0000
0000
0000
0000
0000
0000
0110
,
0000
0000
0000
0000
,
1000
0100
0001
0100
1000
0010
0100
0001
,
0010
0100
1000
0100
0010
0001
0100
0010
,
1000
0001
1000
0001
0000
0000
0100
0001
1000
0001
0000
0000
0001
0100
0001
0000
,
0010
0001
0100
0010
1000
0100
1000
0001
0100
0010
0100
0001
0010
0100
1000
0001
,
1000
0000
0000
0000
,
0000
0000
0000
0000
,
1020
0000
0000
0130
0000
0000
0001
0010
,
0100
1000
0000
0101
0000
0000
0110
0000
,
1010
0000
0000
1100
0000
0000
0101
0000
,
0011
0000
0011
0000
1001
0000
1000
0001
,
1000
0010
0000
1100
0000
0000
1001
0000
,
0011
0000
0001
0100
0000
0000
0110
0000
,
0010
0000
1000
1000
0000
0000
0100
0000
,
0001
0000
1001
0000
,
0101
0000
0001
0100
0000
0000
0010
0000
,
1010
0000
1000
0100
0000
0000
1100
0000
,
1001
0000
0001
0001
0000
0000
1000
0000
,
0100
0000
0000
1001
0000
0000
0000
0000
,
0110
0000
0001
1000
0000
0000
0110
0000
,
1001
0000
1000
0100
0000
0000
0110
0000
,
1000
0100
0010
0001
1000
0000
0001
1000
,
0001
1001
0110
1001
,
1000
0100
0010
0001
1000
0010
0100
0001
0010
0100
0010
0001
0100
0001
0100
0001
,
0010
0100
1000
0100
0010
0100
1000
0010
0200
0000
0301
0000
0010
0100
1000
0000
,
0001
0010
0100
1000
0010
0100
0010
1000
0100
0010
0001
0010
0100
0010
0001
1000
,
0001
0010
0100
1000
0100
0000
0010
0000
0001
0000
0100
0000
0002
0000
0000
0000
,
1003
0000
1000
0000
1000
0001
0010
0000
0010
0000
0010
0000
0010
0001
0100
0000
,
0100
0000
0100
0000
0100
0010
1000
0000
1000
0001
1000
0001
0100
0010
1000
0010
,
0110
0000
0110
1001
0001
0010
0001
1000
,
1010
0000
1010
1100
0000
1000
0100
0010
,
0002
0000
0000
0003
,
0011
1100
0011
1100
,
1001
0000
1001
0101
1001
1100
1001
0011
,
1001
1010
1001
0011
0101
0000
1001
0000
,
1001
0100
0000
0110
0000
1010
0000
0000
,
1100
0001
0000
0011
0000
0101
0000
0000
,
1002
0000
0000
0000
0000
0000
0000
0020
,
0000
0000
0000
0000
0000
0000
0000
0000
0000
0000
0000
0000
0000
0000
0000
0000
0000
0000
0000
0000
0000
0000
0000
0000
0000
0000
0000
0000
0000
0000
0000
0000
0000
0000
0000
0000
0000
0000
0000
0000
0000
0000
0000
0000
0000
0000
0000
0033
,
0011
0110
1100
0110
0000
1001
0000
0000
,
0110
1000
0000
1100
0000
1010
0000
0000
,
2001
0000
0100
0000
0001
0000
0100
0020
,
0000
0000
0000
0000
0000
0000
0000
0000
0000
0000
0000
0000
0030
0000
0000
0000
0000
0000
0200
0000
0000
0000
0000
0000
0000
0000
0000
0000
0000
0000
0000
0000
0000
0000
0000
0000
0000
0000
0000
0000
0000
0000
0000
0000
0000
0000
0000
3300
,
1100
0010
0000
0011
0000
1001
0000
0000
,
0101
0010
0000
1010
0000
0011
0000
0000
,
0210
0000
0000
0000
0000
0000
0000
0002
,
0000
0000
0000
0000
0000
0000
0000
0000
0000
0000
0000
0000
0000
0000
0000
0000
0000
0000
0000
0000
0000
0000
0000
0303
,
0011
0110
0011
1001
0000
1001
0000
0000
,
0101
1000
0000
1010
0000
0110
0000
0000
,
0120
0000
1000
0000
0100
0000
1000
0200
,
0000
0000
0000
0000
0000
0000
0000
0000
0000
0000
0000
0000
0300
0000
0000
0000
0000
0000
2000
0000
0000
0000
0000
0000
0000
0000
0000
0000
0000
0000
0000
0000
0000
0000
0000
0000
0000
0000
0000
0000
0000
0000
0000
0000
0000
0000
0000
3030
,
1001
0000
0000
0000
0001
0000
0000
0000
1000
0000
0000
0000
0001
0000
0000
1000
0000
0000
0001
0000
0000
1000
0000
0000
0100
0000
0010
0000
0001
0000
0010
0000
0100
0000
1000
0000
0010
0000
0000
0100
0000
0000
0001
0000
0000
0100
0000
0000
,
0000
0000
0000
0000
0000
0000
0001
0000
0000
0000
0000
0000
0000
0000
0000
0000
0000
0000
0010
0000
0000
0000
0000
0000
0000
0000
0000
0000
0000
0000
0100
0000
0000
0000
0000
0000
0000
0000
0000
0000
1000
0000
0000
0000
0000
0000
0000
0000
0001
0000
0000
0000
0000
0000
0000
0000
0000
0000
0000
0000
1000
0000
0000
0000
0000
0000
0000
0000
0000
0000
0000
0000
0001
0000
0000
0000
0000
0000
0000
0000
0000
0000
0000
0000
0100
0000
0000
0000
0000
0000
0000
0000
0000
0000
0000
0000
0010
0000
0000
0000
0000
0000
0000
0000
0000
0000
0000
0000
1000
0000
0000
0000
0000
0000
0000
0000
0000
0000
0000
0000
0100
0000
0000
0000
0000
0000
0000
0000
0000
0000
0000
0000
0010
0000
0000
0000
0000
0000
0000
0000
0000
0000
0000
0000
0020
0000
0000
0000
0000
0000
0000
0000
0000
0000
0000
0000
0000
0000
0000
0000
0000
0000
0000
0000
0000
0000
0000
0000
0000
0000
0000
0000
0000
0000
0000
0000
0000
0000
0000
0000
0030
0000
0000
0000
0000
0000
0000
0000
0000
0000
0000
0000
,
0110
0000
0000
0000
0010
0000
0001
0000
1000
0000
0001
0000
0100
0000
0010
0000
0000
1000
0000
0000
0100
0000
0000
0010
0000
0000
0001
0000
0000
0100
0000
0000
,
0010
0000
0000
1000
0000
0000
0001
0000
0000
0100
0000
0000
0001
0000
1000
0000
0110
0000
0000
0000
0110
0000
0000
0000
0000
0000
0000
0000
0110
0000
0000
0000
,
1001
0000
0000
0000
0000
0000
0100
0000
0000
0010
0000
0000
0001
0000
0000
0010
0000
0000
0100
0000
0000
0000
0000
0000
0010
0000
0001
0000
0100
0000
0000
0000
0010
0000
0000
0000
0100
0000
0000
0000
0001
0000
1000
0000
0100
0000
0000
0000
,
0010
0000
0000
0000
0100
0000
0010
0000
0001
0000
0000
0000
0100
0000
0000
0000
0010
0000
1000
0000
0100
0000
0000
0000
0100
0000
0000
0000
1000
0000
0020
0000
0000
0000
0000
0030
1010
0000
0000
0000
0000
0000
0102
0000
0000
0000
0000
0000
,
0000
0000
0000
0000
0000
0000
0000
2000
,
0000
0000
0000
0000
0000
0000
3003
1001
,
0000
0000
0001
0010
0100
1000
0010
0101
,
0000
0100
0001
0010
0001
0010
0001
0010
,
0100
1000
0001
0100
0010
0100
0001
0010
,
0000
0010
0001
0100
0010
1000
0010
1000
,
1100
0000
1000
0001
1000
0100
0010
0011
,
0000
0100
1000
0100
1000
0100
1000
0010
,
1000
0100
0010
0001
1000
0001
0010
0010
,
0001
0001
0100
0010
0100
0001
0010
0100
,
1001
0000
0001
0100
0010
1000
0001
0110
,
0000
1000
0001
1000
0001
1000
0001
0010
,
0100
1000
0100
0010
0001
0100
0010
1000
,
0001
1000
0100
0020
1000
1000
0100
0130
,
0011
0000
0001
0010
0100
1000
0100
1010
,
0000
0010
0100
1000
0100
0001
0010
0100
,
0010
0001
0010
0001
0100
0010
0100
0010
,
0100
0001
0100
0010
1000
0010
0100
0010
1000
0100
0010
0001
0010
0100
0010
0001
,
1000
0001
0001
0001
0010
0100
1000
0020
,
0000
1030
0100
0001
0100
1000
0020
0000
,
1030
0000
1100
0000
0101
0000
1001
0010
,
0011
0001
0101
0001
1001
1000
2100
0000
,
3010
0010
0110
0000
1000
1000
1010
0000
,
0100
0100
0100
0110
0000
1001
0000
0000
,
0001
0000
0010
0000
0100
0000
1000
0000
0000
0001
0000
0000
1000
0000
0000
0100
0000
0000
0010
0000
0001
0000
1000
0000
0100
0000
0000
1000
0000
0000
0010
0000
0000
0100
0000
0000
0001
0000
0010
0000
0100
0000
0010
0000
0000
0001
0000
0000
,
0010
0001
0010
0001
0010
0001
1000
0001
1000
0001
1000
0001
0100
0001
0100
0001
0100
0001
0010
0001
0010
0001
0010
0001
,
0020
1000
1000
1000
1030
0000
0000
0000
,
0021
0100
0100
0100
0130
0000
0000
0000
,
2001
0010
0010
0010
0010
0000
0000
0000
,
3200
0001
0001
0001
0001
0000
0310
0000
,
1200
0001
1000
0001
1000
0000
0000
0000
,
0320
0100
0001
0100
0031
0000
0000
0000
,
0201
0010
1000
0010
1000
0000
0000
0000
,
2300
0001
0100
0000
0001
0100
0001
3000
,
1001
0000
1000
0100
0010
0001
0100
1010
,
0000
0010
1000
0100
1000
0100
1000
0100
,
0010
0001
1000
0010
0100
0010
1000
0100
,
0000
0100
1000
0010
0100
0001
0100
0001
,
0011
0000
0001
1000
0001
0010
0100
1100
,
0000
0010
0001
0010
0001
0010
0001
0100
,
0001
0010
0100
1000
0001
1000
0100
0100
,
1000
1000
0010
0100
0010
1000
0100
0010
,
1001
0000
1000
0010
0100
0001
1000
0110
,
0000
0001
1000
0001
1000
0001
1000
0100
,
0010
0001
0010
0100
1000
0010
0100
0001
,
1000
0001
0010
0200
0001
0001
0010
0310
,
1100
0000
1000
0100
0010
0001
0010
0101
,
0000
0100
0010
0001
0010
1000
0100
0010
,
0100
1000
0100
1000
0010
0100
0010
0100
,
0010
1000
0010
0100
0001
0010
0100
1000
0010
0100
0001
0010
0100
1000
0100
0010
,
0001
0000
1000
0000
0100
0000
1000
0000
1000
0100
1000
0000
0100
0000
1100
0000
,
1000
0000
0100
0000
0100
1000
0100
0000
1000
0100
1000
0000
1000
0100
1000
0000
,
1100
0000
1000
0000
1000
0000
0100
0000
0100
1000
0100
0000
0100
1000
0100
0000
,
1100
0000
0000
1001
0000
0000
2002
0000
0000
0000
0000
0000
0000
0000
3003
0000
,
0001
0000
1000
0000
0001
0000
1000
0000
0001
1000
0001
0000
0100
0000
0110
0000
,
0001
0000
0010
0000
0100
1000
0100
0000
1000
0001
1000
0000
0010
0100
0001
0000
,
1001
0000
0010
0000
0100
0000
0010
0000
0001
1000
0100
0000
0010
0100
0010
0000
,
0110
0000
0000
1001
0000
0000
1001
0000
0000
0000
0001
0000
0100
0000
0010
0000
,
1100
0000
0011
0000
,
1000
0100
0010
0001
0010
0100
1000
0010
0100
0001
0010
0100
1000
0010
0100
0010
,
1000
0100
0010
0100
1000
0001
0100
0010
0100
0001
0010
0100
1000
0001
0010
0100
,
1000
0010
0100
0001
1000
0001
0100
0010
0100
0001
0100
0010
0100
1000
0100
0001
,
0010
0100
1000
0001
1000
0100
0010
0001
0100
0010
1000
0100
0010
0001
0100
0010
,
1000
0001
0100
0000
0010
1000
0100
1000
0010
0100
0001
0010
0100
1000
0010
0100
,
0001
0001
0001
0010
0100
1000
0001
0100
0010
1000
0100
0010
0002
0000
0000
0000
,
1003
0010
0100
0010
1000
0100
0010
0001
1000
0100
0010
0001
1000
0001
0010
0100
,
0010
0001
0100
0010
1000
0100
0010
0100
1000
0001
0100
0010
2000
0000
0000
0000
,
3020
0000
1000
0000
1000
0100
1000
0100
2030
0000
0001
0000
0001
0100
0001
0100
,
3002
0000
0010
0000
0100
0010
0100
0010
0103
0010
0001
0100
0020
0000
0000
0000
,
0230
0000
1000
0000
0001
1000
0001
1000
0302
0000
0010
0000
1000
0010
1000
0010
,
1003
0100
0010
0001
0100
0001
0010
0100
1000
0010
0100
0001
1000
0100
0010
0001
,
0200
0000
0001
0000
0001
0010
0001
0010
0302
0000
1000
0000
1000
0010
1000
0010
,
2003
0000
0100
0000
0010
0100
0010
0100
3010
0100
1000
0010
0200
0000
0000
0000
,
0320
0000
0001
0000
1000
0001
1000
0001
2030
0000
0100
0000
0001
0100
0001
0100
,
3001
0010
0100
0010
0001
1000
0010
1000
0100
0010
0001
0100
0020
0000
0000
0000
,
0130
0010
1000
0100
0010
0100
1000
0001
0100
0100
0100
0000
0010
0010
0010
0000
,
1000
0100
0010
0001
0010
0100
1000
0010
1000
1000
1000
0000
0100
0100
0100
0000
,
0100
1000
0001
0010
0100
0010
0001
1000
0010
0100
0001
0000
0010
0100
1000
0000
,
0001
0010
0100
1000
0010
0100
0001
0010
0100
0100
0010
0001
0100
0100
0010
0000
,
0010
1000
0100
0010
0100
1000
0001
0100
0010
0100
0001
0010
0100
1000
0100
0010
,
0001
0100
0010
0100
0001
0010
0100
1000
0001
1000
0100
0010
0002
0000
0000
0000
,
0013
0100
1000
0001
0100
0010
0100
0001
0010
0100
1000
0010
0100
1000
0100
0001
,
0010
0100
1000
0001
0100
0010
0100
0010
1000
0100
1000
0010
0100
0001
0010
0100
,
1000
0000
0001
0101
0000
0001
0010
0100
,
1100
0000
0101
1100
0000
0100
0010
0001
,
1001
0000
0001
0011
0000
0000
1100
0000
,
0110
0000
0000
0000
0000
0000
0010
1000
0200
0000
0300
0000
0000
0000
0000
0000
,
1001
0000
0001
0100
1010
0000
2000
3100
,
0020
0130
2000
3001
0200
0310
2000
3000
,
0200
0000
0320
0000
0032
0000
0023
2000
,
0030
0000
0010
0000
0010
3000
0010
0001
,
0100
0010
1000
0010
0001
0010
1000
0100
,
0010
0000
0001
0000
1000
0000
0001
0000
0100
0010
1000
0000
2000
0000
0000
0000
,
3100
0010
0100
0010
0001
0010
0001
0010
0001
1000
0001
1000
0100
1000
0100
1000
,
0100
1000
0001
1000
0001
1000
0001
1000
0010
0100
0010
0100
0010
0100
0010
0100
,
0010
1000
0100
0000
0010
0001
0100
0000
0010
1000
0010
1000
0100
1000
0010
0100
,
0001
0010
0100
1000
0010
0100
0001
0100
0010
1000
0100
0010
0002
0000
0000
0000
,
1003
0100
1000
0100
0010
0001
1000
0001
0010
0100
0010
0001
0100
0010
1000
0001
,
1000
0100
0010
0001
0010
0100
1000
0010
0100
0001
0010
0100
2000
0000
0000
0000
,
3001
0100
0001
0100
0001
0100
0001
0100
0101
0000
0000
0000
1001
0000
0000
0000
,
1000
0100
1000
0100
1000
0100
1000
0100
1100
0000
0000
0000
1001
0000
0000
0000
,
0001
0010
0100
1000
0010
0100
0001
1000
0100
0010
0001
0100
0001
0010
0100
0000
,
1001
0010
0011
1000
1010
0100
0101
0000
,
0001
0010
0001
0010
0001
0010
0001
0010
0001
1000
0001
1000
0001
1000
0001
1000
,
0001
0100
0010
1000
0100
0000
0010
0000
0010
0001
0100
0010
2000
0000
0000
0000
,
3100
0010
0100
0010
0001
0010
0001
1000
0001
1000
0001
0100
0001
0100
0001
0010
,
0100
0100
0100
0100
0010
0010
0010
0010
,
0010
0000
0100
0000
0010
0001
0100
0010
1000
0010
1000
0100
1000
0000
0100
0000
,
1000
0100
0010
0001
0100
0001
0010
0001
0100
0001
0010
0100
1000
0100
0010
0001
,
1000
0001
0010
0100
1000
0010
0100
0001
1000
0100
1000
0010
0100
0010
1000
0100
,
0010
0100
1000
0100
0010
0001
1000
0100
0010
0001
0100
0010
0100
0010
0100
0000
,
2002
0000
3003
0012
0000
0000
0103
0000
,
0010
1000
0000
0200
0000
0300
0020
0000
,
0031
0100
0010
1000
0100
0010
0001
0100
0010
1000
0100
0010
0001
1000
0001
0100
,
0010
1000
0001
1000
0001
0000
0100
0000
0001
1000
0001
0000
0020
0000
0000
0000
,
0130
1000
0001
0100
0010
1000
0001
1000
0100
0010
0100
1000
0001
0100
0010
1000
,
0100
0010
0001
0010
0100
1000
0010
0100
0001
1000
0100
0010
0200
0000
0000
0000
,
0310
0001
0010
0001
1000
0001
0010
0001
1000
0001
0010
0100
0010
0001
1000
0010
,
1010
1000
1010
0100
0110
0100
0102
0000
,
0013
0010
0010
0010
1000
1000
1000
1000
,
1100
0000
1001
0000
0101
0022
0000
0033
,
1001
0001
0001
0010
0010
0100
0100
1000
1000
0100
0100
0010
,
0010
0001
0001
1000
1000
0010
0010
0100
0100
1010
0010
1000
,
1001
0000
0001
0000
0010
0100
1000
0001
0100
0010
0100
0010
0100
0001
0010
0100
,
1000
0100
1000
0001
1000
0010
0100
0001
0010
0100
0220
0000
0000
0000
0330
0000
,
1001
1000
0100
1000
0100
0010
0100
0010
0001
0010
0001
0010
0002
0000
0000
0000
,
0103
0010
0100
0010
1000
0010
1000
0010
1000
0100
1000
0100
2000
0000
0000
0000
,
3010
0000
1000
0000
0100
0000
0010
0000
0001
0000
0010
0000
0100
1000
0001
0000
,
0100
0000
0000
0000
0000
0000
0010
0000
0000
0000
0000
0000
0100
0000
0000
0000
0000
0000
0001
0000
0000
0000
0000
0000
2000
0000
0000
0000
0000
0000
0000
0000
0000
0000
0000
3000
1010
0000
0000
0000
0000
0000
0000
0000
0000
0000
0000
0000
,
1100
0100
0010
0001
1000
0100
0010
0001
0100
0010
1000
0001
0100
0010
1000
0001
,
1000
0100
0010
0001
1000
0001
0010
0100
1000
0010
0100
0001
1002
0000
0000
0000
,
1003
0000
0000
0100
0000
0000
1000
0000
0000
0100
0000
0000
1000
0000
0000
0001
0000
0000
1000
0000
0000
0001
0000
0000
1000
0000
0000
0000
0100
0000
0000
0000
0010
0000
0000
0000
0001
0000
0000
0000
0010
0000
0000
0000
0100
0000
0000
0000
,
1000
0000
0000
0001
0000
0000
0100
0000
0000
0001
0000
0000
0100
0000
0000
0001
0000
0000
0010
0000
0000
0001
0000
0000
0010
0000
0000
0000
0100
0000
0000
0000
1001
0000
0000
0000
0001
0000
0000
0000
0100
0000
0000
0000
0010
0000
0000
0000
,
1001
1001
0110
1001
,
0010
1000
0010
1000
0200
0000
0000
0000
0310
0001
0010
0001
0200
0000
0000
0000
,
0320
0000
0000
2030
0000
0000
3200
0000
,
0310
0001
0000
1001
0000
2010
0000
0000
,
3100
0010
0001
1000
0001
0010
0100
0010
0001
0100
0010
0100
0010
1000
0100
1000
,
0001
1001
0000
0000
0110
0000
0000
0012
0000
0000
0000
0000
,
1003
0000
0000
0100
0000
0000
1000
0000
0000
0100
0000
0000
1000
0000
0000
0100
0000
0000
1000
0000
0000
0100
0000
0000
1000
0000
0010
0000
1000
0000
0010
0000
1000
0000
0010
0000
1000
0000
0010
0000
1000
0000
0010
0000
1000
0000
0010
0000
,
1000
0000
0000
0001
0000
0000
0100
0000
0000
0001
0000
0000
0100
0000
0000
0001
0000
0000
0100
0000
0000
0001
0000
0000
0100
0000
0001
0000
0010
0000
0001
0000
0010
0000
0001
0000
0010
0000
0001
0000
0010
0000
0001
0000
0010
0000
0001
0000
,
0010
0100
1000
0010
0001
0010
1000
0100
,
0010
0001
0010
0100
0010
0001
1000
0010
,
0100
0001
0010
0100
0010
0001
0100
0010
1000
0001
0100
0010
1000
0100
0010
0100
,
1000
0100
0010
0001
0100
0010
0100
0001
0100
0010
0100
0001
0010
0100
1000
0001
,
0010
0001
0100
0010
1000
0100
0010
0001
0010
0100
1000
0001
1000
0001
1000
0100
,
0010
0100
0010
0001
0100
0010
0100
0001
0010
0100
0010
0001
1000
0100
1000
0010
,
0100
0001
0010
0100
1000
0010
0100
0001
1000
0001
0010
0100
1000
0010
1000
0100
,
0010
0000
0002
0000
0000
0000
0013
0000
0100
1000
0001
0100
0010
0000
0000
0000
,
0100
1000
0100
1000
0100
0010
0100
0010
0100
0001
0100
0001
0100
0010
0100
0010
,
0100
0010
0001
0100
0010
0000
0000
0000
0220
0000
0000
0000
0000
0000
0330
0000
,
2010
0010
0000
0100
0000
0010
3002
0100
,
0203
0010
0000
0320
0000
1000
2030
0100
,
3200
0010
0000
1000
0000
0310
2000
0001
,
3002
0100
0000
0013
0000
1010
0000
0011
,
0102
0010
0000
0100
0000
1000
2003
0100
,
3200
0010
0000
0320
0000
0001
0230
1000
,
2300
0100
0000
3002
0000
0000
0203
0000
,
0320
0000
0030
0000
0010
1000
0200
0300
,
0021
0100
0000
0001
0000
0100
0230
0001
,
0302
0100
0000
0203
0000
0010
0320
0001
,
0032
1000
0000
0100
0000
0010
2003
0100
,
3020
0100
0000
1000
0030
1001
0000
0011
,
2001
0010
0000
0001
0000
0100
3002
0010
,
0203
1000
0000
2300
0000
0010
3200
0001
,
0320
0100
0000
0100
0000
1000
2030
0001
,
3010
0100
0001
0100
0010
0000
1000
0100
1000
0000
0000
0000
0001
1000
0000
0000
,
0000
0000
1010
0000
1001
0010
1000
0100
,
0000
0011
0000
0101
0000
1001
0000
0000
,
1010
0000
1000
0100
0000
0010
0000
0001
,
0100
0010
2000
0000
0000
0000
3001
1000
,
0001
0000
0100
0010
0000
0010
1000
0100
,
0010
0011
0001
0101
,
2002
0000
0000
0000
,
0000
0000
0000
3003
,
0010
1000
0010
1000
0010
1000
0100
0010
0001
0010
0100
1000
0010
1000
0010
1000
,
0010
0100
0001
0010
0001
0010
0001
0010
0001
0010
0100
1000
0100
0010
0001
0100
,
1001
0000
0000
0101
0000
0000
0011
0000
,
1001
0010
0101
0101
,
0001
0000
0010
0000
0100
1000
0010
0000
0001
0000
0010
0000
1000
0100
0001
0000
,
0100
0000
0010
0000
1000
0010
0001
0000
0100
0000
0010
0000
0100
0010
1000
0000
,
0100
0000
0100
0010
0001
0001
0001
0001
,
0101
0100
0100
0100
0110
0010
0010
0010
,
0010
1000
0100
0010
0100
1000
0001
0100
0010
1000
0100
0010
0001
1000
0001
0010
,
0100
1000
0001
1000
0010
0100
0010
1000
0001
1000
0100
0010
0001
0010
0100
1000
,
0010
0000
0010
0100
0000
0000
0101
0000
,
0011
0000
0000
0000
0010
0000
0100
0000
0000
0000
0100
1000
0001
0100
0010
1000
,
0100
0010
0001
0100
0010
1000
0001
0010
0100
0010
0001
0100
0010
0100
0001
0010
,
0100
1000
0001
0010
0100
0010
0001
0100
0010
1000
0001
1000
0010
0100
0001
0010
,
0100
0000
0000
0000
0000
0000
0000
0000
0000
0000
0000
0000
0000
0000
0000
0000
0000
0000
0000
0000
0000
1000
0100
0010
,
1001
0000
0000
0000
,
1000
0100
0010
0001
0100
0010
1000
0100
0010
0001
0100
0010
1000
0100
0010
0001
,
0100
0010
0100
0001
0010
0100
1000
0010
0100
0001
0010
0100
1000
0010
0100
0001
,
0010
0100
0010
0100
0010
0100
0010
0100
0010
0100
0010
0100
0010
0100
0010
0100
,
0010
0001
1000
0001
0100
0010
1000
0100
0010
0001
0010
0100
1000
0001
0100
0010
,
1000
0001
1000
0001
1000
0001
1000
0001
1000
0010
1000
0010
1000
0010
1000
0010
,
1000
0001
0100
0001
0100
0001
0100
0001
0100
0001
0010
0100
1000
0001
1000
0000
,
0001
1000
0001
1000
0001
1000
0001
0000
0000
0000
0000
0000
0010
0100
0010
0100
0010
0100
0010
0000
0000
0000
0000
0000
,
0001
0010
0001
0010
0001
0010
0001
0000
0000
0000
0000
0000
1000
0100
1000
0100
1000
0100
1000
0000
0000
0000
0000
0000
,
0001
0100
0010
1000
0001
0100
0010
1000
0001
0010
0100
1000
0100
0010
0001
0010
,
0011
0101
1010
1100
,
0001
0010
0100
1000
0001
0100
0010
1000
0100
1000
0010
0100
0010
1000
0100
0010
,
0001
0100
0010
1000
0001
0100
0010
0100
0001
0010
0100
1000
0010
1000
0100
0010
,
0100
0010
0001
0100
0010
0001
0010
1000
0100
0001
0100
1000
,
1001
2002
0000
0000
0000
0000
3003
0000
;
