#TITLE:ハレ晴レユカイ;
#SUBTITLE:;
#ARTIST:Hirano Aya, Chihara Minori, & Gotou Yuuko;
#TITLETRANSLIT:Hare Hare Yukai;
#SUBTITLETRANSLIT:;
#ARTISTTRANSLIT:;
#CREDIT:;
#BANNER:Hare Hare Yukai-bn.jpg;
#BACKGROUND:Hare Hare Yukai-bg.jpg;
#LYRICSPATH:;
#CDTITLE:Kotarouchan.png;
#MUSIC:Hare Hare Yukai.mp3;
#OFFSET:0.761;
#SAMPLESTART:35.683;
#SAMPLELENGTH:12.000;
#SELECTABLE:YES;
#BPMS:0.000=171.997,108.000=85.998,116.000=171.997,130.000=343.994,132.000=171.997,316.000=85.998,324.000=171.997,338.000=343.994,340.000=171.997,460.000=85.998,468.000=171.997,482.000=343.994,484.000=171.997;
#STOPS:130.000=0.349
,338.000=0.349
,482.000=0.349
;
#BGCHANGES:;
// cache tags:
#FIRSTBEAT:8.000;
#LASTBEAT:581.000;
#SONGFILENAME:Songs/cedric step/[Kotarouchan]Hare Hare Yukai/Hare Hare Yukai.sm;
#HASMUSIC:1;
#HASBANNER:1;
#MUSICLENGTH:217.729;
// end cache tags

//---------------dance-single - ----------------
#NOTES:
     dance-single:
     :
     Hard:
     12:
     1.000,1.000,1.000,0.519,1.000,1637.000,221.000,113.000,0.000,0.000:
0000
0000
0000
0000
,
0000
0000
0000
0000
,
0110
0000
1000
0100
1000
0100
1000
0100
1000
0000
1000
0100
1000
0100
1000
0001
,
0220
0000
0000
0330
0011
0100
2000
0000
0000
3000
1010
0001
0100
0000
0000
0000
,
0110
0000
0000
0000
1100
0010
0002
0000
0000
0003
1010
0100
0001
0000
0000
0000
,
1000
0100
1000
0100
0010
0100
1000
0001
0100
0010
1000
0001
0100
0001
0110
0000
,
0000
0000
1100
0000
0110
0000
0011
0000
0000
0000
1001
0010
0100
0000
0110
0000
,
2002
0000
0000
3003
1010
0001
0200
0000
0000
0300
0011
1000
0100
0000
0000
0000
,
1100
0000
0000
0000
1010
0001
0200
0000
0000
0300
0011
1000
0100
0000
0000
0000
,
1000
0100
1000
0001
0010
0100
1000
0001
0100
1000
0010
0100
0001
0100
1001
0000
,
0000
0101
0000
0110
0000
1100
1001
0011
,
0110
0000
1000
0100
1000
0100
1000
0000
0001
0000
0001
0100
0001
0100
0001
0000
,
1001
0000
0100
1000
0100
1000
0100
0000
0001
0000
0001
0010
0001
0000
1001
0000
,
1000
0100
0010
0001
0010
0100
1000
0100
0001
0100
0010
1000
0010
0100
0001
0010
,
1001
0100
0010
0100
0001
1000
0100
0010
0100
1000
0001
0100
0100
0010
1000
0001
,
0110
0000
0010
0100
0010
0100
0010
0100
0001
0010
0001
0010
0001
0010
0100
1000
,
0100
1000
0100
1000
0001
0100
0001
0100
0010
1000
0100
0010
0001
0100
0010
0100
,
0001
0010
0100
1000
0001
0100
0010
1000
0001
0010
0100
1000
0001
0100
1010
0000
,
0000
1010
0110
0101
0101
0011
0110
1100
,
0110
0000
0100
1000
0100
1000
0100
0000
0010
0000
0100
0001
0100
0001
0100
0000
,
1000
0000
0001
0010
0001
0010
0001
0000
0001
0000
1000
0010
1000
0000
0100
0000
,
1010
0100
0001
0010
0001
1000
0001
0100
0010
1000
0100
0010
0100
1000
0001
0100
,
1001
0010
0100
1000
0001
0100
0010
0100
1000
0001
0010
0001
0010
0100
1000
0100
,
1001
0000
0000
0000
0010
0100
0010
0100
1000
0001
0100
0001
0010
0100
1000
0010
,
0100
0010
1000
0001
0100
0010
1000
0100
1000
0001
0100
0010
1000
0001
0010
0100
,
0010
0001
0010
0100
1000
0100
0010
0001
0010
0100
0010
0100
0010
0000
1100
0000
,
0011
1001
0101
0220
0330
1001
0101
0110
,
1002
0000
0000
0000
0000
2000
3000
1000
0200
0000
0300
0000
0000
0100
0000
1000
,
0020
0000
0030
1000
0100
0000
0100
1000
0000
1000
0000
0010
0000
0000
1000
1003
,
0110
0001
0100
0110
0000
1000
0100
0210
,
0000
0301
0010
0210
0000
1300
0001
0100
,
1002
0000
0000
0000
0000
0000
0003
1001
,
0000
1100
0000
0110
2002
0000
0000
3003
,
1000
0100
1000
0100
0010
0001
0010
1000
0100
1000
0100
0010
0001
0010
0001
0100
,
0001
0100
0010
1000
0010
0100
0001
0100
0001
0100
0010
1000
0100
0010
0001
0100
,
1000
0100
1000
0100
0010
0001
0010
0100
0001
0100
0001
0100
0010
0100
1000
0010
,
1000
0010
0100
0001
0100
0010
0001
0100
0001
0100
0010
0100
1000
0001
1000
0001
,
0100
0010
0100
0010
1000
0100
0010
0001
1000
0100
0010
0100
1000
0001
1000
0010
,
0100
0001
0100
0001
1000
0001
1000
0010
0100
0001
1000
0001
0010
0100
0010
0100
,
1000
0010
1000
0010
1000
0001
1000
0001
0100
0001
0100
0001
0010
0100
2002
0000
,
3003
2200
3300
0220
0330
0022
0000
0033
,
0001
0010
0001
0010
0100
1000
0100
0010
1000
0100
1000
0100
0010
1000
0001
0010
,
0001
0010
0100
1000
0100
0010
1000
0100
1000
0100
0010
0001
1000
0100
0010
0001
,
1000
0010
1000
0010
0100
0001
0010
0100
0010
0001
0010
0001
1000
0001
0100
0010
,
0100
0010
1000
0100
0010
0001
1000
0001
1000
0001
0100
0010
1000
0001
0010
1000
,
0010
1000
0010
0100
0001
0010
0100
0010
0001
1000
0100
0010
0001
0100
0001
0100
,
0001
0010
0100
0010
0001
1000
0100
1000
0100
1000
0001
0100
0001
0100
0010
1000
,
0110
0001
0100
0001
0100
0001
0100
0001
1100
0010
0100
0010
0100
0010
0100
0010
,
1100
0001
1000
0001
1000
0001
0220
0000
0330
0000
0000
0000
0110
0000
0001
0000
,
1000
0100
1000
0100
1000
0100
0010
0001
0010
0001
1000
0001
0100
0010
1000
0010
,
0100
0010
0100
0001
0010
0001
1000
0001
1000
0001
1000
0001
0110
0000
1000
0000
,
0001
0010
0001
0010
0001
0010
0100
1000
0100
1000
0100
1000
0010
0100
0001
0010
,
0100
0000
0200
0000
1300
1001
0000
1100
,
0000
0001
0101
0000
0001
1000
1100
0000
,
1000
0001
0100
0010
0101
0000
2002
3003
,
0220
0000
0000
0330
1001
0100
2000
0000
0000
3000
1010
0001
0100
0000
0000
0000
,
0110
0000
0000
0000
1100
0010
0002
0000
0000
0003
1010
0100
0001
0000
0000
0000
,
1000
0100
1000
0100
0010
0100
1000
0001
0100
0010
1000
0001
0100
0001
0110
0000
,
0000
0000
1100
0000
0110
0000
0011
0000
0000
0000
1001
0010
0100
0000
0110
0000
,
2002
0000
0000
3003
1010
0001
0200
0000
0000
0300
0011
1000
0100
0000
0000
0000
,
1100
0000
0000
0000
1010
0001
0200
0000
0000
0300
0011
1000
0100
0000
0000
0000
,
1000
0100
1000
0001
0010
0100
1000
0001
0100
1000
0010
0100
0001
0100
1001
0000
,
0000
0101
0000
0110
0000
1100
1001
0011
,
0110
0000
1000
0100
1000
0100
1000
0000
0011
0000
0001
0010
0001
0010
0001
0000
,
1001
0000
1000
0100
1000
0100
1000
0000
0010
0000
0001
0010
0001
0000
0001
0000
,
0001
0100
0001
0100
0010
1000
0100
1000
0001
0010
0100
1000
0001
0010
0100
0010
,
1001
0100
0010
0100
0001
0010
0100
1000
0010
0100
0010
1000
0100
0010
0001
0010
,
1100
0000
0100
0010
0100
0010
0100
0010
1000
0100
1000
0100
1000
0100
0011
0100
,
0010
1000
0100
0010
0100
1000
0101
0010
0100
0010
0100
0001
0010
0100
1000
0010
,
1000
0010
1000
0001
1000
0100
0010
0100
1000
0001
0010
0001
0010
0100
0011
0000
,
0000
0011
0110
1100
1100
1010
0101
0011
,
0110
0000
1000
0100
1000
0100
1000
0000
0001
0000
0001
0100
0001
0100
0001
0000
,
0110
0000
0010
0100
0010
0100
0010
0000
1100
0000
0100
0001
0100
0000
0100
0000
,
0100
0010
0100
0010
0100
0010
1000
0100
0010
0001
1000
0010
0100
0001
0010
0100
,
0010
0100
0010
0100
1000
0010
0100
0001
1000
0100
0010
0001
1000
0100
0010
0001
,
0110
0000
1000
0100
1000
0100
1000
0100
0010
0001
0010
0001
0010
0001
0100
0010
,
0100
0001
1000
0100
1000
0010
0100
0001
0010
0100
0010
0100
0010
1000
0100
0010
,
0100
0010
0100
0001
1000
0001
0100
0001
1000
0100
1000
0100
1000
0000
0011
0000
,
1001
1010
1001
0202
0303
0011
0110
1100
,
2001
0000
0000
0000
0000
0002
0003
0001
0020
0000
0030
0000
0000
0020
0030
0010
,
0001
0000
0000
0001
0100
0000
0100
0010
0000
0010
3000
1001
0000
0000
0001
0001
,
0110
0100
1000
2002
3003
0001
0100
0202
,
0300
1003
0010
0210
0000
0302
0003
0001
,
2002
0000
0000
0000
0000
0000
3003
1001
,
0000
0110
0000
0110
2002
0000
0000
3003
,
0001
0100
0001
0100
0010
1000
0010
0001
0100
0001
0100
0010
1000
0010
1000
0100
,
1000
0100
0010
0001
0010
0100
1000
0100
1000
0100
0010
0001
0100
0010
1000
0100
,
0001
0100
0001
0100
0010
1000
0010
0100
1000
0100
1000
0100
0010
0100
0001
0010
,
0001
0010
0100
1000
0100
0010
1000
0100
1000
0100
0010
0100
0001
1000
0001
1000
,
0100
0010
0100
0010
0001
0100
0010
1000
0001
0100
0010
0100
0001
1000
0001
0010
,
0100
1000
0100
1000
0001
1000
0001
0010
0100
1000
0001
1000
0010
0100
0010
0100
,
0001
0010
0001
0010
0001
1000
0001
1000
0100
1000
0100
1000
0010
0100
2002
0000
,
3003
0202
0303
0220
0330
2020
0000
3030
,
1000
0010
1000
0010
0100
0001
0100
0010
0001
0100
0001
0100
0010
0001
1000
0010
,
1000
0010
0100
0001
0100
0010
0001
0100
0001
0100
0010
1000
0001
0100
0010
1000
,
0001
0010
0001
0010
0100
1000
0010
0100
0010
1000
0010
1000
0001
1000
0100
0010
,
0100
0010
0001
0100
0010
1000
0001
1000
0001
1000
0100
0010
0001
1000
0010
0001
,
0010
0001
0010
0100
1000
0010
0100
0010
1000
0001
0100
0010
1000
0100
1000
0100
,
1000
0010
0100
0010
1000
0001
0100
0001
0100
0001
1000
0100
1000
0100
0010
0001
,
0110
1000
0100
1000
0100
1000
0100
1000
0101
0010
0100
0010
0100
0010
0100
0010
,
0101
1000
0001
1000
0001
1000
0220
0000
0330
0000
0000
0000
0110
0000
0110
0000
,
0001
0100
0001
0100
0001
0100
0010
1000
0010
1000
0001
1000
0100
0010
0001
0010
,
0100
0010
0100
1000
0010
1000
0001
1000
0001
1000
0001
1000
0110
0000
0100
0000
,
1000
0010
1000
0010
1000
0010
0100
0001
0100
0001
0100
0001
0010
0100
1000
0010
,
0100
0000
0200
0000
1300
1001
0000
0101
,
0000
1000
0101
0000
0100
0010
1100
0000
,
1000
0010
0001
0100
1100
0000
2002
3003
,
1000
0100
0000
0000
0000
0000
0000
0000
0100
1000
0000
0000
0000
0000
0000
0000
0001
0100
0000
0000
0000
0000
0000
0000
0100
0001
0000
0000
0000
0000
0000
0000
,
2002
3003
0110
0110
0000
0011
0110
1100
,
1000
0001
0000
0000
0000
0000
0000
0000
0001
1000
0000
0000
0000
0000
0000
0000
0010
0100
0000
0000
0000
0000
0000
0000
0100
0010
0000
0000
0000
0000
0000
0000
,
2002
0000
0000
0000
3003
0000
0011
0100
2000
0000
0000
0000
0000
0000
0000
3000
,
0011
0011
0110
2002
3003
0101
0110
2020
,
3030
1100
0110
0022
0033
0101
1001
1010
,
1001
0001
0101
0100
0101
0001
1001
1000
,
1001
0100
1010
1000
0011
0100
1010
0100
,
1002
0000
0000
0000
0000
2000
3000
1000
0020
0000
0030
0000
0000
0020
0030
0010
,
1000
0000
0000
1000
0100
0000
0100
0010
0000
0010
0003
1001
0000
0000
1000
1000
,
0110
0001
0100
0220
0330
1000
0100
0220
,
0030
0301
1000
0220
0030
0301
1000
0100
,
0220
0000
0000
0000
0000
0000
0330
1001
,
0000
1001
0000
0110
2002
0000
0000
3003
,
1000
0100
1000
0100
0010
0001
0010
1000
0100
1000
0100
0010
0001
0010
0001
0100
,
0001
0100
0010
1000
0010
0100
0001
0100
0001
0100
0010
1000
0100
0010
0001
0100
,
1000
0100
1000
0100
0010
0001
0010
0100
0001
0100
0001
0100
0010
0100
1000
0010
,
1000
0010
0100
0001
0100
0010
0001
0100
0001
0100
0010
0100
1000
0001
1000
0001
,
0100
0010
0100
0010
1000
0100
0010
0001
1000
0100
0010
0100
1000
0001
1000
0010
,
0100
0001
0100
0001
1000
0001
1000
0010
0100
0001
1000
0001
0010
0100
0010
0100
,
1000
0010
1000
0010
1000
0001
1000
0001
0100
0001
0100
0001
0010
0100
2002
0000
,
3003
2200
3300
0220
0330
0022
0000
0033
,
0001
0010
0001
0010
0100
1000
0100
0010
1000
0100
1000
0100
0010
1000
0001
0010
,
0001
0010
0100
1000
0100
0010
1000
0100
1000
0100
0010
0001
1000
0100
0010
0001
,
1000
0010
1000
0010
0100
0001
0010
0100
0010
0001
0010
0001
1000
0001
0100
0010
,
0100
0010
1000
0100
0010
0001
1000
0001
1000
0001
0100
0010
1000
0001
0010
1000
,
0010
1000
0010
0100
0001
0010
0100
0010
0001
1000
0100
0010
0001
0100
0001
0100
,
0001
0010
0100
0010
0001
1000
0100
1000
0100
1000
0001
0100
0001
0100
0010
1000
,
0110
0001
0100
0001
0100
0001
0100
0001
1100
0010
0100
0010
0100
0010
0100
0010
,
1100
0001
1000
0001
1000
0001
0220
0000
0330
0000
0000
0000
0110
0000
0001
0000
,
1000
0100
1000
0100
1000
0100
0010
0001
0010
0001
1000
0001
0100
0010
1000
0010
,
0100
0010
0100
0001
0010
0001
1000
0001
1000
0001
1000
0001
0110
0000
1000
0000
,
0001
0010
0001
0010
0001
0010
0100
1000
0100
1000
0100
1000
0010
0100
0001
0010
,
0100
0000
0200
0000
1300
1001
0000
1100
,
0000
0001
0101
0000
0001
1000
1100
0000
,
1000
0001
0100
0010
0101
0000
2002
0000
,
3003
2200
0000
0300
3001
0011
0000
0011
,
0110
1010
0000
1001
0101
0011
0000
2002
,
3003
0220
0330
0000
0000
0000
0000
0000
;
