#TITLE:Yu-Gi-Oh! -The Duelist of the Roses-;
#SUBTITLE:(Eye-Catch/Title Screen);
#ARTIST:Konami;
#TITLETRANSLIT:;
#SUBTITLETRANSLIT:;
#ARTISTTRANSLIT:;
#CREDIT:;
#BANNER:DoR.png;
#BACKGROUND:DoR-bg.png;
#LYRICSPATH:;
#CDTITLE:!title.png;
#MUSIC:DoR.mp3;
#OFFSET:-0.460;
#SAMPLESTART:16.399;
#SAMPLELENGTH:15.800;
#SELECTABLE:YES;
#BPMS:0.000=90.000,16.000=92.500,20.000=91.500,22.000=87.500,24.000=180.260;
#STOPS:;
#BGCHANGES:;
// cache tags:
#FIRSTBEAT:4.000;
#LASTBEAT:247.500;
#SONGFILENAME:Songs/other/DoR/DoR.sm;
#HASMUSIC:1;
#HASBANNER:1;
#MUSICLENGTH:93.152;
// end cache tags

//---------------dance-single - MANIAC----------------
#NOTES:
     dance-single:
     MANIAC:
     Hard:
     9:
     0.727,0.830,0.408,0.161,0.333,421.000,38.000,15.000,0.000,0.000:
0000
0000
0000
0000
,
2000
0000
0000
3000
,
0200
0000
0000
0300
0020
0000
0000
0030
,
2002
0000
0000
3003
,
1000
0010
0001
0100
1000
0100
0010
0001
0100
0001
0010
1000
,
0110
0000
0000
0000
0000
0000
0000
0000
1000
0000
0100
0000
0010
0000
0000
0000
0001
0000
0000
0000
0100
0000
0000
0000
0001
0000
0000
0000
0000
0000
0000
0000
1000
0000
0100
0000
2000
0000
0000
0000
0000
0000
0000
0000
0000
3000
0000
0000
,
0001
0010
0100
0010
0001
0010
0100
0010
,
0100
1000
0100
0010
0100
1000
0100
0010
,
0100
0010
0001
0010
0100
0010
0001
0010
,
0100
0110
0010
0110
,
1000
0010
0001
0010
1000
0010
0001
0010
,
1000
0100
0001
0100
1000
0100
0001
0100
,
1000
0010
0001
0100
1000
0010
0001
0100
,
0001
0010
1000
0100
0001
0010
1000
0100
,
0001
0000
0001
0000
0010
0000
0010
0000
0100
0000
0100
0000
,
1000
0000
1000
0000
0100
0000
0100
0000
0010
0000
0010
0000
,
0001
0000
1001
0000
1000
0000
1100
0000
0100
0000
0110
0000
,
0011
0000
0110
0000
1001
0000
0110
0000
0011
0000
1100
0000
,
0001
0010
0001
0010
0001
0010
0100
1000
,
0100
0010
0100
0010
0100
0010
0001
0010
,
0100
1000
0100
0010
0100
1000
0100
0010
,
0001
0010
0100
0010
0100
1000
0100
0010
,
0001
0000
0000
0000
0000
0011
0000
0000
0000
0011
0000
0000
0000
0000
0000
0001
0000
0000
0010
0000
0000
0100
0000
0000
,
1000
0000
0000
0000
0000
1100
0000
0000
0000
1100
0000
0000
0000
0000
0000
0100
0000
0000
0010
0000
0000
0001
0000
0000
,
0100
0000
0000
0000
0000
0110
0000
0000
0000
0110
0000
0000
0000
0000
0000
0010
0000
0000
0001
0000
0000
0010
0000
0000
,
1000
0000
0000
0000
0000
1001
0000
0000
0000
1001
0000
0000
0000
0000
0000
0001
0000
0000
0010
0000
0000
0100
0000
0000
,
1000
0000
0000
0000
0000
0100
0000
0000
0000
0011
0000
0000
0000
0000
0000
1000
0000
0000
0100
0000
0000
0010
0000
0000
,
0001
0000
0000
0000
0000
0010
0000
0000
0000
1100
0000
0000
0000
0000
0000
0100
0000
0000
0010
0000
0000
0001
0000
0000
,
0100
0001
1000
0100
0010
0001
0100
0010
,
0100
1000
0100
0010
0001
0010
0100
0010
,
1200
0000
0000
0000
0000
2300
0000
0000
0000
0000
3200
0000
0000
0000
0000
0000
2300
0000
0000
0000
0000
0000
3200
0000
,
0000
0000
0310
0001
0100
0001
0010
0100
,
0000
0000
0001
0100
0010
0100
1000
0010
,
0000
0000
0001
0100
0010
1000
0001
0010
,
0001
0100
0001
0010
1000
0010
0100
1000
,
0010
1000
0100
0001
0100
0010
0001
0100
,
0001
0010
1000
0100
0010
1000
0100
0010
,
0001
0100
0010
1000
0010
0100
0010
0001
,
2002
0000
0000
3003
0000
0000
0001
0000
0010
0000
1000
0000
,
0001
0000
0010
0000
1000
0000
0001
0000
0010
0000
1000
0000
,
0010
0000
0110
0000
1000
0000
0110
0000
0001
0000
0110
0000
,
1100
0000
0110
0000
0101
0000
0011
0000
1010
0000
1001
0000
,
0100
1000
0100
0010
0100
1000
0100
0010
,
0001
0010
0100
0010
0001
0010
0100
1000
,
0100
0010
0100
0010
1000
0001
0100
0010
,
0001
0010
0100
0001
0010
1000
0010
0100
,
0010
0001
0100
0010
1000
0010
0001
0010
,
0100
1000
0100
0010
0001
0010
0100
0010
,
0001
0010
0001
0000
0000
0000
0010
0100
0010
0000
1000
0000
0100
0000
0010
0000
,
0001
0010
0001
0000
0000
0000
1000
0100
1000
0000
0100
0000
0010
0000
0001
0000
,
0100
0100
0010
0010
0001
0001
1000
1000
,
0100
0100
0010
0010
0001
0001
1000
1000
,
0100
0010
0100
0010
0001
1000
0001
1000
,
0100
1000
0100
1000
0001
0010
0001
0010
,
0100
1000
0100
0010
0001
0010
0100
0001
,
1000
0100
0010
0001
1000
0100
0010
0001
,
1000
0000
0000
0100
0010
0000
0001
0000
0000
0010
0100
0000
1000
0000
0000
0100
,
0010
0000
0001
0000
0000
0010
0100
0000
0001
0000
0100
0000
0010
0000
0100
0000
,
0010
0010
0100
0100
1000
1000
0001
0001
,
0100
1000
0100
0010
0001
0010
0100
1000
,
0000
0110
0000
0000
0110
0000
0000
1001
,
2002
0000
0000
0000
0000
0000
0000
3003
;

//---------------dance-single - SMANIAC----------------
#NOTES:
     dance-single:
     SMANIAC:
     Challenge:
     12:
     1.000,1.000,0.730,0.161,1.000,608.000,68.000,15.000,0.000,0.000:
0000
0000
0000
0000
,
2000
0100
0010
3001
,
0200
0000
0001
0300
0020
0000
1000
0030
,
2002
0000
0000
3003
,
1000
0100
0010
0000
0001
0000
0100
0010
1000
0000
0100
0000
0010
0100
0001
0000
0100
0000
0001
0100
0010
0000
1000
0000
,
0110
0000
0000
0000
0000
0000
0000
0000
1000
0000
0100
0000
0010
0000
0001
0000
0010
0000
0100
0000
1000
0000
0010
0000
0100
0000
0000
0000
0000
0000
0000
0000
1000
0000
0100
0000
2000
0000
0000
0000
0000
0000
0000
0000
0000
3000
0000
0000
,
0001
0100
0010
0000
0100
0000
0010
0000
0001
0000
0010
0000
0100
0000
0010
0000
,
0100
0010
1000
0000
0100
0000
0010
0000
0100
0000
1000
0000
0100
0000
0010
0000
,
0100
0001
0010
0000
0001
0000
0010
0000
0100
0000
0010
0000
0001
0000
0010
0000
,
0100
0001
0110
1000
0010
0001
0110
0001
,
1000
0100
0010
0000
0001
0000
0010
0000
1000
0000
0010
0000
0001
0000
0010
0000
,
1000
0010
0100
0000
0001
0000
0100
0000
1000
0000
0100
0000
0001
0000
0100
0000
,
1000
0001
0010
0000
0001
0000
0100
0000
1000
0000
0010
0000
0001
0000
0100
0000
,
0001
0100
0010
0000
1000
0000
0100
0000
0001
0000
0010
0000
1000
0000
0100
0000
,
0001
0100
1000
0000
0100
0000
0010
0100
1000
0000
0100
0000
,
1000
0010
1000
0000
0100
0000
0001
0100
0010
0000
1000
0000
,
0001
0010
1001
0100
1000
0010
1100
0000
0100
0001
0110
0000
,
0011
0010
0110
0100
1100
0100
0110
0000
0011
0010
1010
0000
,
0001
0010
0100
0010
0001
0010
0100
0000
1000
0000
0100
0000
0010
0000
0100
0000
,
1000
0100
0010
0100
1000
0100
0010
0000
0001
0000
0010
0000
0100
0000
1000
0000
,
0100
0010
1000
0001
0100
0001
0010
0000
0100
0000
1000
0000
0100
0000
0010
0000
,
0001
0100
0010
0001
0100
1000
0010
0000
0100
0000
1000
0000
0100
0000
0010
0000
,
0001
0000
0000
0000
0000
0000
0000
0000
0000
0000
0011
0000
0000
0000
0000
0000
0000
0000
0011
0000
0000
0000
0000
0000
0100
0000
0000
1000
0000
0000
0100
0000
0000
0000
0000
0000
0010
0000
0000
0001
0000
0000
0010
0000
0000
0000
0000
0000
,
1000
0000
0000
0000
0000
0000
0000
0000
0000
0000
1100
0000
0000
0000
0000
0000
0000
0000
1100
0000
0000
0000
0000
0000
0001
0000
0000
0010
0000
0000
0001
0000
0000
0000
0000
0000
1000
0000
0000
0100
0000
0000
1000
0000
0000
0000
0000
0000
,
0100
0000
0000
0000
0000
0000
0000
0000
0000
0000
0110
0000
0000
0000
0000
0000
0000
0000
0110
0000
0000
0000
0000
0000
0001
0000
0000
1000
0000
0000
0010
0000
0000
0000
0000
0000
0001
0000
0000
0100
0000
0000
0010
0000
0000
0000
0000
0000
,
1000
0000
0000
0000
0000
0000
0000
0000
0000
0000
1001
0000
0000
0000
0000
0000
0000
0000
1001
0000
0000
0000
0000
0000
0010
0000
0000
0100
0000
0000
0001
0000
0000
0000
0000
0000
0010
0000
0000
0100
0000
0000
1000
0000
0000
0000
0000
0000
,
1000
0000
0000
0000
0000
0000
0000
0000
0000
0000
0100
0000
0000
0000
0000
0000
0000
0000
0011
0000
0000
0000
0000
0000
0000
0000
0000
0000
0000
0000
1000
0000
0000
0010
0000
0000
0100
0000
0000
1000
0000
0000
0010
0000
0000
0001
0000
0000
,
0100
0000
0000
0000
0000
0000
0000
0000
0000
0000
0010
0000
0000
0000
0000
0000
0000
0000
1100
0000
0000
0000
0000
0000
0000
0000
0000
0000
0000
0000
0100
0000
0000
0001
0000
0000
0010
0000
0000
0100
0000
0000
0001
0000
0000
1000
0000
0000
,
0100
0000
0001
0000
1000
0010
0100
0000
0010
0100
0001
0000
0100
0001
0010
0000
,
0100
0010
1000
0000
0010
0001
0100
0000
1000
0000
0100
0000
0010
0000
0100
0000
,
1200
0000
0000
0000
0000
2300
0000
0000
0000
0000
3200
0000
0000
0000
0000
0000
2300
0000
0000
0000
0000
0000
3200
0000
,
0000
0000
0310
0001
0110
0001
0010
0100
,
1010
0100
0001
0100
1010
0100
1000
0010
,
0101
0010
0001
0100
0011
1000
0001
0010
,
0001
0010
0100
0000
0001
0000
0010
0000
1000
0000
0010
0000
0100
0000
1000
0000
,
0010
0001
1000
0000
0100
0000
0001
0000
0100
0000
0010
0000
0001
0000
0100
0000
,
0001
0100
0010
0000
1000
0000
0100
0000
0010
0001
1000
0000
0100
0000
0010
0000
,
0001
0010
0100
0000
0010
0001
1000
0000
0010
0001
0100
0000
0010
0100
0001
0000
,
2002
0000
0000
3003
0000
0000
0001
0100
0010
0000
1000
0000
,
0001
0100
0010
0000
1000
0000
0001
0100
0010
0000
1000
0000
,
0010
0001
0110
0000
1000
0000
0110
1000
0001
0000
0110
0000
,
1100
0001
0110
1000
0101
1000
0011
0100
1010
0100
1001
0010
,
0100
0010
0001
0010
0100
1000
0100
0010
0001
0010
0100
1000
0100
0010
0001
0010
,
0100
1010
0100
0011
0001
0110
0100
1010
,
0100
0010
0001
0010
0100
1000
0100
0010
0001
0010
0100
1000
0100
0001
0100
0010
,
0001
0110
0100
1001
0010
1100
0010
0101
,
0010
0100
0001
1000
0100
0001
0010
0100
1000
0001
0010
0100
0001
1000
0010
0001
,
0100
1100
0100
0110
0010
0011
0001
0101
,
0100
0010
0001
0100
1000
0001
0010
0100
0010
0001
1000
0010
0100
1000
0010
0100
,
0001
0010
0001
0100
0010
0001
1000
0100
1000
0010
0100
1000
0010
0000
0001
0000
,
0100
0110
0010
0110
0001
0011
1000
1100
,
0100
0010
0100
0000
0010
0100
0010
0000
0001
0010
0001
0000
1000
0100
1000
0000
,
0100
0001
0010
1000
0100
0001
0010
0000
0001
0010
1000
0100
0001
0010
1000
0000
,
0100
0010
1000
0001
0100
0010
1000
0000
0001
0100
0010
1000
0001
0100
0010
0000
,
0100
0010
1000
0001
0100
1000
0010
0100
0001
1000
0010
0001
0100
1000
0001
0000
,
1000
0100
1000
0100
0010
0100
0010
0100
0010
0001
0010
0001
1000
0001
1000
0001
,
0100
1000
0100
0010
0001
0010
0100
0010
0001
0010
0100
1000
0100
0010
0001
0100
,
0010
1000
0001
0100
0001
0010
0100
1000
0010
0100
0001
0010
0100
0010
0001
0000
,
0110
1100
0110
0101
1010
1100
0011
0101
,
0010
0100
1001
0100
0010
0100
1000
0010
0001
0100
0001
0010
1000
0100
0001
0010
,
0000
1001
0010
0100
0110
0010
0100
1001
,
2002
0000
0000
0000
0000
0000
0000
3003
;

//---------------dance-single - TRICKY----------------
#NOTES:
     dance-single:
     TRICKY:
     Medium:
     8:
     0.474,0.565,0.172,0.161,0.081,278.000,16.000,15.000,0.000,0.000:
0000
0000
0000
0000
,
2000
0000
0000
3000
,
0200
0000
0000
0300
0020
0000
0000
0030
,
0002
0000
0000
0003
,
1000
0100
0010
0001
,
0110
0000
0000
0000
0010
0000
0000
0000
0001
0000
0000
0000
2000
0000
0000
3000
,
0001
0100
1000
0100
,
0001
0100
1000
0100
,
0010
0001
0010
1000
,
0010
0001
0010
1000
,
0001
1000
0001
1000
,
0100
0010
0100
0010
,
1000
0100
1000
0100
,
0001
0010
0001
0010
,
0001
0000
0000
0000
0010
0000
0000
0000
0100
0000
0000
0000
,
1000
0000
0000
0000
0100
0000
0000
0000
0010
0000
0000
0000
,
0001
0000
0000
0000
0010
0000
0000
0000
1100
0000
0000
0000
,
0011
0000
0000
0000
0110
0000
0000
0000
1001
0000
0000
0000
,
0001
0001
0001
0011
,
0100
0100
0100
1100
,
0001
0010
0001
0011
,
0100
1000
0100
1100
,
0002
0000
0000
0003
0000
0100
0010
0100
,
0020
0000
0000
0030
0000
0100
1000
0100
,
2000
0000
0000
3000
0000
0010
0100
0010
,
0200
0000
0000
0300
0000
0010
0100
1000
,
0200
0000
0000
0300
0000
1000
0100
0010
,
0002
0000
0000
0003
0000
1000
0001
1000
,
0010
0010
0001
0001
,
0100
0100
1000
1000
,
0100
0010
0001
0010
,
0100
0010
0001
0010
,
0100
1000
0100
0001
,
0100
0001
0010
1000
,
0100
0001
1000
0100
,
0010
0100
1000
0001
,
0010
1000
0010
0100
,
0001
0010
0100
0010
,
2002
0000
0000
3003
0000
0000
1000
0000
0000
0000
0100
0000
,
0000
0000
0010
0000
0000
0000
0100
0000
0000
0000
0001
0000
,
0000
0000
1100
0000
0000
0000
1100
0000
0000
0000
0110
0000
,
0000
0000
0110
0000
0000
0000
0011
0000
0000
0000
0011
0000
,
0100
1000
0100
1000
0100
1000
0100
1000
,
0010
0001
0010
0001
0010
0001
0010
0001
,
1000
0001
1000
0001
1000
0001
1000
0001
,
0100
0010
0100
0010
0100
0010
0100
0010
,
0100
1000
0100
1000
0010
0001
0010
0001
,
0100
0010
0100
0010
1000
0001
1000
0001
,
0010
0100
0010
0100
,
1000
0001
1000
0001
,
0100
1000
0100
1000
0100
1000
0100
1000
,
0100
0010
0100
0010
0100
0010
0100
0010
,
0001
0010
0001
0010
0001
0010
0001
0010
,
0001
1000
0001
1000
0001
1000
0001
1000
,
0001
0010
0001
0010
0100
1000
0100
1000
,
0010
0100
0010
0100
0001
1000
0001
1000
,
0100
0010
0001
0010
,
0100
1000
0100
0010
,
0010
0001
0010
0000
1000
0100
1000
0000
,
0010
0100
0010
0100
0001
1000
0001
1000
,
0000
0001
0000
0000
0001
0000
0000
0002
,
2000
0000
0000
0000
0000
0000
0000
3003
;

//---------------dance-single - BASIC----------------
#NOTES:
     dance-single:
     BASIC:
     Easy:
     4:
     0.224,0.299,0.043,0.140,0.000,129.000,4.000,13.000,0.000,0.000:
0000
0000
0000
0000
,
2000
0000
0000
3000
,
0200
0000
0000
0300
,
0002
0000
0000
0003
,
1000
0000
0000
0000
,
0001
0000
0000
0000
,
1000
0000
0000
0000
,
0001
0000
0000
0000
,
0010
0000
0000
0000
,
0001
0000
0000
0000
,
0100
0000
0000
0000
,
0001
0000
0000
0000
,
1000
0000
0000
0000
,
0001
0000
0000
0000
,
0001
0000
0010
0000
,
1000
0000
0010
0000
,
0001
0000
0100
0000
,
1100
0000
0010
0000
,
0001
0000
0001
0000
,
0100
0000
0100
0000
,
1000
0000
1000
0000
,
0010
0000
0010
0000
,
0002
0000
0003
0000
,
0020
0000
0030
0000
,
2000
0000
3000
0000
,
0200
0000
0300
0000
,
0200
0000
0000
0300
0000
0000
0000
0000
,
0002
0000
0003
0000
,
0010
0000
0001
0000
,
0100
0000
1000
0000
,
0100
0000
0001
0000
,
0100
0000
1000
0000
,
0100
0000
0010
0000
,
0100
0000
1000
0000
,
0100
0000
0001
0000
,
0010
0000
1000
0000
,
0010
0000
0010
0000
,
0001
0000
0100
0000
,
2002
3003
1000
0000
,
0010
0000
0100
0000
,
0001
0000
1100
0000
,
0010
0000
0011
0000
,
0100
1000
0100
1000
,
0010
0001
0010
0001
,
1000
0001
1000
0001
,
0100
0010
0100
0010
,
0100
1000
0010
0001
,
0100
0010
1000
0001
,
0010
0000
0010
0000
,
0100
0000
0100
0000
,
0100
1000
0100
1000
,
0100
0010
0100
0010
,
0001
0010
0001
0010
,
0001
1000
0001
1000
,
0001
0010
0100
1000
,
0010
0100
0001
1000
,
0100
0000
0001
0000
,
0100
0000
1000
0000
,
0001
0010
0100
1000
,
0010
0100
0001
1000
,
0000
0002
0000
0000
0000
0000
0003
2000
,
0000
0000
0000
0000
0000
0000
0000
3000
;

//---------------dance-single - SIMPLE----------------
#NOTES:
     dance-single:
     SIMPLE:
     Beginner:
     2:
     0.124,0.265,0.043,0.107,0.000,67.000,4.000,10.000,0.000,0.000:
0000
0000
0000
0000
,
0000
0000
0000
0000
,
0000
0000
0000
0000
,
0000
0000
0000
0000
,
1000
0000
0000
0000
,
0001
0000
0000
0000
,
1000
0000
0000
0000
,
0001
0000
0000
0000
,
0010
0000
0000
0000
,
0001
0000
0000
0000
,
0100
0000
0000
0000
,
0001
0000
0000
0000
,
1000
0000
0000
0000
,
0001
0000
0000
0000
,
0001
0000
0000
0000
,
1000
0000
0000
0000
,
0001
0000
0000
0000
,
1000
0000
0000
0000
,
0001
0000
0000
0000
,
0100
0000
0000
0000
,
1000
0000
0000
0000
,
0010
0000
0000
0000
,
0002
0000
0003
0000
,
0020
0000
0030
0000
,
2000
0000
3000
0000
,
0200
0000
0300
0000
,
0020
0000
0030
0000
,
0002
0000
0003
0000
,
0010
0000
0000
0000
,
0100
0000
0000
0000
,
0100
0000
0000
0000
,
0001
0000
0000
0000
,
0100
0000
0000
0000
,
1000
0000
0000
0000
,
0010
0000
0000
0000
,
0100
0000
0000
0000
,
0001
0000
0000
0000
,
0010
0000
0000
0000
,
2002
3003
0000
0000
,
0010
0000
0000
0000
,
0001
0000
0000
0000
,
0010
0000
0000
0000
,
0100
0000
0000
0000
,
0010
0000
0000
0000
,
1000
0000
0000
0000
,
0100
0000
0000
0000
,
0100
0000
0000
0000
,
0100
0000
0000
0000
,
0010
0000
0000
0000
,
0100
0000
0000
0000
,
0100
0000
0100
0000
,
0010
0000
0010
0000
,
0001
0000
0001
0000
,
1000
0000
1000
0000
,
0001
0000
0001
0000
,
1000
0000
1000
0000
,
0100
0000
0000
0000
,
0100
0000
0000
0000
,
0001
0000
0001
0000
,
1000
0000
1000
0000
,
1001
0000
1001
0000
,
2002
0000
0000
3003
;
