#TITLE:Gaussian Mist Part Two;
#SUBTITLE:;
#ARTIST:Kang;
#TITLETRANSLIT:;
#SUBTITLETRANSLIT:;
#ARTISTTRANSLIT:;
#CREDIT:;
#BANNER:Gaussian Mist (Part two)ban.png;
#BACKGROUND:Gaussian Mist (part two).png;
#LYRICSPATH:;
#CDTITLE:KS.png;
#MUSIC:Gaussian Mist (part two).mp3;
#OFFSET:0.569;
#SAMPLESTART:76.230;
#SAMPLELENGTH:11.880;
#SELECTABLE:YES;
#BPMS:0.000=85.000,64.000=200.000,164.000=242.000,412.000=140.000,424.000=85.000,456.000=60.000;
#STOPS:;
#BGCHANGES:;
// cache tags:
#FIRSTBEAT:3.500;
#LASTBEAT:456.750;
#SONGFILENAME:Songs/StepmaniaFreak's Favorites/(Kang) Gaussian Mist (part two)/Gaussian Mist (part two).sm;
#HASMUSIC:1;
#HASBANNER:1;
#MUSICLENGTH:177.057;
// end cache tags

//---------------dance-single - ----------------
#NOTES:
     dance-single:
     :
     Hard:
     13:
     0.934,1.000,0.706,0.299,0.949,980.000,125.000,53.000,0.000,1.000:
0000
0000
0000
0000
0000
0000
0000
0000
0000
0000
0000
0000
0000
0000
1000
0100
,
0011
1000
0110
0001
1100
0000
0000
0001
,
0101
0000
0000
0000
0100
0000
0001
0010
1100
0000
0000
0000
0000
0000
0001
0100
,
1010
0000
1001
0010
0101
0000
0000
0100
,
2010
0000
0100
0000
0001
0000
0010
0000
0100
0000
0000
3000
2000
0000
0000
3000
,
0012
0000
0100
0000
1000
0000
0010
0000
0100
0000
0000
0000
0000
0000
1003
0100
,
0021
0000
1000
0000
0100
0000
0001
0000
1000
0000
0000
0030
0020
0000
0000
0030
,
1002
0000
0100
0000
1000
0000
0010
0003
2020
0000
0000
3030
0022
0000
0000
0033
,
2100
0010
0001
0100
3020
1000
0001
0230
,
0302
0023
0230
1000
0001
0010
1000
0302
,
0023
0230
2300
0100
0001
0010
0001
3200
,
0320
0000
0100
0000
0032
0000
1000
0000
2013
0000
0000
3000
0120
0000
1030
0100
,
0012
0000
2003
0000
3020
0000
0230
0000
0302
0000
0000
0000
0000
0000
1000
0003
,
1002
0000
0000
0003
2010
0000
0000
3010
0101
1000
0200
0000
0000
0300
0100
0010
,
0012
0000
0023
0000
0230
0000
2300
3000
0120
0000
0230
0000
0302
0000
0023
0030
,
2100
0000
3002
0000
0203
0000
0000
0300
0120
0000
0000
0030
1001
0000
0000
0000
,
0101
0000
0010
1000
0001
1000
0010
0000
0101
0000
0010
1000
0001
1000
0010
0000
,
0101
0000
0010
1000
0001
1000
0010
0000
0101
0000
0010
1000
0001
1000
0010
0000
,
1100
0000
0001
0010
0100
0010
0001
0000
1100
0000
0001
0010
0100
0010
0001
0000
,
0110
0000
1000
0100
0010
0100
1000
0000
0101
0000
0010
1000
0100
1000
0010
0000
,
0011
0000
1000
0010
0100
0010
1000
0000
0011
0000
1000
0010
0100
0010
1000
0000
,
0011
0000
1000
0010
0100
0010
1000
0000
0011
0000
1000
0010
0100
0010
1000
0000
,
0110
0000
0001
1000
0100
1000
0001
0000
0110
0000
0001
1000
0100
1000
0001
0000
,
1010
0000
0100
0001
0010
0001
0100
0000
1001
0000
0010
0100
0001
0100
0010
0000
,
1000
0100
0010
0100
1000
0010
0100
0010
1000
0100
0010
0001
0100
0010
1000
0001
,
0010
0001
0100
0010
0100
0001
0010
0100
1000
0100
0010
0001
0100
0001
1000
0001
,
0010
0100
1000
0010
0100
0010
1000
0100
0010
0100
1000
0010
0100
0001
1000
0100
,
0010
0001
0010
0001
1000
0010
1000
0010
0100
0001
0100
0001
1000
0100
1000
0100
,
0010
0001
0100
0010
0100
0001
0010
0100
1000
0100
0010
0100
1000
0010
0100
0001
,
0010
0100
1000
0100
0010
0001
0100
0010
1000
0001
0100
0010
1000
0001
0010
0100
,
1000
0010
0100
0010
1000
0100
0010
0100
1000
0010
0100
0001
0100
0010
1000
0100
,
0010
0001
0010
0001
1000
0010
1000
0010
0100
0001
0100
0001
1000
0100
1000
0100
,
0010
0001
0010
0001
1000
0001
1000
0001
0100
0001
0100
0001
0010
0001
0010
0001
,
0101
0110
1010
0101
1000
0101
0110
0101
,
1100
0000
0000
0000
1100
0000
0001
0000
0101
0000
0000
0101
0000
0000
0110
0000
,
1100
0110
0011
1100
0001
1100
0110
1100
,
1001
0000
0100
0010
0100
0000
0001
0000
1001
0000
0010
0100
0010
0000
1000
0000
,
0001
0010
0100
1000
0001
0010
0100
1000
0001
0010
0100
1000
0001
0010
0100
1000
,
0010
0100
0001
1000
0010
0100
0001
1000
0001
1000
0100
0010
0001
1000
0100
0010
,
0001
0010
0100
1000
0001
0010
0100
1000
0001
0010
0100
1000
0001
0010
0100
1000
,
0010
0100
0010
0000
1000
0100
1000
0000
0001
0010
0100
1000
0010
0100
0001
1000
,
0110
0110
0000
0000
,
0110
0110
0000
0000
,
0100
1000
0100
1000
0100
1000
0100
1000
0010
1000
0010
1000
0010
1000
0010
1000
,
0101
0101
0000
0000
,
0101
0101
0000
0000
,
0001
1000
0001
1000
0001
0000
0000
0000
0010
0100
0010
0100
0010
0000
0000
0000
,
1001
1001
0000
0000
,
1001
1001
0000
0000
,
0100
0001
0100
0001
0100
0001
0100
0001
0010
0001
0010
0001
0010
0001
0010
0001
,
2001
0000
0000
0000
,
0001
0000
0000
0000
0000
0000
0000
0000
0010
0000
0000
0000
0100
0000
0000
3000
,
0120
0000
0000
0000
0000
0000
0000
0000
0000
0000
0000
0000
0000
0000
0000
0030
,
2200
0000
0000
0000
0000
0000
0000
3300
0022
0000
0000
0000
0000
0000
0000
0033
,
1000
0100
0010
0001
,
1000
0100
0010
0001
,
1000
0100
0010
0001
,
1000
0100
0010
0001
,
1000
0100
0010
0001
,
1000
0100
0010
0001
,
1000
0100
0010
0001
,
1000
0100
0010
0001
,
0100
0010
1000
0001
,
0100
0010
1000
0001
,
0100
0010
1000
0001
,
0100
0010
1000
0001
,
0010
0100
1000
0001
,
0010
0100
1000
0001
,
0010
0100
1000
0001
,
1001
0000
0000
0000
0000
0000
0000
0000
0010
0100
0000
0000
0000
0000
0000
0000
,
0100
0001
0010
0100
0010
0001
0100
0010
1000
0100
0010
0001
0010
0100
1000
0100
,
0010
0100
1000
0010
0100
0010
1000
0100
0010
0001
1000
0010
0100
0001
0010
0100
,
0010
0001
0100
0010
0100
0001
0010
0100
1000
0001
0100
0001
1000
0010
1000
0100
,
0010
0100
0010
0100
1000
0001
1000
0001
0100
0010
0100
0010
1000
0100
1000
0100
,
1000
0010
0001
0010
1000
0100
0001
0100
1000
0100
0010
0001
0010
0100
1000
0001
,
0100
0010
1000
0010
0100
0001
0010
0100
1000
0010
0100
0001
1000
0100
0010
0100
,
1000
0100
0010
0001
0100
0001
0010
0100
1000
0010
0100
0001
1000
0100
0010
0001
,
0100
0010
0100
0010
1000
0100
1000
0100
0010
0001
0010
0001
0100
0010
0100
0010
,
1000
0100
1000
0100
0010
0100
0010
0100
0001
0100
0001
0100
1000
0100
1000
0100
,
1010
0000
0000
0101
0000
0000
0011
0000
,
0000
1010
0000
0000
0101
0000
0101
0000
,
1001
0000
0000
0011
0000
0000
1100
0000
,
0000
0110
0000
0000
0011
0000
0011
0000
,
0110
0000
0000
1010
0000
0000
0101
0000
,
0000
0011
0000
0000
1100
0000
1100
0000
,
1010
0000
0000
0110
0000
0000
0101
0000
,
0000
0011
0000
0000
1001
0000
1001
0000
,
1000
0100
0010
0001
0010
0100
1000
0000
0000
0000
0000
0000
0011
0000
0000
0000
,
0100
0001
0100
0000
0000
0000
1000
0010
1000
0000
0000
0000
0010
0100
0010
0100
,
0001
1000
0100
0010
0001
0100
0010
0000
0000
0000
0000
0000
1010
0000
0000
0000
,
0100
0010
0100
0000
0000
0000
0001
0010
0001
0000
0000
0000
1000
0100
1000
0100
,
0010
0001
0100
0010
1000
0001
0100
0000
0000
0000
0000
0000
1001
0000
0000
0000
,
1000
0001
1000
0000
0000
0000
0010
0100
0010
0000
0000
0000
0100
0010
0100
0010
,
0001
0100
0010
1000
0001
0100
0010
0000
0000
0000
0000
0000
0110
0000
0000
0000
,
1000
0100
1000
0000
0000
0000
0100
0010
0100
0000
0000
0000
0001
0010
0001
0010
,
0100
1000
0010
0100
0001
0010
0100
1000
0010
0100
0001
1000
0100
0010
0001
0010
,
0100
1000
0010
0100
0001
1000
0100
0010
0001
0100
0010
1000
0001
0010
0100
1000
,
0010
1000
0001
1000
0100
0010
0001
1000
0001
0100
0001
0010
0100
1000
0010
0100
,
0001
1000
0100
0010
0001
0010
0100
1000
0001
0100
0010
1000
0100
0010
0001
0100
,
0010
1000
0100
0010
0001
0100
0001
1000
0010
0100
0001
1000
0100
1000
0100
0010
,
0001
0010
0001
0100
0010
1000
0001
1000
0100
0010
0100
1000
0010
0100
0001
0010
,
0001
0100
0001
1000
0010
0100
0001
0010
0100
1000
0010
0100
0001
0010
0100
1000
,
0010
0100
0001
1000
0100
1000
0001
0100
0001
1000
0100
0010
0001
0010
0100
1000
,
0220
0000
0000
0000
,
0000
0330
0000
0000
0000
0000
0000
0000
,
0000
0000
0000
0000
,
0000
0000
0000
0000
0000
0000
0000
0000
0000
0000
0000
0000
0000
0000
0001
0100
,
1010
0001
0110
1000
0101
0000
0000
1000
,
1010
0000
0000
0000
1000
0000
0001
0010
1100
0000
0000
0000
0000
0000
1000
0100
,
0011
0000
1010
0001
1100
0000
0000
0100
,
0110
0001
0010
0100
1000
0000
1010
0000
,
0011
0000
0100
0000
1000
0000
0001
0000
0010
0000
0000
0000
0000
0000
0100
0010
,
0101
1000
0100
0010
0001
0000
0011
0000
,
1010
0100
0001
1000
0110
0000
0011
0000
,
1000
0100
0010
0001
0000
0000
0000
0000
0000
0000
0000
0000
0000
0000
0000
0000
;

//---------------dance-single - ----------------
#NOTES:
     dance-single:
     :
     Challenge:
     15:
     1.000,1.000,1.000,0.254,0.983,1000.000,195.000,45.000,0.000,0.000:
0000
0000
0000
0000
0000
0000
0000
0000
0000
0000
0000
0000
0000
0000
0001
0100
,
1010
0001
1100
0010
0101
0000
0000
1000
,
1100
0000
0000
0000
0100
0000
0010
0001
0101
0000
0000
0000
0000
0000
1000
0001
,
0110
0000
0011
1000
0101
0000
0000
0001
,
1002
0000
0100
0000
1000
0000
0010
0000
0100
0000
0000
0003
0002
0000
0000
0003
,
2010
0000
0100
0000
0001
0000
0010
0000
0100
0000
0000
0000
0000
0000
3100
0010
,
0021
0000
1000
0000
0100
0000
0001
0000
1000
0000
0000
0030
0020
0000
0000
0030
,
1200
0000
0001
0000
0010
0000
1000
0300
0202
0000
0000
0303
2200
0000
0000
3300
,
1002
0000
0100
0000
1000
0000
0023
0000
0230
0000
1000
0000
0001
0000
2300
3000
,
0120
0230
0302
0100
0010
0100
1000
0013
,
1200
0000
0320
0000
0032
0000
0100
0000
1000
0000
0010
0000
1000
0000
0203
0300
,
2010
0000
0100
3000
0102
0000
0010
0003
2010
0000
0000
3000
0012
0000
0103
0010
,
2001
0000
3020
0000
0230
0000
0302
0003
0120
0000
0000
0000
0000
0000
1030
0000
,
1002
0000
0000
0003
0210
0000
0000
0301
1100
0010
0002
0000
0000
0000
0013
0100
,
2100
0000
0010
0000
0001
0000
0100
3000
0102
0000
0010
0000
1000
0000
0100
0003
,
0120
0000
1000
0000
0001
0000
0000
0030
2100
0000
0000
3000
1001
0000
0000
0000
,
0110
0000
1000
0100
0001
0100
1000
0000
0110
0000
1000
0100
0001
0100
1000
0000
,
0110
0000
1000
0100
0001
0100
1000
0000
0110
0000
1000
0100
0001
0100
1000
0000
,
0011
0000
0100
0010
1000
0010
0100
0000
0011
0000
0100
0010
1000
0010
0100
0000
,
1100
0000
0010
0001
0100
0001
0010
0000
0110
0000
1000
0001
0100
0001
1000
0000
,
1100
0000
0001
0010
1000
0010
0001
0000
1100
0000
0001
0010
1000
0010
0001
0000
,
1100
0000
0001
0010
1000
0010
0001
0000
1100
0000
0001
0010
1000
0010
0001
0000
,
1010
0000
1000
0001
0100
0001
1000
0000
1010
0000
1000
0001
0100
0001
1000
0000
,
0011
0000
0010
1000
0100
1000
0010
0000
1001
0000
0100
0010
0001
0010
0100
0000
,
1001
0100
0010
0100
1000
0010
0100
0010
1000
0100
0010
0001
0100
0010
1000
0001
,
0110
0001
0100
0010
0100
0001
0010
0100
1000
0100
0001
0010
0100
1000
0010
0100
,
1001
0010
1000
0010
0001
0100
1000
0100
0001
0010
0100
1000
0010
0100
0001
1000
,
0101
0010
0100
0010
0001
0100
0001
0100
0010
1000
0010
1000
0001
0010
0001
0010
,
0110
1000
0010
0100
0010
1000
0100
0010
0001
0010
0100
1000
0010
0100
0001
1000
,
1010
0001
0010
1000
0100
0001
0100
1000
0001
0100
1000
0100
0010
0001
0100
0010
,
1001
0010
0100
0010
1000
0100
0010
0001
1000
0100
0010
0001
0010
0100
1000
0001
,
0101
0010
0100
0010
1000
0001
1000
0001
0010
0100
0010
0100
1000
0010
1000
0010
,
0100
0001
0100
0001
0010
0001
0010
0001
1000
0001
1000
0001
0100
0001
0100
0001
,
1010
0110
0011
1010
0001
1010
0110
1010
,
1100
0000
0000
0000
1100
0000
0010
0000
0101
0000
0000
0101
0000
0000
0101
0000
,
0011
0110
1100
0011
1000
0011
0110
0011
,
1100
0000
0010
0100
0101
0000
1000
0000
0110
0000
0001
1000
0110
0000
0010
0000
,
1001
0010
0100
0001
1000
0010
0100
0001
1000
0010
0100
0001
1000
0010
0100
0001
,
1000
0100
0010
0001
1000
0100
0010
0001
0010
0100
1000
0001
0010
0100
1000
0001
,
1001
0010
0100
1000
0001
0010
0100
1000
0001
0010
0100
1000
0001
0010
0100
1000
,
0011
1000
0001
0000
1100
0001
1000
0000
0110
0001
0010
0100
1000
0010
0100
0001
,
1100
1100
0000
0000
,
1100
1100
0000
0000
,
0011
0100
1000
0100
1000
0100
1000
0100
1010
0100
0001
0100
0001
0100
0001
0100
,
1001
1001
0000
0000
,
1001
1001
0000
0000
,
1100
0001
1000
0001
1000
0000
0000
0000
0101
1000
0001
1000
0001
0000
0000
0000
,
0110
0110
0000
0000
,
0110
0110
0000
0000
,
1100
0010
0100
0010
0100
0010
0100
0010
0011
1000
0001
1000
0001
1000
0001
1000
,
0102
0000
0000
0000
,
0100
0000
0000
0000
0000
0000
0000
0000
0010
0000
0000
0000
1000
0000
0000
0003
,
2001
0000
0000
0000
0000
0000
0000
0000
0000
0000
0000
0000
0000
0000
0000
3000
,
0022
0000
0000
0000
0000
0000
0000
0033
2020
0000
0000
0000
0000
0000
0000
3030
,
1000
0010
0100
0001
,
1000
0010
0100
0001
,
1000
0010
0100
0001
,
1000
0010
0100
0001
,
1000
0010
0100
0001
,
1000
0010
0100
0001
,
1000
0010
0100
0001
,
1000
0010
0100
0001
,
0010
0100
1000
0001
,
0010
0100
1000
0001
,
0010
0100
1000
0001
,
0010
0100
1000
0001
,
1000
0100
0010
0001
,
1000
0100
0010
0001
,
1000
0100
0010
0001
,
1001
0000
0000
0000
0000
0000
0000
0000
0100
0010
0000
0000
0000
0000
0000
0000
,
1001
0010
0100
0010
1000
0100
0010
0100
1000
0100
0010
0001
0100
0010
1000
0001
,
1010
0100
0010
0001
0100
0010
0100
0001
1000
0010
0001
1000
0100
0010
0001
0100
,
0011
1000
0100
0010
0100
1000
0010
0100
0001
0100
0010
1000
0100
0010
0001
0010
,
0101
1000
0100
1000
0010
0100
0010
0100
0001
1000
0001
1000
0100
0010
0100
0010
,
1001
0010
1000
0010
0001
0100
1000
0100
0001
0010
0100
1000
0100
0010
0001
1000
,
0011
0100
0010
1000
0100
0010
0100
1000
0001
0010
1000
0100
0010
0001
1000
0010
,
1100
0001
0010
0100
0010
0001
0100
0010
1000
0010
0100
0001
0010
0100
1000
0100
,
1010
0001
0010
0001
1000
0010
1000
0010
0100
0001
0100
0001
1000
0100
1000
0100
,
0010
0001
0010
0001
1000
0001
1000
0001
0100
0001
0100
0001
0010
0001
0010
0001
,
1001
0100
1000
0100
1000
0100
1010
0000
0000
0000
0000
0000
0011
0000
0000
0000
,
0000
1100
0000
0000
0101
0000
0101
0000
,
1010
0001
0100
0001
0100
0001
0011
0000
0000
0000
0000
0000
1100
0000
0000
0000
,
0000
0101
0000
0000
1010
0000
1010
0000
,
0011
1000
0001
1000
0001
1000
1100
0000
0000
0000
0000
0000
1010
0000
0000
0000
,
0000
0101
0000
0000
0110
0000
0110
0000
,
1001
0010
0100
0010
0100
0010
1010
0000
0000
0000
0000
0000
0101
0000
0000
0000
,
0000
0011
0000
0000
1100
0000
1100
0000
,
0110
0001
0010
0100
1000
0010
1010
0000
0000
0000
0000
0000
0101
0000
0000
0000
,
1000
0100
0011
0000
0000
0000
0001
0010
1100
0000
0000
0000
1100
0010
0100
0001
,
1001
0010
0100
1000
0010
0100
0101
0000
0000
0000
0000
0000
1010
0000
0000
0000
,
0001
1000
1100
0000
0000
0000
1000
0001
0101
0000
0000
0000
0101
0010
1000
0001
,
1100
0010
0001
0010
0100
1000
0110
0000
0000
0000
0000
0000
0101
0000
0000
0000
,
0100
1000
0011
0000
0000
0000
0010
0100
1001
0000
0000
0000
1001
0010
0100
0001
,
0110
1000
0100
0010
0001
0010
1100
0000
0000
0000
0000
0000
0110
0000
0000
0000
,
0100
1000
0011
0000
0000
0000
1000
0010
0101
0000
0000
0000
0101
0010
1000
0001
,
1001
0010
0100
1000
0010
0100
0001
1000
1010
0100
0001
0010
0100
1000
0100
0010
,
1001
0100
0010
1000
0001
0010
0100
1000
0011
0100
0001
1000
0010
0100
0001
0010
,
1001
0100
0010
1000
0100
0010
0100
1000
1010
0100
0001
1000
0100
0010
0001
0100
,
1001
0010
0100
0001
1000
0010
0100
0001
0011
0100
1000
0100
0010
0001
0010
0100
,
1001
0010
0100
0001
1000
0010
0100
0001
1100
0010
0100
0001
1000
0100
0010
0001
,
1001
0010
0100
1000
0010
0100
0001
1000
0101
1000
0100
0010
0100
1000
0010
0100
,
1001
0010
0100
0001
1000
0100
0010
0001
1100
0010
0100
0001
1000
0010
0100
0001
,
1001
0010
0100
0001
1000
0100
0010
0001
0101
0010
0100
1000
0010
0100
0001
0010
,
2002
0000
0000
0000
,
0000
3003
0000
0000
0000
0000
0000
0000
,
0000
0000
0000
0000
,
0000
0000
0000
0000
0000
0000
0000
0000
0000
0000
0000
0000
0000
0000
1000
0100
,
0011
1000
1100
0010
0101
0000
0000
1000
,
1001
0000
0000
0000
0001
0000
0010
0100
1100
0000
0000
0000
0000
0000
1000
0010
,
0101
0000
1010
0001
0110
0000
0000
1000
,
1010
0001
0010
0100
1000
0000
0110
0000
,
0011
0000
1000
0000
0100
0000
0010
0000
0001
0000
0000
0000
0000
0000
0100
1000
,
1010
0001
0100
0010
1000
0000
1010
0000
,
0011
0100
1000
0001
0110
0000
0101
0000
,
1000
0010
0100
0001
0000
0000
0000
0000
0000
0000
0000
0000
0000
0000
0000
0000
;

//---------------dance-single - ----------------
#NOTES:
     dance-single:
     :
     Medium:
     12:
     0.863,1.000,0.678,0.435,0.689,872.000,120.000,77.000,0.000,0.000:
0000
0000
0000
0000
0000
0000
0000
0000
0000
0000
0000
0000
0000
0000
1000
0100
,
0011
0001
1100
0010
0101
0000
0000
0010
,
0011
0000
0000
0000
0010
0000
1000
0010
0101
0000
0000
0000
0000
0000
0100
0001
,
1010
0000
0011
0100
1001
0000
0000
1000
,
0012
0000
0100
0000
1000
0000
0010
0000
0100
0000
0000
0003
0002
0000
0000
0003
,
2010
0000
0100
0000
0001
0000
0010
0000
0100
0000
0000
0000
0000
0000
3100
0001
,
0120
0000
1000
0000
0100
0000
0001
0000
1000
0000
0000
0030
0020
0000
0000
0030
,
1200
0000
0001
0000
0010
0000
1000
0300
0012
0000
0000
0003
2010
0000
0000
3000
,
0102
0010
1000
0203
0320
0001
0100
2030
,
3200
0320
0032
0100
0010
0100
1000
0023
,
0230
2300
3002
0100
0010
0100
1000
0023
,
0230
0000
1000
0300
0020
0000
0001
0030
2100
0000
0000
3000
0012
0000
0203
0320
,
2030
0000
3020
0000
0230
0000
0302
0000
2003
0000
0000
0000
0000
0000
0010
3000
,
0012
0000
0000
0000
2003
0000
3000
2000
3200
0320
0032
0000
0000
0000
0203
0320
,
2030
3020
0230
0302
2003
3200
0320
0032
,
0203
0000
0320
0000
2030
0000
0000
0000
3002
0000
0000
0003
0110
0000
0000
0000
,
1001
0000
0100
0010
1000
0010
0100
0000
0001
0000
0100
0010
1000
0010
0100
0000
,
0001
0000
0100
0010
1000
0010
0100
0000
0001
0000
0100
0010
1000
0010
0100
0000
,
1000
0000
0100
0010
0001
0010
0100
0000
1000
0000
0100
0010
0001
0010
0100
0000
,
0010
0000
0001
0100
0010
0100
0001
0000
1000
0000
0010
0100
0001
0100
0010
0000
,
1001
0000
0100
0010
0001
0010
0100
0000
1000
0000
0100
0010
0001
0010
0100
0000
,
1000
0000
0100
0010
0001
0010
0100
0000
1000
0000
0100
0010
0001
0010
0100
0000
,
0010
0000
0001
1000
0100
1000
0001
0000
0010
0000
0001
1000
0100
1000
0001
0000
,
0100
0000
0010
1000
0001
1000
0010
0000
0001
0000
0010
0100
1000
0100
0010
0000
,
0001
0100
0010
0100
0001
0010
0100
0010
0001
0010
0100
1000
0010
0100
0001
1000
,
0100
0010
0001
0010
0100
1000
0010
1000
0100
0010
0001
1000
0010
0100
0001
0010
,
0100
1000
0010
0100
0010
1000
0100
0010
0100
1000
0010
0100
0001
0010
0100
1000
,
0001
0100
0001
0100
0010
1000
0010
1000
0100
0010
0100
0010
0001
1000
0001
1000
,
0100
0010
0001
0100
0010
0100
0001
0010
0100
0010
0001
1000
0100
0010
0001
0010
,
0100
1000
0010
0100
0010
1000
0100
0010
0100
1000
0001
0100
0010
1000
0010
0100
,
0001
1000
0100
1000
0001
0100
0010
0100
0001
1000
0100
0010
0100
1000
0010
0100
,
0001
1000
0001
1000
0010
0100
0010
0100
0001
0010
0001
0010
0100
1000
0100
1000
,
0001
1000
0001
1000
0010
1000
0010
1000
0001
1000
0001
1000
0100
1000
0100
1000
,
0110
0001
1100
0001
0110
0110
1000
0101
,
0101
0000
0000
0000
0101
0000
0010
0000
1100
0000
0000
1100
0000
0000
1010
0000
,
0101
0010
1100
0001
0110
0110
1000
0011
,
0011
0000
0100
1000
0100
0000
0011
0000
0011
0000
0100
1000
0100
0000
0011
0000
,
1000
0100
0010
0001
1000
0100
0010
0001
1000
0100
0010
0001
1000
0100
0010
0001
,
0100
0010
1000
0001
0100
0010
1000
0001
0010
0100
1000
0001
0010
0100
1000
0001
,
1000
0010
0100
0001
1000
0010
0100
0001
1000
0010
0100
0001
1000
0010
0100
0001
,
1000
0010
1000
0000
0001
0010
0001
0000
0100
1000
0010
0100
0001
0010
0100
1000
,
0101
0101
0000
0000
,
0101
0101
0000
0000
,
2200
0000
0000
3300
0022
0000
0000
0033
,
1010
1010
0000
0000
,
1010
1010
0000
0000
,
0022
0000
0000
0033
2200
0000
0000
3300
,
1001
1001
0000
0000
,
1001
1001
0000
0000
,
0220
0000
0000
0330
2020
0000
0000
3030
,
1002
0000
0000
0000
,
1000
0000
0000
0000
0100
0000
0010
0003
,
2010
0000
0000
0000
0000
0000
0000
3000
,
0202
0000
0000
0303
2020
0000
0000
3030
,
0010
0100
0001
1000
,
0010
0100
0001
1000
,
0010
0100
0001
1000
,
0010
0100
0001
1000
,
0010
0100
0001
1000
,
0010
0100
0001
1000
,
0010
0100
0001
1000
,
0010
0100
0001
1000
,
0001
0010
0100
1000
,
0001
0010
0100
1000
,
0001
0010
0100
1000
,
0001
0010
0100
1000
,
0100
0010
0001
1000
,
0100
0010
0001
1000
,
0100
0010
0001
1000
,
0110
0000
0000
0000
0000
0000
0000
0000
0001
0010
0000
0000
0000
0000
0000
0000
,
2001
0010
0001
0100
3010
0100
0001
1000
,
0012
0100
1000
0100
0013
0001
0010
1000
,
0210
0001
1000
0001
0310
0100
1000
0001
,
1100
1000
0100
0100
0010
0010
0001
0001
,
1020
0100
0001
0100
1030
0100
0010
0001
,
1200
0010
0001
1000
0310
0001
1000
0100
,
0012
0100
0010
0100
1003
0010
0100
0001
,
1001
0001
0010
0010
0100
0100
1000
1000
,
1100
1000
0110
0010
0011
0001
1010
0010
,
1001
0000
0000
1010
0000
0000
0101
0000
,
0000
0011
0000
0000
1100
0000
1100
0000
,
0110
0000
0000
0101
0000
0000
1010
0000
,
0000
0011
0000
0000
0101
0000
0101
0000
,
1010
0000
0000
0011
0000
0000
1100
0000
,
0000
0110
0000
0000
1010
0000
1010
0000
,
1001
0000
0000
1100
0000
0000
0011
0000
,
0000
1010
0000
0000
1001
0000
1001
0000
,
1000
0100
1000
0100
1000
0100
1000
0000
0000
0000
0000
0000
0110
0000
0000
0000
,
0001
0010
0100
0000
0000
0000
1000
0100
0010
0000
0000
0000
0001
0100
0001
0100
,
0010
0100
0010
0100
0010
0100
0010
0000
0000
0000
0000
0000
1010
0000
0000
0000
,
0100
0001
0010
0000
0000
0000
0100
1000
0010
0000
0000
0000
1000
0100
1000
0100
,
0010
0100
0010
0100
0010
0100
0010
0000
0000
0000
0000
0000
0011
0000
0000
0000
,
0010
1000
0001
0000
0000
0000
1000
0001
0010
0000
0000
0000
0001
1000
0001
1000
,
0100
1000
0100
1000
0100
1000
0100
0000
0000
0000
0000
0000
1001
0000
0000
0000
,
1000
0100
0010
0000
0000
0000
0100
0010
0001
0000
0000
0000
1000
0100
1000
0100
,
0010
0001
0010
0001
0010
0001
0010
0001
0010
0001
0010
0001
0010
0001
0010
0001
,
1000
0001
1000
0001
1000
0001
1000
0001
1000
0001
1000
0001
1000
0001
1000
0001
,
0100
0001
0100
0001
0100
0001
0100
0001
0100
0001
0100
0001
0100
0001
0100
0001
,
1000
0010
1000
0010
1000
0010
1000
0010
1000
0010
1000
0010
1000
0010
1000
0010
,
0100
0010
0100
0010
0100
0010
0100
0010
0100
0010
0100
0010
0100
0010
0100
0010
,
1000
0100
1000
0100
1000
0100
1000
0100
1000
0100
1000
0100
1000
0100
1000
0100
,
0010
0100
0010
0100
0010
0100
0010
0100
0010
0100
0010
0100
0010
0100
0010
0100
,
1000
0001
1000
0001
1000
0001
1000
0001
1000
0001
1000
0001
1000
0001
1000
0001
,
0220
0000
0000
0000
,
0000
0330
0000
0000
0000
0000
0000
0000
,
0000
0000
0000
0000
,
0000
0000
0000
0000
0000
0000
0000
0000
0000
0000
0000
0000
0000
0000
0001
0010
,
1100
0001
0110
1000
1100
0000
0000
0001
,
0101
0000
0000
0000
0100
0000
0010
1000
1100
0000
0000
0000
0000
0000
0100
0010
,
0011
0000
1010
0100
1001
0000
0000
0100
,
0011
1000
0010
0100
0001
0000
0101
0000
,
1010
0000
0100
0000
0001
0000
0010
0000
1000
0000
0000
0000
0000
0000
1000
0010
,
0101
1000
0100
0010
0001
0000
1100
0000
,
0011
0100
0010
0001
1010
0000
0101
0000
,
0001
0010
0100
1000
0000
0000
0000
0000
0000
0000
0000
0000
0000
0000
0000
0000
;
