#TITLE:Not Afraid of You;
#SUBTITLE:;
#ARTIST:Frazzbass VS Komprex;
#TITLETRANSLIT:;
#SUBTITLETRANSLIT:;
#ARTISTTRANSLIT:;
#CREDIT:;
#BANNER:ahaha.banner.jpg;
#BACKGROUND:ahaha.bg.jpg;
#LYRICSPATH:;
#CDTITLE:CDTITLE.jpg;
#MUSIC:01-frazzbass_vs_komprex-not_afraid_of_you-ssk.mp3;
#OFFSET:0.120;
#SAMPLESTART:100.000;
#SAMPLELENGTH:12.000;
#SELECTABLE:YES;
#BPMS:0.000=229.120,335.000=114.560,336.000=229.120;
#STOPS:;
#BGCHANGES:;
// cache tags:
#FIRSTBEAT:114.000;
#LASTBEAT:503.000;
#SONGFILENAME:Songs/Definitive Keyboard Megapack/Not Afraid of you - frazzbass vs komprex(Leone510)/01-frazzbass_vs_komprex-not_afraid_of_you-ssk.sm;
#HASMUSIC:1;
#HASBANNER:1;
#MUSICLENGTH:137.456;
// end cache tags

//---------------dance-single - ----------------
#NOTES:
     dance-single:
     :
     Easy:
     15:
     0.793,1.000,0.284,0.124,0.600,707.000,39.000,17.000,0.000,1.000:
0000
0000
0000
0000
,
0000
0000
0000
0000
,
0000
0000
0000
0000
,
0000
0000
0000
0000
,
0000
0000
0000
0000
,
0000
0000
0000
0000
,
0000
0000
0000
0000
,
0000
0000
0000
0000
,
0000
0000
0000
0000
,
0000
0000
0000
0000
,
0000
0000
0000
0000
,
0000
0000
0000
0000
,
0000
0000
0000
0000
,
0000
0000
0000
0000
,
0000
0000
0000
0000
,
0000
0000
0000
0000
,
0000
0000
0000
0000
,
0000
0000
0000
0000
,
0000
0000
0000
0000
,
0000
0000
0000
0000
,
0000
0000
0000
0000
,
0000
0000
0000
0000
,
0000
0000
0000
0000
,
0000
0000
0000
0000
,
0000
0000
0000
0000
,
0000
0000
0000
0000
,
0000
0000
0000
0000
,
0000
0000
0000
0000
,
0000
0000
0000
0000
0000
0000
0000
0000
0001
0010
0100
1000
0001
0010
0100
0001
,
0010
0100
1000
0010
0100
0000
1000
0000
0000
0000
0100
0000
0000
0000
0010
0000
,
0001
0100
1000
0001
0000
0100
0010
0100
,
1000
0001
0110
0000
1100
0000
0100
0010
,
1000
0001
0100
0010
1000
0001
0010
0001
,
0010
0100
1000
0101
0010
1000
0100
0100
,
0001
1000
0001
0100
0100
1000
0001
1000
,
0001
0010
0100
1000
0010
0001
0100
0010
,
1000
0001
0010
0100
1000
0010
0100
1000
,
0011
0101
1001
0101
0000
0000
0000
0000
,
0000
0000
0000
0000
,
0010
0001
0100
0010
0100
0001
1000
0010
0100
1000
0010
0001
1000
0000
0000
0001
0000
0000
0010
0000
0000
0100
0000
0000
,
1000
0010
0001
0100
0010
1000
0001
0010
,
0100
1000
0010
0001
0100
0010
0001
1000
,
0001
0000
0100
0000
0010
0000
0001
0000
0010
0001
0100
0001
1000
0001
0010
0000
,
0001
0000
0000
0100
0000
0000
0010
0001
0010
1000
0010
0100
0001
0000
0000
0010
0000
0000
0100
0000
0000
1000
0000
0000
,
0010
0000
0000
0100
0000
0000
0001
0000
0000
1000
0000
0000
0100
0000
0001
0000
0100
0000
0010
0000
1000
0000
0010
0000
0001
0000
0000
0000
0000
0000
1000
0000
0000
0000
0000
0000
0001
0000
0000
0000
0000
0000
0100
0000
0000
0000
0000
0000
,
0010
0000
0001
0000
0010
0000
0100
0001
1000
0001
0010
0000
0001
0000
0100
0000
,
0010
1000
0001
0010
0200
0000
0320
0000
,
0030
0000
0000
0000
0000
0001
0010
0100
,
1000
0010
0001
0100
0010
1000
0001
0010
,
0100
1000
0010
0001
0100
0010
0001
1000
,
0001
0100
0010
0001
0010
0100
1000
0010
,
0001
0000
0100
0001
0010
0001
1000
0100
0001
0000
0010
0000
0100
0000
1000
0000
,
0010
0001
0100
0010
0001
1000
0001
0100
,
0010
0001
0010
0100
1000
0010
0001
0100
,
0010
0000
0000
0100
0000
0000
1000
0000
0000
0010
0000
0000
0001
0000
0010
0000
0100
0000
0010
0000
1000
0000
0001
0000
0200
0000
0000
0000
0000
0000
0000
0000
0000
0000
0000
0000
0320
0000
0000
0000
0000
0000
0000
0000
0000
0000
0000
0000
,
0000
0000
0030
0101
,
0000
0000
0000
0000
,
0000
0000
0000
0000
,
0000
0000
0000
0000
,
0000
0000
0000
0000
,
0000
0000
0000
0000
,
0000
0000
0000
0000
,
0000
0000
0000
0000
,
0000
0000
0000
0000
,
0000
0000
0000
0000
,
0000
0000
0000
0000
,
0000
0000
0000
0000
,
0000
0000
0000
0000
,
0000
0000
0000
0000
,
0000
0000
0000
0000
,
0000
0000
0000
0000
,
0000
0000
0000
0000
0000
0000
0000
0000
0001
0010
0100
1000
0010
0001
1000
0000
,
0101
0000
0000
0000
0000
0000
0000
0000
0000
0000
0000
0000
0001
0000
0000
0010
0000
0000
0100
0000
0000
0000
0000
0000
1000
0000
0000
0100
0000
0000
0001
0000
0000
0000
0000
0000
0100
0000
0000
0000
0000
0000
0010
0000
0100
0000
1000
0000
,
0001
0000
0000
1000
0000
0000
0001
0000
0000
0100
0000
0000
0010
0000
0000
0000
0000
0000
1000
0000
0000
0001
0000
0000
0100
0000
1000
0000
0001
0000
0010
0000
0000
0000
0000
0000
0001
0000
0000
0000
0000
0000
0010
0000
0000
0000
0000
0000
,
1001
0000
0000
0000
0101
0000
0100
0010
0001
0000
0001
0010
1000
0000
0100
0000
,
0010
0000
0100
0010
0001
0000
0001
0010
1000
0000
0100
0000
0010
0000
0100
0010
,
0001
0000
0001
0010
1000
0000
0100
0000
0010
0000
0100
0010
0001
0000
0001
0010
,
1000
0100
0010
0000
0100
0000
0001
0000
,
0010
0000
1000
0000
0001
0010
0100
1000
0001
0010
0100
1000
0010
0001
0100
0010
,
0100
0000
0000
0001
0000
0000
0010
0000
0000
0100
0000
0000
1000
0000
0000
0000
0000
0000
0001
0000
0010
0000
0100
0000
0001
0000
1000
0000
0010
0000
0100
0000
1000
0000
0001
0000
0010
0000
0100
0000
0010
0000
1000
0000
0010
0000
0100
0000
,
0001
0001
0010
0100
1000
0010
0001
0100
,
0010
1000
0001
0010
0100
1000
0010
0001
,
0100
0010
0001
1000
0001
0100
0010
0001
,
0010
0000
0100
0000
1000
0100
0010
1000
0001
0010
0100
1000
0010
0000
0000
0000
,
0001
0010
0100
1000
0010
0001
0100
0010
,
0001
0000
0000
0010
0000
0000
1000
0000
0000
0010
0000
0000
0001
0000
0000
1000
0000
0000
0100
0000
0000
1000
0000
0000
0010
0000
0001
0000
1000
0000
0001
0000
1000
0000
0100
0000
0010
0000
0001
0000
0010
0000
0100
0000
1000
0000
0001
0000
,
1000
0000
0010
0000
0001
0000
0100
0000
0010
0000
1000
0100
0001
0100
0020
0000
,
0000
0230
0000
0320
0000
0030
0000
0000
,
0101
0000
0100
1000
0001
0000
1100
0000
,
0100
0000
0000
0001
0000
0000
0000
0000
0000
0000
0000
0000
0001
0000
0010
0000
0100
0000
0010
0000
0000
0000
0000
0000
0001
0000
0000
0000
0000
0000
1000
0000
0000
0100
0000
0000
0001
0000
0000
0000
0000
0000
0010
0000
0000
0000
0000
0000
,
1100
0000
0000
0000
0000
0100
0000
1000
0000
0001
0000
0000
0000
1100
0000
0000
,
0000
0000
0000
0100
0000
0000
0001
0000
0000
0000
0000
0000
0000
0000
0000
0001
0000
0010
0000
0100
0000
0010
0000
0000
0000
0000
0000
0001
0000
0000
0000
0000
0000
1000
0000
0000
0100
0000
0000
0001
0000
0000
0000
0000
0000
0010
0000
0000
,
0000
1100
0000
0000
0101
0000
0100
0000
1000
0000
0001
0000
1010
0000
0100
0000
,
0001
0000
1000
0000
0011
0000
0100
0010
0001
0010
0100
1000
0101
0000
0100
0000
,
1000
0000
0001
0000
1010
0000
0100
0000
0001
0000
1000
0000
0011
0000
0100
0010
,
0001
0010
0100
1000
0101
0000
0100
0000
1000
0000
0001
0000
1010
0000
0100
0000
,
0001
1000
0011
0000
0000
0000
0000
0000
,
0000
0000
1000
1000
,
0101
0000
0000
0000
0110
0000
0000
0000
0000
0000
0000
0000
0002
0003
0000
0000
,
0000
0000
0000
0000
0000
0000
0000
0000
0000
0000
0000
0000
0000
0000
0000
0000
0000
0000
0010
0001
0100
0010
0100
0001
,
1000
0010
0100
1000
0010
0001
1000
0000
0000
0001
0000
0000
0010
0000
0000
0100
0000
0000
1000
0000
0000
0010
0000
0000
,
0001
0100
0010
1000
0001
0010
0100
1000
,
0010
0001
0100
0010
0001
1000
0001
0100
,
0010
0001
0010
0100
1000
0010
0001
0100
,
0010
0001
1000
0100
0001
0100
0010
0000
0100
0000
1000
0000
0010
0000
0001
0000
,
0100
0000
0010
0100
0001
0100
1000
0000
0001
0000
0100
0000
0010
1000
0001
1000
,
0010
0000
0000
0000
0000
0000
0100
0000
0000
0000
0000
0000
1000
0000
0000
0001
0000
0000
0010
0000
0000
0100
0000
0000
0001
0000
0000
0000
0000
0000
0100
0000
0000
0001
0000
0000
0010
0000
0100
0000
0001
0000
1000
0000
0000
0000
0000
0000
,
0001
0010
0100
1000
0200
0000
0320
0000
,
0030
0000
0000
0001
0010
0100
1000
0010
,
0001
0100
0010
1000
0001
0010
0100
1000
,
0010
0001
0100
0010
0001
1000
0001
0100
,
0010
0000
0001
0000
0010
0000
0100
0000
1000
0000
0010
0000
0001
0000
0100
0001
,
0010
0001
0010
1000
0010
0100
0001
0100
0001
0010
1000
0001
0100
0000
0000
1000
0000
0000
0010
0000
0000
0001
0000
0000
,
0100
0010
0001
1000
0001
0100
0010
0001
,
0010
0000
0100
0000
1000
0100
0010
0100
0001
0000
0100
0000
0010
0100
1000
0010
,
0001
0010
0100
0020
0000
0000
0000
0000
0000
0000
0000
0000
0000
0000
0000
0000
0000
0000
0000
0000
0000
0000
0000
0000
,
0000
0030
0101
1100
,
0100
0000
0000
0001
0000
0000
0100
0000
0000
1000
0000
0000
0001
0010
1000
0001
0000
0000
0100
0000
0000
0002
0000
0000
,
2013
0000
0000
3100
0000
0000
0201
1000
0001
0310
0000
0000
1001
0000
0000
0010
0000
0000
0100
0000
0000
0001
0000
0000
,
1000
0101
0010
0001
1000
0101
0001
0010
,
1000
1010
0100
0001
0010
0100
0001
0010
,
1000
0010
0001
0100
0001
0000
1100
0000
,
0101
0000
0000
1010
0000
0000
0101
0000
0000
1000
0000
0000
0000
0000
0000
0001
0000
0000
0000
0000
0000
0001
0010
0100
,
1000
0001
0010
0100
1000
0010
0001
0100
,
0010
0000
0000
0000
0000
0000
0001
0000
0000
0000
0000
0000
1000
0000
0000
0010
0000
0000
0001
0000
0000
0010
0000
0000
0100
0000
1000
0000
0010
0000
0001
0000
0010
0000
0100
0000
0002
0000
0000
0000
0000
0000
0000
0000
0000
0000
0000
0000
,
2003
3002
0000
0003
;

//---------------dance-single - Copied from----------------
#NOTES:
     dance-single:
     Copied from:
     Beginner:
     15:
     1.000,1.000,1.000,0.175,0.629,717.000,266.000,24.000,0.000,174.000:
0000
0000
0000
0000
,
0000
0000
0000
0000
,
0000
0000
0000
0000
,
0000
0000
0000
0000
,
0000
0000
0000
0000
,
0000
0000
0000
0000
,
0000
0000
0000
0000
,
0000
0000
0000
0000
,
0000
0000
0000
0000
,
0000
0000
0000
0000
,
0000
0000
0000
0000
,
0000
0000
0000
0000
,
0000
0000
0000
0000
,
0000
0000
0000
0000
,
0000
0000
0000
0000
,
0000
0000
0000
0000
,
0000
0000
0000
0000
,
0000
0000
0000
0000
,
0000
0000
0000
0000
,
0000
0000
0000
0000
,
0000
0000
0000
0000
,
0000
0000
0000
0000
,
0000
0000
0000
0000
,
0000
0000
0000
0000
,
0000
0000
0000
0000
,
0000
0000
0000
0000
,
0000
0000
0000
0000
,
0000
0000
0000
0000
,
0000
0000
0000
0000
0000
0000
0000
0000
0001
0010
0100
1000
0001
0010
0100
0001
,
0010
0100
1000
0010
0100
0000
1000
0000
0000
0000
0100
0000
0000
0000
0010
0000
,
0001
0100
1000
0001
0000
0100
0010
0100
,
1000
0001
0110
0000
1100
0000
0100
0010
,
1000
0001
0100
0010
1000
0001
0010
0001
,
0010
0100
1000
0101
0011
1000
0101
0100
,
0011
1000
0011
0100
0110
1000
0101
1000
,
0101
0010
0101
1000
0110
0001
1100
0010
,
1100
0001
1010
0100
1001
0010
0101
1000
,
0011
0111
1001
1111
0000
0000
0000
0000
,
0000
0000
0000
0000
,
1010
0001
0100
0010
0100
0001
1100
0010
0100
1000
0010
0001
1010
0000
0000
0001
0000
0000
1011
0000
0000
0100
0000
0000
,
1101
0010
1101
0100
0111
1000
0111
0010
,
1101
1000
0111
0001
1101
0010
0111
1000
,
0111
0000
0100
0000
1110
0000
0001
0000
1010
0001
0100
0001
1100
0001
0010
0000
,
1111
0000
0000
0100
0000
0000
0110
0001
0010
1000
0010
0100
1001
0000
0000
0010
0000
0000
0111
0000
0000
1000
0000
0000
,
0011
0000
0000
0100
0000
0000
0001
0000
0000
1000
0000
0000
0110
0000
0001
0000
0100
0000
0010
0000
1000
0000
0010
0000
0101
0000
0000
0000
0000
0000
1000
0000
0000
0000
0000
0000
1011
0000
0000
0000
0000
0000
0100
0000
0000
0000
0000
0000
,
1110
0000
0001
0000
0111
0000
0100
0001
1100
0001
0010
0000
1011
0000
0100
0000
,
0111
1000
1011
0010
0200
0000
0320
0000
,
0030
0000
0000
0000
0000
0001
1011
0100
,
1101
0010
0111
0100
1011
1000
0111
0010
,
1101
1000
0111
0001
1110
0010
0111
1000
,
1011
0100
0111
0001
1011
0100
1101
0010
,
1011
0000
0100
0001
0110
0001
1000
0100
0011
0000
0010
0000
0111
0000
1000
0000
,
0111
0001
1101
0010
0111
1000
1011
0100
,
1110
0001
0111
0100
1011
0010
1011
0100
,
0011
0000
0000
0100
0000
0000
1000
0000
0000
0010
0000
0000
0101
0000
0010
0000
0100
0000
0010
0000
1000
0000
0001
0000
0200
0000
0000
0000
0000
0000
0000
0000
0000
0000
0000
0000
0320
0000
0000
0000
0000
0000
0000
0000
0000
0000
0000
0000
,
0000
0000
0030
1111
,
0000
0000
0000
0000
,
0000
0000
0000
0000
,
0000
0000
0000
0000
,
0000
0000
0000
0000
,
0000
0000
0000
0000
,
0000
0000
0000
0000
,
0000
0000
0000
0000
,
0000
0000
0000
0000
,
0000
0000
0000
0000
,
0000
0000
0000
0000
,
0000
0000
0000
0000
,
0000
0000
0000
0000
,
0000
0000
0000
0000
,
0000
0000
0000
0000
,
0000
0000
0000
0000
,
0000
0000
0000
0000
0000
0000
0000
0000
0101
0010
0100
1000
0110
0001
1000
0000
,
1111
0000
0000
0000
0000
0000
0000
0000
0000
0000
0000
0000
0101
0000
0000
0010
0000
0000
0100
0000
0000
0000
0000
0000
1011
0000
0000
0100
0000
0000
0001
0000
0000
0000
0000
0000
1111
0000
0000
0000
0000
0000
0010
0000
0100
0000
1000
0000
,
0011
0000
0000
1000
0000
0000
0001
0000
0000
0100
0000
0000
1011
0000
0000
0000
0000
0000
1000
0000
0000
0001
0000
0000
0110
0000
1000
0000
0001
0000
0010
0000
0000
0000
0000
0000
1011
0000
0000
0000
0000
0000
0010
0000
0000
0000
0000
0000
,
1111
0000
0000
0000
1101
0000
0100
0010
1101
0000
0001
0010
1101
0000
0100
0000
,
1111
0000
0100
0010
1101
0000
0001
0010
1101
0000
0100
0000
1111
0000
0100
0010
,
1101
0000
0001
0010
1101
0000
0100
0000
1111
0000
0100
0010
1101
0000
0001
0010
,
1101
0100
1111
0000
1100
0000
0101
0000
,
0011
0000
2000
0000
3101
0010
0100
1000
0101
0010
0100
1000
0110
0001
0100
0010
,
1100
0000
0000
0001
0000
0000
0010
0000
0000
0100
0000
0000
1001
0000
0000
0000
0000
0000
0001
0000
0010
0000
0100
0000
0011
0000
1000
0000
0010
0000
0100
0000
1000
0000
0001
0000
1010
0000
0100
0000
0010
0000
1000
0000
0010
0000
0100
0000
,
1001
0001
1110
0100
1101
0010
1011
0100
,
0111
1000
0111
0010
1101
1000
1110
0001
,
1110
0010
0111
1000
1101
0100
1011
0001
,
0111
0000
0100
0000
1001
0100
0010
1000
0101
0010
0100
1000
0021
0000
0030
0000
,
1101
0010
0111
1000
0111
0001
1101
0010
,
0101
0000
0000
0010
0000
0000
1000
0000
0000
0010
0000
0000
0101
0000
0000
1000
0000
0000
0100
0000
0000
1000
0000
0000
0110
0000
0001
0000
1000
0000
0001
0000
1000
0000
0100
0000
1010
0000
0001
0000
0010
0000
0100
0000
1000
0000
0001
0000
,
1100
0000
0010
0000
1011
0000
0100
0000
0111
0000
1000
0100
1001
0100
0020
0000
,
0000
0230
0000
0320
0000
0030
0000
0000
,
1111
0000
0100
1000
0001
0000
1100
0000
,
0100
0000
0000
0001
0000
0000
0000
0000
0000
0000
0000
0000
1001
0000
0010
0000
0100
0000
0010
0000
0000
0000
0000
0000
0111
0000
0000
0000
0000
0000
1000
0000
0000
0100
0000
0000
1011
0000
0000
0000
0000
0000
0010
0000
0000
0000
0000
0000
,
1111
0000
0000
0000
0000
0100
0000
1000
0000
0001
0000
0000
0000
1100
0000
0000
,
0000
0000
0000
0100
0000
0000
0001
0000
0000
0000
0000
0000
0000
0000
0000
1001
0000
0010
0000
0100
0000
0010
0000
0000
0000
0000
0000
0111
0000
0000
0000
0000
0000
1000
0000
0000
0100
0000
0000
0001
0000
0000
0000
0000
0000
1011
0000
0000
,
0000
1111
0000
0000
1101
0000
0100
0000
1011
0000
0001
0000
1110
0000
0100
0000
,
0111
0000
1000
0000
1011
0000
0100
0010
1001
0010
0100
1000
0111
0000
0100
0000
,
1011
0000
0001
0000
1110
0000
0100
0000
0111
0000
1000
0000
1011
0000
0100
0010
,
1001
0010
0100
1000
0101
0000
0100
0000
1101
0000
0001
0000
1010
0000
0100
0000
,
1011
1000
1111
0000
0000
0000
0000
0000
,
0000
0000
1000
1000
,
1101
0000
0000
0000
1111
0000
0000
0000
0000
0000
0000
0000
0002
0003
0000
0000
,
0000
0000
0000
0000
0000
0000
0000
0000
0000
0000
0000
0000
0000
0000
0000
0000
0000
0000
1010
0001
0100
0010
0100
0001
,
1100
0010
0100
1000
0010
0001
1010
0000
0000
0001
0000
0000
1011
0000
0000
0100
0000
0000
1101
0000
0000
0010
0000
0000
,
0111
0100
1011
1000
1101
0010
0111
1000
,
1110
0001
1101
0010
0111
1000
0111
0100
,
1011
0001
1110
0100
1011
0010
1101
0100
,
0110
0001
1000
0100
1001
0100
0010
0000
0111
0000
1000
0000
1110
0000
0001
0000
,
1101
0000
0010
0100
0011
0100
1000
0000
0111
0000
0100
0000
0110
1000
0001
1000
,
0110
0000
0000
0000
0000
0000
0100
0000
0000
0000
0000
0000
1010
0000
0000
0001
0000
0000
0010
0000
0000
0100
0000
0000
1001
0000
0000
0000
0000
0000
0100
0000
0000
0001
0000
0000
1010
0000
0100
0000
0001
0000
1000
0000
0000
0000
0000
0000
,
0111
0000
0000
0010
0000
0000
0111
0000
0000
1000
0000
0000
0200
0000
0000
1000
0010
0001
0320
0100
1000
0002
0000
0000
,
0000
0000
0033
0001
1110
0100
1101
0010
,
0111
0100
1011
1000
1101
0010
0111
1000
,
1110
0001
1101
0010
0111
1000
0111
0100
,
1011
0000
0001
0000
1011
0000
0100
0000
1110
0000
0010
0000
1101
0000
0100
0001
,
0110
0001
0010
1000
0010
0100
0011
0100
0001
0010
1000
0001
0110
0000
0000
1000
0000
0000
1110
0000
0000
0001
0000
0000
,
1101
0010
0111
1000
1011
0100
1110
0001
,
1110
0000
0100
0000
1001
0100
0010
0100
0011
0000
0100
0000
0011
0100
1000
0010
,
0101
0010
0100
0020
0000
0000
0000
0000
0000
0000
0000
0000
0000
0000
0000
0000
0000
0000
0000
0000
0000
0000
0000
0000
,
0000
0030
0111
1111
,
1100
0000
0000
0000
0000
0000
0001
0000
0000
0000
0000
0000
0110
0000
0000
0000
0000
0000
1000
0000
0000
0000
0000
0000
0101
0000
0010
0000
1000
0000
0001
0000
0000
0000
0000
0000
2211
0000
0000
0010
0000
0000
3302
0000
0000
0100
0000
0000
,
2010
0000
0000
0010
0000
0000
3100
0000
0000
0013
0000
0000
0211
0000
1000
0000
0001
0000
0310
0000
0000
0000
0000
0000
1111
0000
0000
0000
0000
0000
0010
0000
0000
0000
0000
0000
1101
0000
0000
0000
0000
0000
0001
0000
0000
0000
0000
0000
,
1011
0101
1110
0001
1101
0101
0111
0011
,
1101
1010
1110
0001
1011
0100
0111
0010
,
1101
0010
1011
0100
0111
0000
1111
0000
,
1111
0000
0000
0000
0000
0000
0000
0000
0000
0000
0000
0000
0000
0000
0000
0000
0000
0000
0000
0000
0000
0000
0000
0000
1010
0000
0000
0000
0000
0000
0000
0000
0000
0000
0000
0000
0000
0000
0000
0000
0000
0000
0000
0000
0000
0000
0000
0000
0111
0000
0000
0000
0000
0000
0000
0000
0000
0000
0000
0000
0000
0000
0000
0000
0000
0000
0000
0000
0000
0000
0000
0000
2000
0000
0000
0000
0000
0000
0000
0000
0000
0000
0000
0000
0000
0000
0000
0000
0000
0000
0000
0000
0000
0000
0000
0000
0000
0000
0000
0000
0000
0000
0000
0000
0000
0000
0000
0000
0000
0000
0000
0000
0000
0000
0000
0000
0000
0000
0000
0000
3002
0000
0000
0000
0000
0000
0000
0000
0000
0000
0000
0000
0000
0000
0000
0000
0000
0000
0000
0000
0000
0000
0000
0000
0000
0000
0000
0000
0000
0000
0000
0000
0000
0000
0000
0000
0000
0000
0000
0000
0000
0000
0003
0000
0000
0000
0000
0000
0101
0000
0000
0000
0000
0000
0000
0000
0010
0000
0000
0000
0000
0000
0000
0000
0100
0000
0000
0000
0000
0000
0000
0000
,
1010
0001
1111
0100
1101
0010
1011
0100
,
1110
0000
0000
0000
0000
0000
0001
0000
0000
0000
0000
0000
1100
0000
0000
0010
0000
0000
0001
0000
0000
0010
0000
0000
0101
0000
1000
0000
0010
0000
0001
0000
0010
0000
0100
0000
0002
0000
0000
0000
0000
0000
0000
0000
0000
0000
0000
0000
,
2003
3002
0000
0003
;
