#TITLE:TiK ToK;
#SUBTITLE:Sexuality Violation;
#ARTIST:Ke$ha;
#TITLETRANSLIT:;
#SUBTITLETRANSLIT:;
#ARTISTTRANSLIT:;
#CREDIT:;
#BANNER:TiK ToK-bn.png;
#BACKGROUND:TiK ToK-bg.png;
#LYRICSPATH:;
#CDTITLE:GazeboCD.png;
#MUSIC:TiK ToK.ogg;
#OFFSET:-0.592;
#SAMPLESTART:32.065;
#SAMPLELENGTH:16.018;
#SELECTABLE:YES;
#BPMS:0.000=240.000;
#STOPS:;
#BGCHANGES:;
// cache tags:
#FIRSTBEAT:61.000;
#LASTBEAT:791.500;
#SONGFILENAME:Songs/Sexuality Violation 2/TiK ToK - [Gazebo]/TiK ToK.sm;
#HASMUSIC:1;
#HASBANNER:1;
#MUSICLENGTH:201.926;
// end cache tags

//---------------dance-single - Gazebo----------------
#NOTES:
     dance-single:
     Gazebo:
     Challenge:
     17:
     1.000,1.000,0.342,0.401,1.000,1317.000,69.000,81.000,36.000,6.000:
0000
0000
0000
0000
,
0000
0000
0000
0000
,
0000
0000
0000
0000
,
0000
0000
0000
0000
,
0000
0000
0000
0000
,
0000
0000
0000
0000
,
0000
0000
0000
0000
,
0000
0000
0000
0000
,
0000
0000
0000
0000
,
0000
0000
0000
0000
,
0000
0000
0000
0000
,
0000
0000
0000
0000
,
0000
0000
0000
0000
,
0000
0000
0000
0000
,
0000
0000
0000
0000
,
0000
0001
0001
0001
,
1000
0100
1000
0000
0001
0000
1000
0000
,
1010
0000
0101
0000
,
0001
0010
0001
1000
,
1100
0000
0011
0000
,
0001
0000
1000
0010
0100
0000
0010
0000
,
1010
0000
0101
0000
,
1001
0000
0000
1000
0000
0000
0011
0000
,
0000
0001
1000
0000
1000
0000
1000
0000
,
0001
0100
0010
0100
,
0101
0000
1010
0000
,
1000
0001
1000
0000
0100
0000
0010
0000
,
0011
0000
1100
0000
,
1000
0001
0100
0001
0010
0100
1000
0000
,
0040
0000
0000
0000
,
0400
0000
0000
0000
,
0330
0000
0001
0000
,
1000
0010
1000
0010
0100
0001
1000
0100
0010
0001
1000
0001
0010
0100
1000
0001
,
1000
0000
0010
0010
,
0100
0001
0100
0001
1000
0010
0100
0001
1000
0001
1000
0100
0010
0001
1000
0001
,
1000
0000
0010
0000
1000
0100
0010
0000
,
0001
1000
0100
0010
0001
1000
0001
1000
0010
0100
0010
1000
0001
0100
0001
1000
,
0010
0000
0100
0100
,
0010
1000
0001
0100
0001
1000
0100
1000
0100
0010
0001
1000
0001
0100
0010
1000
,
0001
0000
0100
0000
0010
1000
0001
0000
,
1000
0100
1000
0100
0010
0001
1000
0100
1000
0001
0100
0001
1000
0010
0100
0001
,
1000
0000
0010
0010
,
1000
0001
1000
0100
0010
0001
1000
0001
0100
0010
0100
0001
1000
0010
0100
0001
,
1000
0000
0001
0000
1000
0010
0100
0000
,
0002
0003
0100
0002
0003
0100
0002
0003
,
0020
0000
0030
0000
22M2
00M0
33M3
0000
,
2000
3000
0100
2000
3000
0100
2000
3000
,
0020
0000
0130
0000
0001
4000
3100
0040
,
0031
1000
0001
1000
0100
0010
0001
1000
0001
1000
0100
0010
0001
0010
0001
1000
,
0010
1000
0001
0100
0010
1000
0010
1000
0001
0100
0010
0100
0001
1000
0001
1000
,
0100
0010
0001
1000
0001
0010
0100
1000
0001
0010
0001
0010
0100
1000
0001
1000
,
0010
0100
0001
1000
0001
1000
0010
0100
0001
1000
0100
0010
0001
0010
0100
1000
,
0001
1000
0001
1000
0010
0100
0001
1000
0001
1000
0010
0100
0001
0100
0001
1000
,
0100
1000
0001
0010
0100
1000
0100
1000
0001
0010
0100
0010
0001
1000
0001
1000
,
0010
0100
0001
1000
0001
0100
0010
1000
0001
0100
0001
0100
0010
1000
0001
1000
,
0100
0010
0001
1000
0001
1000
0100
0010
0001
1000
0010
0100
0001
0100
0010
1000
,
0001
1000
0001
0010
0100
0010
0001
1000
0001
1000
0100
0010
0001
0010
0001
1000
,
0010
1000
0001
0100
0010
1000
0010
1000
0001
0100
0010
0100
0001
1000
0001
1000
,
0100
0010
0001
1000
0001
0010
0100
1000
0001
0010
0001
0010
0100
1000
0001
1000
,
0010
0100
0001
1000
0001
1000
0010
1000
0001
0100
0001
0100
0001
0100
0001
0100
,
0002
0003
0100
0002
0003
0100
0002
0003
,
0020
0000
0030
0000
22M2
00M0
33M3
0000
,
2000
3000
0100
2000
3000
0100
2000
3000
,
0020
0130
0100
0100
,
0002
0003
1000
0001
,
0020
0030
0010
0100
,
0010
0001
1000
0020
,
0030
0100
0001
0001
,
1000
1000
0100
0100
,
0010
0010
0001
1000
,
0100
1000
0001
0200
,
0300
0010
1000
0010
,
0100
0100
0001
0001
,
0010
0000
0001
1000
,
0100
0010
0100
1000
,
0000
0001
0000
0000
0100
0000
0010
0000
,
1000
1000
0001
0010
,
0100
0010
0001
1000
,
0000
0000
0000
0000
,
0000
0000
0001
0000
1000
0010
0100
0000
,
0001
0000
1000
0001
0010
0000
0001
0000
,
0011
0000
1100
0000
,
1000
0000
0001
0100
0010
0000
1000
0000
,
1010
0000
0000
0000
0101
0000
0001
1000
,
0100
1000
0010
0100
0001
1000
0001
0000
,
0011
0000
1100
0000
,
1001
0000
0000
0001
0000
0000
1010
0000
,
1000
0001
0001
0001
,
1000
0100
1000
0001
0100
0000
0010
0000
,
1010
0000
0000
0000
0101
0000
0001
1000
,
0010
0100
0001
1000
,
1100
0000
0011
0000
,
0001
1000
0000
0000
0000
0000
0000
0000
,
0200
0300
0200
0300
,
1001
0000
0000
0000
,
MMMM
0000
1000
0000
,
0001
0010
0001
0010
0100
1000
0001
0100
0010
1000
0001
1000
0010
0100
0001
1000
,
0001
0000
0010
0010
,
0100
1000
0100
1000
0001
0010
0100
1000
0001
1000
0001
0100
0010
1000
0001
1000
,
0001
0000
0010
0000
0001
0100
0010
0000
,
1000
0001
0100
0010
1000
0001
1000
0001
0010
0100
0010
0001
1000
0100
1000
0001
,
0010
0000
0100
0100
,
0010
0001
1000
0100
1000
0001
0100
0001
0100
0010
1000
0001
1000
0100
0010
0001
,
1000
0000
0100
0000
0010
0001
1000
0000
,
0001
0100
0001
0100
0010
1000
0001
0100
0001
1000
0100
1000
0001
0010
0100
1000
,
0001
0000
0010
0010
,
0001
1000
0001
0100
0010
1000
0001
1000
0100
0010
0100
1000
0001
0010
0100
1000
,
0001
0000
1000
0000
0001
0010
0100
0000
,
2000
3000
0100
2000
3000
0100
2000
3000
,
0020
0000
0030
0000
22M2
00M0
33M3
0000
,
0002
0003
0100
0002
0003
0100
0002
0003
,
0020
0000
0130
0000
1000
0004
0103
0040
,
1030
0001
1000
0001
0100
0010
1000
0001
1000
0001
0100
0010
1000
0010
1000
0001
,
0010
0001
1000
0100
0010
0001
0010
0001
1000
0100
0010
0100
1000
0001
1000
0001
,
0100
0010
1000
0001
1000
0010
0100
0001
1000
0010
1000
0010
0100
0001
1000
0001
,
0010
0100
1000
0001
1000
0001
0010
0100
1000
0001
0100
0010
1000
0010
0100
0001
,
1000
0001
1000
0001
0010
0100
1000
0001
1000
0001
0010
0100
1000
0100
1000
0001
,
0100
0001
1000
0010
0100
0001
0100
0001
1000
0010
0100
0010
1000
0001
1000
0001
,
0010
0100
1000
0001
1000
0100
0010
0001
1000
0100
1000
0100
0010
0001
1000
0001
,
0100
0010
1000
0001
1000
0001
0100
0010
1000
0001
0010
0100
1000
0100
0010
0001
,
1000
0001
1000
0010
0100
0010
1000
0001
1000
0001
0100
0010
1000
0010
1000
0001
,
0010
0001
1000
0100
0010
0001
0010
0001
1000
0100
0010
0100
1000
0001
1000
0001
,
0100
0010
1000
0001
1000
0010
0100
0001
1000
0010
1000
0010
0100
0001
1000
0001
,
0010
0100
1000
0001
1000
0001
0010
0001
1000
0100
1000
0100
1000
0100
1000
0100
,
2000
3000
0100
2000
3000
0100
2000
3000
,
0020
0000
0030
0000
22M2
00M0
33M3
0000
,
0002
0003
0100
0002
0003
0100
0002
0003
,
0020
0000
0130
0000
1000
0000
0001
0100
,
0020
0000
0000
0000
,
0000
0000
0000
0000
,
2030
0000
0000
0000
,
0000
0000
0000
0000
,
3200
0000
0000
0000
,
0000
0000
0000
0000
,
0320
0000
0000
0000
,
0000
0000
0000
0000
,
0032
0000
0000
0000
,
0000
0000
0000
0000
,
2003
0000
0000
0000
,
0000
0000
0000
0000
,
3020
0000
0000
0000
,
0000
0000
0000
0000
,
0230
0000
0000
0000
,
0000
0000
0000
0300
,
0101
0000
1001
0000
,
1100
0000
0110
0000
,
0011
0000
1001
0000
,
1010
0000
0110
0000
,
0101
0000
1001
0000
,
1100
0000
0110
0000
,
0011
0000
1001
0000
,
1010
0000
0110
0000
,
0101
0000
0011
0000
,
0110
0000
1001
0000
,
1100
0000
1010
0000
,
0110
0000
1001
0000
,
0101
0000
0011
0000
,
0110
0000
1001
0000
,
1000
0001
0010
0100
,
1000
0010
0100
0001
,
1000
0010
1000
0000
,
0101
0000
0001
1000
,
0000
1000
0000
2000
,
0000
0000
3001
0000
,
1000
0001
1000
0001
0010
0100
1000
0001
1000
0001
0010
0100
1000
0100
1000
0001
,
0100
0001
1000
0010
0100
0001
0100
0001
1000
0010
0100
0010
1000
0001
1000
0001
,
0010
0100
1000
0001
1000
0100
0010
0001
1000
0100
1000
0100
0010
0001
1000
0001
,
0100
0010
1000
0001
1000
0001
0100
0010
1000
0001
0010
0100
1000
0100
0010
0001
,
1000
0001
1000
0001
0100
0010
1000
0001
1000
0001
0100
0010
1000
0010
1000
0001
,
0010
0001
1000
0100
0010
0001
0010
0001
1000
0100
0010
0100
1000
0001
1000
0001
,
0100
0010
1000
0001
1000
0010
0100
0001
1000
0010
1000
0010
0100
0001
1000
0001
,
0010
0100
1000
0001
1000
0001
0010
0100
1000
0001
0100
0010
1000
0010
0100
0001
,
1000
0001
1000
0100
0010
0100
1000
0001
1000
0001
0010
0100
1000
0100
1000
0001
,
0100
0001
1000
0010
0100
0001
0100
0001
1000
0010
0100
0010
1000
0001
1000
0001
,
0010
0100
1000
0001
1000
0100
0010
0001
1000
0100
1000
0100
0010
0001
1000
0001
,
0100
0010
1000
0001
1000
0001
0100
0010
1000
0001
1000
0001
1000
0001
1000
0001
,
2000
3000
0010
2000
3000
0010
2000
3000
,
0200
0000
0300
0000
2M22
0M00
3M33
0000
,
0002
0003
0010
0002
0003
0010
0002
0003
,
0200
0000
0300
0000
0001
4000
3010
0400
,
0301
1000
0001
1000
0010
0100
0001
1000
0001
1000
0010
0100
0001
0100
0001
1000
,
0100
1000
0001
0010
0100
1000
0100
1000
0001
0010
0100
0010
0001
1000
0001
1000
,
0010
0100
0001
1000
0001
0100
0010
1000
0001
0100
0001
0100
0010
1000
0001
1000
,
0100
0010
0001
1000
0001
1000
0100
0010
0001
1000
0010
0100
0001
0100
0010
1000
,
0001
1000
0001
1000
0100
0010
0001
1000
0001
1000
0100
0010
0001
0010
0001
1000
,
0010
1000
0001
0100
0010
1000
0010
1000
0001
0100
0010
0100
0001
1000
0001
1000
,
0100
0010
0001
1000
0001
0010
0100
1000
0001
0010
0001
0010
0100
1000
0001
1000
,
0010
0100
0001
1000
0001
1000
0010
0100
0001
1000
0100
0010
0001
0010
0100
1000
,
0001
1000
0001
0100
0010
0100
0001
1000
0001
1000
0010
0100
0001
0100
0001
1000
,
0100
1000
0001
0010
0100
1000
0100
1000
0001
0010
0100
0010
0001
1000
0001
1000
,
0010
0100
0001
1000
0001
0100
0010
1000
0001
0100
0001
0100
0010
1000
0001
1000
,
0100
0010
0001
1000
0001
1000
0100
0010
0001
1000
0001
1000
0001
1000
0001
1000
,
0002
0003
0010
0002
0003
0010
0002
0003
,
0200
0000
0300
0000
2M22
0M00
3M33
0000
,
2000
3000
0010
2000
3000
0010
2000
3000
,
0200
0000
0310
0000
0001
4000
3010
0400
,
M3M1
0000
0000
0000
0000
0000
M000
0000
00M0
0000
0M00
0000
,
000M
0000
0000
0000
00M0
0000
0000
0000
0M00
0000
0000
0000
000M
0000
0000
0000
M000
0000
0000
0000
0000
MMMM
0000
0000
;

//---------------dance-single - Gazebo----------------
#NOTES:
     dance-single:
     Gazebo:
     Hard:
     13:
     0.865,1.000,0.342,0.371,1.000,1077.000,69.000,75.000,54.000,0.000:
0000
0000
0000
0000
,
0000
0000
0000
0000
,
0000
0000
0000
0000
,
0000
0000
0000
0000
,
0000
0000
0000
0000
,
0000
0000
0000
0000
,
0000
0000
0000
0000
,
0000
0000
0000
0000
,
0000
0000
0000
0000
,
0000
0000
0000
0000
,
0000
0000
0000
0000
,
0000
0000
0000
0000
,
0000
0000
0000
0000
,
0000
0000
0000
0000
,
0000
0000
0000
0000
,
0000
0001
0001
0001
,
1000
0100
1000
0000
0001
0000
1000
0000
,
1010
0000
0101
0000
,
0001
0010
0001
1000
,
1100
0000
0011
0000
,
0001
0000
1000
0010
0100
0000
0010
0000
,
1010
0000
0101
0000
,
1001
0000
0000
1000
0000
0000
0011
0000
,
0000
0001
1000
0000
1000
0000
1000
0000
,
0001
0100
0010
0100
,
0101
0000
1010
0000
,
1000
0001
1000
0000
0100
0000
0010
0000
,
0011
0000
1100
0000
,
1000
0001
0100
0001
0010
0100
1000
0000
,
0040
0000
0000
0000
,
0400
0000
0000
0000
,
0330
0000
0001
0000
,
1000
0010
1000
0010
0100
0001
1000
0100
1000
0001
0010
0001
,
1000
0000
0010
0010
,
0100
0001
0100
0001
1000
0001
0010
0100
0010
0001
1000
0001
,
1000
0000
0010
0000
1000
0100
0010
0000
,
0001
1000
0100
1000
0100
0010
0001
0100
0001
1000
0010
1000
,
0001
0000
0100
0100
,
0010
1000
0010
1000
0001
0100
0001
1000
0100
0010
0001
1000
,
0001
0000
0100
0000
0010
1000
0001
0000
,
1000
0100
1000
0100
0010
0001
1000
0010
1000
0001
0100
0001
,
1000
0000
0010
0010
,
1000
0001
0100
0001
0100
0010
1000
0001
0010
0001
1000
0001
,
1000
0000
0001
0000
1000
0010
0100
0000
,
0002
0003
0100
0002
0003
0100
0002
0003
,
0020
0000
0030
0000
2MM2
0MM0
3MM3
0000
,
2000
3000
0100
2000
3000
0100
2000
3000
,
0020
0000
0130
0000
0001
4000
3100
0040
,
0031
1000
0100
1000
0100
0010
0001
1000
0010
1000
0001
0100
,
0001
1000
0100
1000
0100
0010
0001
1000
0010
1000
0001
0100
,
0001
1000
0100
1000
0001
1000
0010
1000
0001
0100
0001
1000
,
0001
0010
0100
0010
0001
0100
0010
1000
0100
0010
0001
1000
,
0001
1000
0010
1000
0010
0100
0001
1000
0100
1000
0001
0010
,
0001
1000
0010
1000
0010
0100
0001
1000
0100
1000
0001
0010
,
0001
1000
0010
1000
0001
1000
0100
1000
0001
0010
0001
1000
,
0001
0100
0010
0100
0001
0010
0100
1000
0010
0100
0001
1000
,
0001
1000
0100
1000
0100
0010
0001
1000
0010
1000
0001
0100
,
0001
1000
0100
1000
0100
0010
0001
1000
0010
1000
0001
0100
,
0001
1000
0100
1000
0001
1000
0010
1000
0001
0100
0001
1000
,
0001
0010
0100
1000
0001
1000
0001
0100
0001
0100
0001
0100
,
0002
0003
0100
0002
0003
0100
0002
0003
,
0020
0000
0030
0000
2MM2
0MM0
3MM3
0000
,
2000
3000
0100
2000
3000
0100
2000
3000
,
0020
0130
0100
0100
,
0002
0003
1000
0001
,
0020
0030
0010
0100
,
0010
0001
1000
0020
,
0030
0100
0001
0001
,
1000
1000
0100
0100
,
0010
0010
0001
1000
,
0100
1000
0001
0200
,
0300
0010
1000
0010
,
0100
0100
0001
0001
,
0010
0000
0001
1000
,
0100
0010
0100
1000
,
0000
0001
0000
0000
0100
0000
0010
0000
,
1000
1000
0001
0010
,
0100
0010
0001
1000
,
0000
0000
0000
0000
,
0000
0000
0001
0000
1000
0010
0100
0000
,
0001
0000
1000
0001
0010
0000
0001
0000
,
0011
0000
1100
0000
,
1000
0000
0001
0100
0010
0000
1000
0000
,
1010
0000
0000
0000
0101
0000
0001
1000
,
0100
1000
0010
0100
0001
1000
0001
0000
,
0011
0000
1100
0000
,
1001
0000
0000
0001
0000
0000
1010
0000
,
1000
0001
0001
0001
,
1000
0100
1000
0001
0100
0000
0010
0000
,
1010
0000
0000
0000
0101
0000
0001
1000
,
0010
0100
0001
1000
,
1100
0000
0011
0000
,
0001
1000
0000
0000
0000
0000
0000
0000
,
0200
0300
0200
0300
,
1001
0000
0000
0000
,
MMMM
0000
1000
0000
,
0001
0010
0001
0010
0100
1000
0001
0100
0001
1000
0010
1000
,
0001
0000
0010
0010
,
0100
1000
0100
1000
0001
1000
0010
0100
0010
1000
0001
1000
,
0001
0000
0010
0000
0001
0100
0010
0000
,
1000
0001
0100
0001
0100
0010
1000
0100
1000
0001
0010
0001
,
1000
0000
0100
0100
,
0010
0001
0010
0001
1000
0100
1000
0001
0100
0010
1000
0001
,
1000
0000
0100
0000
0010
0001
1000
0000
,
0001
0100
0001
0100
0010
1000
0001
0010
0001
1000
0100
1000
,
0001
0000
0010
0010
,
0001
1000
0100
1000
0100
0010
0001
1000
0010
1000
0001
1000
,
0001
0000
1000
0000
1000
0010
0100
0000
,
2000
3000
0100
2000
3000
0100
2000
3000
,
0020
0000
0030
0000
2MM2
0MM0
3MM3
0000
,
0002
0003
0100
0002
0003
0100
0002
0003
,
0020
0000
0130
0000
1000
0004
0103
0040
,
1030
0001
0100
0001
0100
0010
1000
0001
0010
0001
1000
0100
,
1000
0001
0100
0001
0100
0010
1000
0001
0010
0001
1000
0100
,
1000
0001
0100
0001
1000
0001
0010
0001
1000
0100
1000
0001
,
1000
0010
0100
0010
1000
0100
0010
0001
0100
0010
1000
0001
,
1000
0001
0010
0001
0010
0100
1000
0001
0100
0001
1000
0010
,
1000
0001
0010
0001
0010
0100
1000
0001
0100
0001
1000
0010
,
1000
0001
0010
0001
1000
0001
0100
0001
1000
0010
1000
0001
,
1000
0100
0010
0100
1000
0010
0100
0001
0010
0100
1000
0001
,
1000
0001
0100
0001
0100
0010
1000
0001
0010
0001
1000
0100
,
1000
0001
0100
0001
0100
0010
1000
0001
0010
0001
1000
0100
,
1000
0001
0100
0001
1000
0001
0010
0001
1000
0100
1000
0001
,
1000
0010
0100
0001
1000
0001
1000
0100
1000
0100
1000
0100
,
2000
3000
0100
2000
3000
0100
2000
3000
,
0020
0000
0030
0000
2MM2
0MM0
3MM3
0000
,
0002
0003
0100
0002
0003
0100
0002
0003
,
0020
0000
0130
0000
1000
0000
0001
0100
,
0020
0000
0000
0000
,
0000
0000
0000
0000
,
2030
0000
0000
0000
,
0000
0000
0000
0000
,
3200
0000
0000
0000
,
0000
0000
0000
0000
,
0320
0000
0000
0000
,
0000
0000
0000
0000
,
0032
0000
0000
0000
,
0000
0000
0000
0000
,
2003
0000
0000
0000
,
0000
0000
0000
0000
,
3020
0000
0000
0000
,
0000
0000
0000
0000
,
0230
0000
0000
0000
,
0000
0000
0000
0300
,
0101
0000
1001
0000
,
1100
0000
0110
0000
,
0011
0000
1001
0000
,
1010
0000
0110
0000
,
0101
0000
1001
0000
,
1100
0000
0110
0000
,
0011
0000
1001
0000
,
1010
0000
0110
0000
,
0101
0000
0011
0000
,
0110
0000
1001
0000
,
1100
0000
1010
0000
,
0110
0000
1001
0000
,
0101
0000
0011
0000
,
0110
0000
1001
0000
,
1000
0001
0010
0100
,
1000
0010
0100
0001
,
1000
0010
1000
0000
,
0101
0000
0001
1000
,
0000
1000
0000
2000
,
0000
0000
3001
0000
,
1000
0001
0010
0001
0010
0100
1000
0001
0100
0001
1000
0010
,
1000
0001
0010
0001
0010
0100
1000
0001
0100
0001
1000
0010
,
1000
0001
0010
0001
1000
0001
0100
0001
1000
0010
1000
0001
,
1000
0100
0010
0100
1000
0010
0100
0001
0010
0100
1000
0001
,
1000
0001
0100
0001
0100
0010
1000
0001
0010
0001
1000
0100
,
1000
0001
0100
0001
0100
0010
1000
0001
0010
0001
1000
0100
,
1000
0001
0100
0001
1000
0001
0010
0001
1000
0100
1000
0001
,
1000
0010
0100
0010
1000
0100
0010
0001
0100
0010
1000
0001
,
1000
0001
0010
0001
0010
0100
1000
0001
0100
0001
1000
0010
,
1000
0001
0010
0001
0010
0100
1000
0001
0100
0001
1000
0010
,
1000
0001
0010
0001
1000
0001
0100
0001
1000
0010
1000
0001
,
1000
0100
0010
0001
1000
0001
1000
0010
1000
0010
1000
0010
,
2000
3000
0010
2000
3000
0010
2000
3000
,
0200
0000
0300
0000
2MM2
0MM0
3MM3
0000
,
0002
0003
0010
0002
0003
0010
0002
0003
,
0200
0000
0300
0000
0001
4000
3010
0400
,
0301
1000
0010
1000
0010
0100
0001
1000
0100
1000
0001
0010
,
0001
1000
0010
1000
0010
0100
0001
1000
0100
1000
0001
0010
,
0001
1000
0010
1000
0001
1000
0100
1000
0001
0010
0001
1000
,
0001
0100
0010
0100
0001
0010
0100
1000
0010
0100
0001
1000
,
0001
1000
0100
1000
0100
0010
0001
1000
0010
1000
0001
0100
,
0001
1000
0100
1000
0100
0010
0001
1000
0010
1000
0001
0100
,
0001
1000
0100
1000
0001
1000
0010
1000
0001
0100
0001
1000
,
0001
0010
0100
0010
0001
0100
0010
1000
0100
0010
0001
1000
,
0001
1000
0010
1000
0010
0100
0001
1000
0100
1000
0001
0010
,
0001
1000
0010
1000
0010
0100
0001
1000
0100
1000
0001
0010
,
0001
1000
0010
1000
0001
1000
0100
1000
0001
0010
0001
1000
,
0001
0100
0010
1000
0001
1000
0001
0010
0001
0010
0001
0010
,
0002
0003
0010
0002
0003
0010
0002
0003
,
0200
0000
0300
0000
2MM2
0MM0
3MM3
0000
,
2000
3000
0010
2000
3000
0010
2000
3000
,
0200
0000
0310
0000
0001
4000
3010
0400
,
M3M1
0000
0000
0000
0000
0000
M000
0000
00M0
0000
0M00
0000
,
000M
0000
0000
0000
00M0
0000
0000
0000
0M00
0000
0000
0000
000M
0000
0000
0000
M000
0000
0000
0000
0000
MMMM
0000
0000
;

//---------------dance-single - Gazebo----------------
#NOTES:
     dance-single:
     Gazebo:
     Medium:
     11:
     0.695,0.882,0.342,0.371,0.012,837.000,69.000,75.000,54.000,0.000:

0000
0000
0000
0000
,
0000
0000
0000
0000
,
0000
0000
0000
0000
,
0000
0000
0000
0000
,
0000
0000
0000
0000
,
0000
0000
0000
0000
,
0000
0000
0000
0000
,
0000
0000
0000
0000
,
0000
0000
0000
0000
,
0000
0000
0000
0000
,
0000
0000
0000
0000
,
0000
0000
0000
0000
,
0000
0000
0000
0000
,
0000
0000
0000
0000
,
0000
0000
0000
0000
,
0000
0001
0001
0001
,
1000
0100
1000
0000
0001
0000
1000
0000
,
1010
0000
0101
0000
,
0001
0010
0001
1000
,
1100
0000
0011
0000
,
0001
0000
1000
0010
0100
0000
0010
0000
,
1010
0000
0101
0000
,
1001
0000
0000
1000
0000
0000
0011
0000
,
0000
0001
1000
0000
1000
0000
1000
0000
,
0001
0100
0010
0100
,
0101
0000
1010
0000
,
1000
0001
1000
0000
0100
0000
0010
0000
,
0011
0000
1100
0000
,
1000
0001
0100
0001
0010
0100
1000
0000
,
0040
0000
0000
0000
,
0400
0000
0000
0000
,
0330
0000
0001
0000
,
1000
0010
1000
0001
0010
0100
1000
0001
,
1000
0000
0010
0010
,
0100
0001
1000
0001
1000
0100
0010
0001
,
1000
0000
0010
0000
1000
0100
0010
0000
,
0001
0010
0001
1000
0001
0100
0010
1000
,
0001
0000
0100
0100
,
0010
1000
0001
1000
0100
0010
0001
1000
,
0001
0000
0100
0000
0010
1000
0001
0000
,
1000
0100
1000
0001
0010
0001
0100
0001
,
1000
0000
0010
0010
,
0100
0001
1000
0100
0010
0001
0010
0001
,
1000
0000
0001
0000
1000
0010
0100
0000
,
0002
0003
0100
0002
0003
0100
0002
0003
,
0020
0000
0030
0000
2MM2
0MM0
3MM3
0000
,
2000
3000
0100
2000
3000
0100
2000
3000
,
0020
0000
0130
0000
0001
4000
3100
0040
,
0031
1000
0100
0010
0001
0100
0001
1000
,
0001
1000
0100
0010
0001
0100
0001
1000
,
0010
0100
0010
0100
0001
0100
0001
1000
,
0001
0010
0100
1000
0001
0100
0010
1000
,
0001
1000
0100
0010
0001
0100
0001
1000
,
0001
1000
0100
0010
0001
0100
0001
1000
,
0010
0100
0010
0100
0001
0010
0100
1000
,
0001
0100
0001
1000
0100
0010
0100
1000
,
0001
1000
0010
0100
0001
0010
0001
1000
,
0001
1000
0010
0100
0001
0010
0001
1000
,
0100
0010
0100
0010
0001
0010
0001
1000
,
0100
1000
0010
1000
0001
0100
0001
0100
,
0002
0003
0100
0002
0003
0100
0002
0003
,
0020
0000
0030
0000
2MM2
0MM0
3MM3
0000
,
2000
3000
0100
2000
3000
0100
2000
3000
,
0020
0130
0100
0100
,
0002
0003
1000
0001
,
0020
0030
0010
0100
,
0010
0001
1000
0020
,
0030
0100
0001
0001
,
1000
1000
0100
0100
,
0010
0010
0001
1000
,
0100
1000
0001
0200
,
0300
0010
1000
0010
,
0100
0100
0001
0001
,
0010
0000
0001
1000
,
0100
0010
0100
1000
,
0000
0001
0000
0000
0100
0000
0010
0000
,
1000
1000
0001
0010
,
0100
0010
0001
1000
,
0000
0000
0000
0000
,
0000
0000
0001
0000
1000
0010
0100
0000
,
0001
0000
1000
0001
0010
0000
0001
0000
,
0011
0000
1100
0000
,
1000
0000
0001
0100
0010
0000
1000
0000
,
1010
0000
0000
0000
0101
0000
0001
1000
,
0100
1000
0010
0100
0001
1000
0001
0000
,
0011
0000
1100
0000
,
1001
0000
0000
0001
0000
0000
1010
0000
,
1000
0001
0001
0001
,
1000
0100
1000
0001
0100
0000
0010
0000
,
1010
0000
0000
0000
0101
0000
0001
1000
,
0010
0100
0001
1000
,
1100
0000
0011
0000
,
0001
1000
0000
0000
0000
0000
0000
0000
,
0200
0300
0200
0300
,
1001
0000
0000
0000
,
MMMM
0000
1000
0000
,
0001
0010
0001
1000
0010
0100
0001
1000
,
0001
0000
0010
0010
,
0100
1000
0001
1000
0001
0100
0010
1000
,
0001
0000
0010
0000
0001
0100
0010
0000
,
1000
0010
1000
0001
1000
0100
0010
0001
,
1000
0000
0100
0100
,
0010
0001
1000
0001
0100
0010
1000
0001
,
1000
0000
0100
0000
0010
0001
1000
0000
,
0001
0100
0001
1000
0010
1000
0100
1000
,
0001
0000
0010
0010
,
0100
1000
0001
0100
0010
1000
0010
1000
,
0001
0000
1000
0000
0001
0010
0100
0000
,
2000
3000
0100
2000
3000
0100
2000
3000
,
0020
0000
0030
0000
2MM2
0MM0
3MM3
0000
,
0002
0003
0100
0002
0003
0100
0002
0003
,
0020
0000
0130
0000
1000
0004
0103
0040
,
1030
0001
0100
0010
1000
0100
1000
0001
,
1000
0001
0100
0010
1000
0100
1000
0001
,
0010
0100
0010
0100
1000
0100
1000
0001
,
1000
0010
0100
0001
1000
0100
0010
0001
,
1000
0001
0100
0010
1000
0100
1000
0001
,
1000
0001
0100
0010
1000
0100
1000
0001
,
0010
0100
0010
0100
1000
0010
0100
0001
,
1000
0100
1000
0001
0100
0010
0100
0001
,
1000
0001
0010
0100
1000
0010
1000
0001
,
1000
0001
0010
0100
1000
0010
1000
0001
,
0100
0010
0100
0010
1000
0010
1000
0001
,
0100
0001
0010
0001
1000
0100
1000
0100
,
2000
3000
0100
2000
3000
0100
2000
3000
,
0020
0000
0030
0000
2MM2
0MM0
3MM3
0000
,
0002
0003
0100
0002
0003
0100
0002
0003
,
0020
0000
0130
0000
1000
0000
0001
0100
,
0020
0000
0000
0000
,
0000
0000
0000
0000
,
2030
0000
0000
0000
,
0000
0000
0000
0000
,
3200
0000
0000
0000
,
0000
0000
0000
0000
,
0320
0000
0000
0000
,
0000
0000
0000
0000
,
0032
0000
0000
0000
,
0000
0000
0000
0000
,
2003
0000
0000
0000
,
0000
0000
0000
0000
,
3020
0000
0000
0000
,
0000
0000
0000
0000
,
0230
0000
0000
0000
,
0000
0000
0000
0300
,
0101
0000
1001
0000
,
1100
0000
0110
0000
,
0011
0000
1001
0000
,
1010
0000
0110
0000
,
0101
0000
1001
0000
,
1100
0000
0110
0000
,
0011
0000
1001
0000
,
1010
0000
0110
0000
,
0101
0000
0011
0000
,
0110
0000
1001
0000
,
1100
0000
1010
0000
,
0110
0000
1001
0000
,
0101
0000
0011
0000
,
0110
0000
1001
0000
,
1000
0001
0010
0100
,
1000
0010
0100
0001
,
1000
0010
1000
0000
,
0101
0000
0001
1000
,
0000
1000
0000
2000
,
0000
0000
3001
0000
,
1000
0001
0010
0100
1000
0010
1000
0001
,
1000
0001
0010
0100
1000
0010
1000
0001
,
0100
0010
0100
0010
1000
0010
1000
0001
,
1000
0100
0010
0001
1000
0010
0100
0001
,
1000
0001
0010
0100
1000
0010
1000
0001
,
1000
0001
0010
0100
1000
0010
1000
0001
,
0100
0010
0100
0010
1000
0100
0010
0001
,
1000
0010
1000
0001
0010
0100
0010
0001
,
1000
0001
0100
0010
1000
0100
1000
0001
,
1000
0001
0100
0010
1000
0100
1000
0001
,
0010
0100
0010
0100
1000
0100
1000
0001
,
0010
0001
0100
0001
1000
0010
1000
0010
,
2000
3000
0010
2000
3000
0010
2000
3000
,
0200
0000
0300
0000
2MM2
0MM0
3MM3
0000
,
0002
0003
0010
0002
0003
0010
0002
0003
,
0200
0000
0300
0000
0001
4000
3010
0400
,
0301
1000
0010
0100
0001
0010
0001
1000
,
0001
1000
0010
0100
0001
0010
0001
1000
,
0100
0010
0100
0010
0001
0010
0001
1000
,
0001
0100
0010
1000
0001
0010
0100
1000
,
0001
1000
0010
0100
0001
0010
0001
1000
,
0001
1000
0010
0100
0001
0010
0001
1000
,
0100
0010
0100
0010
0001
0100
0010
1000
,
0001
0010
0001
1000
0010
0100
0010
1000
,
0001
1000
0100
0010
0001
0100
0001
1000
,
0001
1000
0100
0010
0001
0100
0001
1000
,
0010
0100
0010
0100
0001
0100
0001
1000
,
0010
1000
0100
1000
0001
0010
0001
0010
,
0002
0003
0010
0002
0003
0010
0002
0003
,
0200
0000
0300
0000
2MM2
0MM0
3MM3
0000
,
2000
3000
0010
2000
3000
0010
2000
3000
,
0200
0000
0310
0000
0001
4000
3010
0400
,
M3M1
0000
0000
0000
0000
0000
M000
0000
00M0
0000
0M00
0000
,
000M
0000
0000
0000
00M0
0000
0000
0000
0M00
0000
0000
0000
000M
0000
0000
0000
M000
0000
0000
0000
0000
MMMM
0000
0000
;
