#TITLE:Ray of Illuminati;
#SUBTITLE:;
#ARTIST:[esti];
#TITLETRANSLIT:;
#SUBTITLETRANSLIT:;
#ARTISTTRANSLIT:;
#CREDIT:;
#BANNER:ray of illuminati.png;
#BACKGROUND:ray of illuminati-bg.png;
#LYRICSPATH:;
#CDTITLE:;
#MUSIC:Ray_of_Illuminati.mp3;
#OFFSET:-2.105;
#SAMPLESTART:42.200;
#SAMPLELENGTH:14.000;
#SELECTABLE:YES;
#BPMS:0.000=150.000;
#STOPS:;
#BGCHANGES:;
// cache tags:
#FIRSTBEAT:0.000;
#LASTBEAT:312.125;
#SONGFILENAME:Songs/Ace Megapack/Ray_of_Illuminati/ray of illuminati.sm;
#HASMUSIC:1;
#HASBANNER:1;
#MUSICLENGTH:130.298;
// end cache tags

//---------------dance-single - ----------------
#NOTES:
     dance-single:
     :
     Challenge:
     12:
     0.934,1.000,1.000,0.200,0.963,680.000,146.000,26.000,0.000,0.000:  // measure 1
0020
0000
2030
0000
,  // measure 2
3002
0000
0203
0000
,  // measure 3
0000
0000
0000
0000
,  // measure 4
1300
0000
0010
0010
0001
0000
0010
0000
,  // measure 5
1000
0000
0100
0010
0001
0000
1000
0000
0100
0000
0000
0000
0010
0000
0000
0000
,  // measure 6
1000
0000
0001
0001
0010
0000
1000
0000
,  // measure 7
0100
0000
0000
0000
0101
0000
0000
0000
0110
0000
0000
0000
1010
1000
0010
1000
,  // measure 8
0110
0000
1000
0000
0001
1000
0000
0110
,  // measure 9
0000
1000
0000
0010
0000
0100
1000
0100
,  // measure 10
1000
0000
0000
0100
0000
0000
0010
0000
0000
0001
0000
0000
0010
0000
0000
0000
0000
0000
0010
0000
0000
0100
0000
0000
0010
0000
0000
0100
0000
0000
1000
0000
0000
0001
0000
0000
0010
0000
0000
0100
0000
0000
1000
0000
0100
0000
0010
0000
,  // measure 11
0000
0010
0000
0010
0100
0000
0000
0000
,  // measure 12
0010
0000
0000
0000
0001
0000
0000
0000
0010
1000
0100
0000
0000
0000
0110
0000
,  // measure 13
0000
1100
0000
0011
0000
0000
1000
0010
,  // measure 14
0001
0000
0000
0000
0000
0000
0100
0000
0000
0000
0000
0000
1000
0000
0000
0100
0000
0000
0000
0000
0000
0001
0000
0000
0000
0000
0000
0000
0000
0000
1000
0000
0000
0000
0010
0000
0100
0000
0000
0000
0000
0000
0010
0000
0000
0000
0000
0000
,  // measure 15
0100
0000
0010
0000
0100
0000
0010
0000
0000
1001
0000
0000
0100
0000
0000
1000
0000
0000
0010
0000
0000
1100
0000
0000
0001
0000
0000
1010
0000
0000
0100
0000
0000
1000
0000
0000
0010
0000
0000
1000
0000
0000
0000
0000
0000
0000
0000
0000
,  // measure 16
1010
0100
0001
0000
1010
0000
0100
0011
0000
1000
0110
0000
0001
0100
0010
1000
,  // measure 17
0011
0100
1000
0000
1001
0100
0000
0101
0000
0010
0101
0000
1000
0100
1001
0010
,  // measure 18
1100
0010
1000
0001
0100
0000
0010
1100
0000
0010
0101
0000
1000
0010
0100
0000
,  // measure 19
1001
0010
1000
0000
0001
0010
0000
0001
1000
0100
0001
1000
0100
0010
0101
1000
,  // measure 20
0110
0001
0010
0000
1100
0000
0000
0101
0010
1000
0100
0000
0010
0001
0100
0010
,  // measure 21
0001
0010
0000
0010
1001
0000
1000
0101
0000
0010
0101
1000
0010
0100
0001
0000
,  // measure 22
1001
0000
0000
0000
0101
0000
1000
0010
0001
0000
0010
0000
0001
0000
0010
0000
,  // measure 23
1100
0010
1000
0000
1001
0010
1000
0000
1010
0001
1000
0001
1100
0001
1000
0001
,  // measure 24
1001
0100
0000
0100
0011
0000
0100
1000
0001
1000
0100
0000
0011
1000
0000
0000
,  // measure 25
0011
0100
0010
0001
0010
0100
1000
0100
0010
0001
0010
0001
1000
0100
0001
0000
,  // measure 26
0001
0100
0010
0000
0011
0100
0000
0100
0011
0000
0001
1000
0001
1000
0010
0000
,  // measure 27
1001
0100
1000
0100
0010
0001
0010
0001
0100
0010
1000
0100
1000
0001
0010
0000
,  // measure 28
0001
0010
0100
0000
0101
1000
0000
1000
0011
0000
0001
0100
0001
0100
1000
0000
,  // measure 29
1001
0100
0010
0100
1000
0100
0010
0001
0010
0100
1000
0100
0010
0001
0010
0000
,  // measure 30
0001
0100
0010
0000
0011
1000
0000
1000
0101
0000
0100
0010
0001
0010
0000
0000
,  // measure 31
1000
0100
1000
0010
0002
0023
0230
0320
,  // measure 32
2030
0000
0000
3000
,  // measure 33
1000
0100
0010
0000
1000
0100
0010
0000
0100
0001
0000
0000
1000
0010
0100
0001
,  // measure 34
0200
0000
0000
0000
0000
0000
1300
0100
,  // measure 35
0020
0000
0000
0000
0000
0000
0000
0000
0000
0000
0030
0000
1000
0100
0010
0100
,  // measure 36
1001
0100
0000
0010
0101
0000
0001
0010
0001
1000
0001
0010
0101
1000
0010
0000
,  // measure 37
1001
0100
0010
0000
0101
1000
0000
1000
0101
0000
1000
0100
1001
0100
1000
0000
,  // measure 38
1000
0000
0000
0000
0001
0000
0000
0010
0100
1000
0100
0010
0001
0010
0001
0000
,  // measure 39
1001
0000
0000
1100
0000
0000
1010
0000
0000
1001
0000
0000
1100
0000
1010
0000
,  // measure 40
0001
0000
0010
0000
0100
0000
0001
0000
0000
0010
0000
0000
0001
0000
0000
0100
0000
0000
0001
0000
0000
1000
0000
0000
0001
0000
0000
0100
0000
0000
0001
0000
0000
0010
0000
0000
0001
0000
0000
0010
0000
0000
0001
0000
0000
0010
0000
0000
,  // measure 41
0101
0000
1100
0000
0110
0110
0000
0011
,  // measure 42
0000
0000
1100
0000
0000
0000
0220
0000
0330
0000
0000
0000
0100
0010
0100
0000
,  // measure 43
1000
0100
0010
0001
0000
0000
0001
0010
0100
1000
0000
0000
1000
0100
0010
0001
,  // measure 44
0000
0000
0000
0000
0000
0000
1000
0000
0000
0100
0000
0000
0010
0000
0000
0001
0000
0000
0010
0000
0000
0100
0000
0000
0010
0000
0000
0100
0000
0000
0000
0000
0000
0001
0000
0000
0010
0000
0000
0001
0000
0000
0000
0000
0000
0000
0001
0000
,  // measure 45
0010
0100
1000
0000
0000
0000
1100
0000
0000
0000
0000
0000
0110
0000
0000
0011
0000
0000
0000
0000
0000
0110
0000
0000
,  // measure 46
0000
0000
0000
0000
0100
0000
1000
0000
0000
0100
0000
0000
0000
0000
0000
0010
0000
0000
0002
0000
0000
0000
0000
0000
0000
0000
0000
0000
0000
0000
0003
0000
0000
0000
0000
0000
0000
0000
0000
0000
0000
0000
0010
0000
0000
0100
0000
0000
,  // measure 47
1000
0000
0100
0000
0010
0000
0001
0100
0000
0100
1000
0100
0010
0000
1000
0000
,  // measure 48
0100
0010
0100
1000
0100
0010
0001
0010
0100
1000
0100
0010
0100
0010
0100
0010
,  // measure 49
1100
0110
0011
0110
,  // measure 50
1010
0000
0011
1100
0220
0000
0330
1100
,  // measure 51
0011
0000
0011
0110
1010
0000
1100
0000
,  // measure 52
0022
0000
0033
0110
2002
0000
0000
3003
,  // measure 53
0011
0110
1100
0110
,  // measure 54
0011
0000
0110
1100
0022
0000
0033
0110
,  // measure 55
0001
0000
0010
0000
0000
0000
0000
0000
0000
1100
0000
0000
0000
0000
0000
0000
0000
0000
0110
0000
0000
0000
0000
0000
0011
0000
0000
0000
0000
0000
0000
0000
0000
0000
0000
0000
0110
0000
0000
0000
0000
0000
0000
0000
0000
1100
0000
0000
,  // measure 56
1000
0000
0100
0000
0010
0000
0001
0000
0010
0100
0010
0100
0010
0100
0010
0000
,  // measure 57
1010
0001
0010
0100
1010
0001
0010
0100
1010
0001
0010
0100
1010
0001
0010
0100
,  // measure 58
1010
0100
1000
0100
0011
0100
1001
0100
0011
0100
1000
0100
0010
0100
1001
0100
,  // measure 59
0011
1000
0010
0001
0110
1000
0110
0001
0110
1000
0010
0001
0110
1000
0010
0001
,  // measure 60
1010
0100
0010
0001
0010
0100
1010
0001
1010
0100
0010
0001
0010
0000
0100
0000
,  // measure 61
1010
0100
0001
0000
1010
0000
0001
0000
1000
0100
0010
0000
1001
0000
0010
0000
,  // measure 62
0010
0001
1000
0000
0110
0000
1000
0000
0010
1000
0100
0000
1010
0000
0001
0000
,  // measure 63
0100
1000
0010
0000
0100
0000
0010
0000
0100
0001
1000
0000
0101
0000
1000
0000
,  // measure 64
1100
0010
1000
0010
1001
0010
1000
0010
1100
0010
1000
0010
1001
0010
1000
0010
,  // measure 65
1001
0100
0010
0001
0010
0000
0000
0000
1000
0100
0010
0001
0010
0000
0000
0000
,  // measure 66
1000
0100
0010
0001
0010
0000
0000
0000
1001
0100
0010
0001
0010
0000
0000
1000
,  // measure 67
0100
0010
1000
0001
0100
0000
0000
0000
0100
0010
1000
0001
0100
0000
0001
0010
,  // measure 68
2002
0000
0000
0000
0000
0000
0000
3003
,  // measure 69
1000
0000
1000
0000
1000
0001
0000
0010
,  // measure 70
0000
0100
0000
1000
0000
0000
0100
1000
,  // measure 71
1100
0000
0000
0010
0000
0000
0001
0000
0000
0010
0000
0000
0101
0000
0000
1000
0000
0000
0100
0000
0000
0010
0000
0000
1001
0000
0000
0010
0000
0000
0100
0000
0000
1000
0000
0000
0110
0000
0000
0001
0000
0000
1010
0000
0100
0000
0010
0000
,  // measure 72
0001
1000
0000
0100
0001
0000
0000
0000
,  // measure 73
0010
0000
0000
0000
0001
0000
0000
0000
0010
0010
0100
0000
0000
0000
1000
0000
,  // measure 74
0000
0100
0000
0001
0000
0000
0010
1000
,  // measure 75
0001
0000
0000
0000
0000
0000
0100
0000
0000
0000
0000
0000
0010
0000
0000
1000
0000
0000
0000
0000
0000
0000
0000
0000
0010
0000
0000
0000
0000
0000
0000
0000
0000
0000
0100
0000
1000
0000
0000
0000
0000
0000
0001
0000
0000
0000
0000
0000
,  // measure 76
0000
0000
1010
0000
0000
0000
0000
0000
1100
0000
0000
0000
0000
1001
0000
0000
0000
0000
0000
1010
0000
0000
0000
0000
0000
1100
0000
0000
0000
0011
0000
0000
,  // measure 77
0000
2002
0000
0000
0000
0000
0000
0000
0000
0000
0000
0000
0000
0000
0000
0000
0000
0000
0000
0000
0000
0000
0000
0000
0000
0000
0000
0000
0000
0000
0000
0000
,  // measure 78
0000
0000
0000
0000
,  // measure 79
3003
0000
0000
0000
;

//---------------dance-single - ----------------
#NOTES:
     dance-single:
     :
     Hard:
     9:
     0.588,0.749,0.560,0.261,0.322,429.000,73.000,34.000,0.000,0.000:  // measure 1
2000
0000
3200
0000
,  // measure 2
0320
0000
0032
0000
,  // measure 3
0000
0000
0000
0000
,  // measure 4
1003
0000
0001
0010
0001
0000
0010
0000
,  // measure 5
1000
0000
0100
1000
0100
0000
0010
0000
0100
0000
0000
0000
0010
0000
0000
0000
,  // measure 6
0001
0000
1000
0001
0010
0000
1000
0000
,  // measure 7
0100
0000
0000
0000
0101
0000
0000
0000
0110
0000
0000
0000
0010
1000
0010
1000
,  // measure 8
0100
0000
1000
0000
0001
1000
0000
0110
,  // measure 9
0000
1000
0000
0010
0000
0100
1000
0100
,  // measure 10
1000
0100
0010
0100
1000
0100
0010
0100
,  // measure 11
1000
0010
0000
0010
0100
0000
0000
0000
,  // measure 12
0010
0000
0000
0000
0001
0000
0000
0000
0100
1000
0100
0000
0000
0000
0110
0000
,  // measure 13
0000
1100
0000
0011
0000
0000
1000
0010
,  // measure 14
0001
0000
0100
0000
1000
0100
0000
0001
0000
0000
1000
0000
0000
0000
0010
0000
,  // measure 15
1000
0000
0000
0100
0000
0000
0010
0000
0000
0200
0000
0000
0000
0300
0000
0000
,  // measure 16
0010
0000
0000
0000
0010
0000
0000
0010
0000
0000
0010
0000
0000
0000
0010
0000
,  // measure 17
0100
0000
0000
0000
0100
0000
0000
0100
0000
0000
0100
0000
0000
0000
0100
0000
,  // measure 18
0001
0000
0000
0000
0001
0000
0000
0001
0000
0000
0001
0000
0000
0000
0001
0000
,  // measure 19
0010
0100
0000
0000
0010
0000
0000
0010
0000
0000
0010
0000
0010
0000
0100
0000
,  // measure 20
1000
0000
0000
0000
1000
0000
0000
1000
0000
0000
1000
0000
0000
0000
1000
0000
,  // measure 21
0010
0100
0000
0000
0010
0000
0000
0010
0000
0000
0010
0000
0000
0000
0010
0000
,  // measure 22
0001
0000
0000
0000
0001
0000
0000
0001
0000
0000
0001
0000
0000
0000
0001
0000
,  // measure 23
1001
0110
0011
1001
,  // measure 24
0000
1000
0100
0000
0100
0010
0000
0010
0100
0000
0100
0010
0000
0010
0001
0000
,  // measure 25
1000
0100
0010
0001
0010
0100
1000
0010
,  // measure 26
0000
0100
0010
0000
0010
0100
0000
0100
1000
0000
1000
0100
0000
0100
0010
0000
,  // measure 27
0001
0010
0100
1000
0100
0010
0001
0100
,  // measure 28
0000
0010
0100
0000
0100
0010
0000
0010
1000
0000
1000
0001
0000
0001
0010
0000
,  // measure 29
0100
0010
1000
0001
0010
0100
1000
0010
,  // measure 30
0000
0100
0001
0000
0001
1000
0000
1000
0010
0000
0010
0100
0000
0100
0010
0000
,  // measure 31
0010
0100
0001
0010
0002
0023
0230
0320
,  // measure 32
2030
0000
0000
0000
,  // measure 33
0000
0000
0000
0000
3000
0000
0010
1000
,  // measure 34
0002
0000
0000
0000
0000
0000
1003
0010
,  // measure 35
0200
0000
0000
0000
,  // measure 36
0300
0000
1000
0100
0000
0010
0100
0000
1000
0100
0000
0010
0100
0000
1000
0100
,  // measure 37
0000
0000
0000
0000
,  // measure 38
0000
0010
0000
0000
0010
0000
0000
0000
0010
1000
0000
0000
0010
0000
1000
0010
,  // measure 39
0000
0001
0000
0000
1000
0000
0000
0010
0000
0000
1001
0000
1100
0000
1010
0000
,  // measure 40
1000
0100
0010
0100
1000
0100
0010
0001
,  // measure 41
0100
0000
1100
0000
0110
0110
0000
0011
,  // measure 42
0000
0000
1100
0000
0000
0000
0220
0000
0000
0330
0000
0000
0100
0010
0100
0000
,  // measure 43
1000
0000
0010
0001
0000
0000
0001
0000
0100
1000
0000
0000
1000
0000
0010
0001
,  // measure 44
0000
0000
1000
0100
0000
0001
0000
0100
0010
0000
1000
0000
0010
0000
0000
0001
,  // measure 45
0010
0000
1100
0000
0110
0011
0000
0011
,  // measure 46
0100
0000
1100
0000
0000
0010
0002
0000
0000
0000
0003
0000
0000
0000
0010
0100
,  // measure 47
0010
0000
0100
0000
0010
0000
0001
0100
0000
0100
1000
0100
0010
0000
1000
0000
,  // measure 48
1000
0100
0010
0001
0010
0100
0010
1000
,  // measure 49
1001
0110
0011
0110
,  // measure 50
1100
0000
0001
0010
2200
0000
3300
0011
,  // measure 51
0110
0000
0001
0010
0001
0000
2000
0000
,  // measure 52
3002
0000
0000
0003
0000
0000
0010
0000
0220
0000
0000
0000
0330
0000
0000
0000
,  // measure 53
0000
1100
0000
0000
0000
0110
0000
0000
0000
0011
0000
0000
0000
0110
0000
0000
,  // measure 54
0101
0000
0000
1010
0000
0000
0011
0000
0220
0000
0000
0330
0000
1100
0000
0000
,  // measure 55
0011
0000
0010
0000
0000
0000
1000
0000
0001
0000
0000
0000
0010
0000
0000
1000
,  // measure 56
0100
0100
0010
0001
1000
0010
1000
0100
,  // measure 57
1000
0100
0010
0100
1000
0100
0001
0100
,  // measure 58
1000
0010
0001
0010
0100
0010
0001
0100
,  // measure 59
1000
0100
0010
0001
0010
0001
0010
0100
,  // measure 60
1000
0100
0010
0001
1000
0001
0010
0001
,  // measure 61
0001
0100
0001
0000
1010
0000
0001
0000
0010
0100
0010
0000
1001
0000
0010
0000
,  // measure 62
0010
0001
0010
0000
0110
0000
1000
0000
0010
1000
0010
0000
1010
0000
0001
0000
,  // measure 63
0100
1000
0100
0000
0100
0000
0010
0000
0100
0001
0100
0000
0101
0000
1000
0000
,  // measure 64
1100
1001
1100
0011
,  // measure 65
2002
0000
0000
0000
,  // measure 66
0000
3003
0202
0303
,  // measure 67
0000
0000
0001
0020
0000
0000
0000
0000
0000
0000
0000
0000
0000
0000
0000
0000
0000
0000
0000
0000
0000
0030
0000
0000
,  // measure 68
2002
0000
0000
0000
0000
0000
0000
3003
,  // measure 69
1000
0000
1000
0000
1000
0001
0000
0010
,  // measure 70
0000
0100
0000
1000
0000
0000
0100
1000
,  // measure 71
1100
0000
0000
0000
0110
0000
0000
0000
0000
0011
0000
0000
0000
0110
0000
0000
,  // measure 72
2020
0000
0000
3030
0000
0000
0100
0000
0001
0000
0000
0000
0000
0000
0000
0000
,  // measure 73
1100
0000
0000
0000
0110
0000
0000
0000
0100
0010
0100
0000
0000
0000
0110
0000
,  // measure 74
0000
1100
0000
0011
0000
0000
1000
0100
,  // measure 75
0010
0000
0001
0000
0010
0001
0000
1000
0000
0000
0000
0000
0000
0000
1100
0000
,  // measure 76
1100
0000
0000
0000
0000
0000
0000
0000
0110
0000
0000
0000
0000
1001
0000
0000
0000
0000
0000
0110
0000
0000
0000
0000
0000
1001
0000
0000
0000
1100
0000
0000
,  // measure 77
0000
2002
0000
0000
0000
0000
0000
0000
0000
0000
0000
0000
0000
0000
0000
0000
0000
0000
0000
0000
0000
0000
0000
0000
0000
0000
0000
0000
0000
0000
0000
0000
,  // measure 78
0000
0000
0000
0000
,  // measure 79
0000
3003
0000
0000
0000
0000
0000
0000
0000
0000
0000
0000
0000
0000
0000
0000
0000
0000
0000
0000
0000
0000
0000
0000
0000
0000
0000
0000
0000
0000
0000
0000
;
