#TITLE:3;
#SUBTITLE:(Hardcore Champions);
#ARTIST:Trucks Factory;
#TITLETRANSLIT:;
#SUBTITLETRANSLIT:;
#ARTISTTRANSLIT:;
#CREDIT:;
#BANNER:../_bn-1.png;
#BACKGROUND:../bg-1.png;
#LYRICSPATH:;
#CDTITLE:;
#MUSIC:3 (Hardcore Champions).ogg;
#OFFSET:0.009;
#SAMPLESTART:159.100;
#SAMPLELENGTH:16.450;
#SELECTABLE:YES;
#BPMS:0.000=175.000;
#STOPS:;
#BGCHANGES:;
// cache tags:
#FIRSTBEAT:32.000;
#LASTBEAT:872.000;
#SONGFILENAME:Songs/Index Tournament 1/3 (Hardcore Champions) - [Aoreo]/3 (Hardcore Champions).sm;
#HASMUSIC:1;
#HASBANNER:1;
#MUSICLENGTH:300.000;
// end cache tags

//---------------dance-single - Aoreo----------------
#NOTES:
     dance-single:
     Aoreo:
     Challenge:
     15:
     1.000,1.000,0.077,0.160,1.000,2759.000,23.000,48.000,0.000,0.000:

0000
0000
0000
0000
,
0000
0000
0000
0000
,
0000
0000
0000
0000
,
0000
0000
0000
0000
,
0000
0000
0000
0000
,
0000
0000
0000
0000
,
0000
0000
0000
0000
,
0000
0000
0000
0000
,
1000
0100
1000
0010
0100
0001
0100
0010
,
1000
0100
0010
0001
1000
0010
0100
0001
,
1000
0100
1000
0010
0100
0001
0100
0010
,
1000
0100
0010
0001
1000
0010
0100
0001
,
1000
0100
1000
0010
0100
0001
0100
0010
,
1000
0100
0010
0001
1000
0010
0100
0001
,
1000
0100
1000
0010
0100
0001
0100
0010
,
2000
3000
0000
0000
0000
0000
0000
0000
,
0001
0100
0001
1000
0100
0010
0100
1000
0001
0100
0001
0010
0001
1000
0100
1000
,
0010
0100
0001
0100
0010
1000
0100
0010
0001
1000
0001
0010
0100
1000
0010
0100
,
0001
1000
0010
0100
0001
0010
0001
1000
0100
1000
0010
1000
0001
0100
0001
0010
,
0001
1000
0100
0010
0100
1000
0001
0100
0010
0100
0001
0100
0010
1000
0001
1000
,
0100
0010
0001
1000
0001
0010
0100
1000
0001
0100
0001
0010
0001
1000
0100
1000
,
0010
1000
0001
0100
0001
0010
0100
1000
0001
1000
0001
1000
0010
0100
0001
0010
,
0100
1000
0100
1000
0001
0100
0001
1000
0100
1000
0010
1000
0001
0100
0001
0010
,
0001
1000
0100
1000
0001
0100
0010
1000
0010
1000
0001
1000
0100
0010
0001
0100
,
0001
1000
0100
1000
0001
0100
0010
1000
0001
0010
0001
0100
0001
1000
0100
1000
,
0010
1000
0001
0100
0010
0100
0001
1000
0100
0010
0001
1000
0001
0010
0100
1000
,
0010
1000
0001
1000
0010
0100
0001
0100
0001
1000
0001
0010
0100
1000
0010
1000
,
0001
0100
0001
1000
0001
0010
0100
1000
0001
1000
0100
1000
0001
0100
0010
1000
,
0010
0100
0001
0100
0001
1000
0001
0010
0100
1000
0001
1000
0010
1000
0100
0010
,
0001
0100
0001
1000
0001
0100
0010
0100
0001
1000
0100
1000
0010
1000
0001
0100
,
0001
1000
0100
1000
0001
0100
0010
0100
0001
1000
0010
1000
0100
1000
0001
0010
,
0001
0100
0001
1000
0001
0010
0100
1000
0001
1000
0100
1000
0010
0100
0001
0100
,
0010
1000
0001
1000
0100
0010
0100
1000
0001
0100
0001
0010
0001
1000
0100
1000
,
0010
1000
0001
1000
0100
1000
0010
0100
0001
0100
0010
1000
0100
1000
0100
0010
,
0001
0100
0001
1000
0001
0100
0010
1000
0010
0100
0001
0010
0001
1000
0100
1000
,
0010
1000
0001
0100
0001
0010
0100
0010
0100
1000
0001
1000
0100
1000
0010
0100
,
0001
1000
0010
0100
0010
1000
0100
1000
0001
0100
0001
0010
0001
1000
0100
1000
,
0010
1000
0001
0010
0100
1000
0001
0100
0001
1000
0010
1000
0100
0010
0001
1000
,
0001
0010
0100
1000
0001
0100
0010
0100
0001
1000
0100
0010
0001
0100
0010
1000
,
0001
0010
0001
0100
0010
1000
0100
1000
0010
0100
0001
0010
0100
1000
0010
0100
,
0001
0010
0001
1000
0100
1000
0010
1000
0001
1000
0100
0010
0001
0100
0001
1000
,
0100
1000
0010
0100
0010
1000
0001
1000
0100
0010
0100
0010
0001
1000
0001
0100
,
0001
1000
0100
1000
0010
0100
0010
1000
0100
0010
0100
0010
0001
1000
0010
1000
,
0100
1000
0001
0100
0001
0010
0100
1000
0010
1000
0100
1000
0001
0100
0001
1000
,
0010
0100
0010
1000
0010
0100
0001
0010
0100
1000
0010
0100
0010
1000
0010
0100
,
0001
1000
0100
1000
0010
0100
0010
1000
0001
0010
0100
1000
0001
1000
0010
0100
,
0010
1000
0100
1000
0001
0100
0010
0100
0001
0010
0100
1000
0001
0100
0001
0010
,
0001
1000
0100
1000
0010
0100
0010
1000
0001
0010
0100
0010
0001
1000
0001
0100
,
0010
1000
0100
1000
0001
1000
0010
1000
0100
1000
0001
1000
0010
1000
0100
1000
,
0001
0100
0001
1000
0001
0010
0100
0010
0100
1000
0001
0100
0010
1000
0100
1000
,
0001
0010
0001
0100
0001
1000
0001
0010
0001
0100
0001
1000
0001
0010
0001
0100
,
0001
1000
0100
1000
0001
0100
0010
0100
0001
1000
0100
0010
0100
1000
0010
0100
,
0001
1000
0010
1000
0100
1000
0001
1000
0010
1000
0100
1000
0001
1000
0010
1000
,
0100
0010
0001
1000
0001
0010
0100
0010
0100
1000
0010
0100
0010
1000
0100
0010
,
0001
0100
0001
1000
0001
0010
0001
0100
0001
1000
0001
0010
0001
0100
0001
1000
,
0001
0000
0000
1001
0000
0000
1000
0000
1010
0000
0000
0010
0000
0000
0110
0000
,
0100
0001
1000
0100
1000
0010
1000
0001
0010
0100
1000
0010
1000
0100
0010
0001
,
1000
0010
0100
0001
0010
0100
1000
0010
1000
0010
0100
0001
0010
0100
0010
0100
,
1000
0001
0100
0001
0010
0100
1000
0001
0100
0010
1000
0100
1000
0010
0100
0001
,
1000
0100
1000
0010
0100
0010
1000
0010
0100
0001
0010
0100
1000
0001
1000
0010
,
1000
0001
0100
0001
0010
0001
1000
0100
0010
0001
0100
0001
0010
0100
1000
0001
,
1000
0100
1000
0010
0100
0001
0100
0010
1000
0001
0100
0001
0010
0100
0010
0100
,
1000
0001
0100
0001
0010
0100
1000
0001
0100
0010
1000
0100
1000
0010
0100
0001
,
1000
0100
1000
0010
0100
0001
0010
0100
1000
0001
1000
0100
1000
0010
0100
0001
,
1000
0010
0100
0001
0100
0010
1000
0001
1000
0100
0010
0001
1000
0010
0100
0001
,
1000
0100
1000
0001
0010
0001
1000
0001
0100
0010
1000
0100
0010
0100
1000
0010
,
1000
0010
0100
0001
1000
0001
1000
0100
1000
0010
0100
0001
1000
0100
0010
0001
,
1000
0001
0100
0001
0010
0100
1000
0010
1000
0001
0100
0001
1000
0100
0010
0001
,
0100
0001
1000
0100
0010
0100
1000
0010
1000
0001
0100
0010
1000
0100
0010
0001
,
1000
0001
0100
0001
0010
0100
1000
0001
1000
0001
0100
0010
1000
0100
0010
0100
,
0010
0001
1000
0001
0010
0100
1000
0001
1000
0100
0010
0001
1000
0010
0100
0001
,
1000
0100
1000
0001
0010
0001
1000
0001
0100
0010
1000
0100
0010
0001
0010
0001
,
0100
0010
1000
0001
0010
0100
0010
0001
1000
0010
1000
0100
1000
0001
0010
0001
,
0100
0010
1000
0010
0100
0001
0010
0100
1000
0001
1000
0100
0010
0001
0100
0010
,
1000
0001
0100
0010
1000
0100
1000
0001
0010
0001
0100
0001
1000
0010
1000
0100
,
1000
0001
0010
0100
0010
0001
1000
0010
0100
0010
1000
0010
0100
0001
1000
0001
,
0010
0100
1000
0001
1000
0100
0010
0001
1000
0010
1000
0100
1000
0001
0010
0001
,
0100
0001
1000
0010
1000
0100
0010
0001
1000
0001
1000
0001
0100
0010
1000
0100
,
0010
0001
0010
0001
1000
0010
1000
0001
0010
0001
0100
0001
1000
0010
1000
0100
,
1000
0001
0010
0001
1000
0010
0100
0001
0100
0001
1000
0001
0010
0100
1000
0010
,
1000
0001
0010
0001
1000
0010
0100
0001
1000
0100
1000
0010
1000
0001
0010
0001
,
0100
0001
1000
0010
0100
0010
1000
0001
0010
0100
1000
0001
1000
0100
0010
0001
,
0100
0001
1000
0001
0100
0010
1000
0010
1000
0001
1000
0100
0010
0001
0100
0001
,
1000
0010
1000
0001
1000
0100
0010
0001
1000
0001
0010
0001
1000
0010
0100
0001
,
0100
0010
1000
0010
1000
0001
1000
0100
0010
0001
1000
0001
0100
0001
0010
0100
,
1000
0010
1000
0001
1000
0010
0100
0010
1000
0001
0010
0001
0100
0001
1000
0010
,
1000
0100
1000
0010
0100
0001
1000
0100
1000
0001
0100
0001
0010
0100
1000
0001
,
1000
0100
1000
0010
0100
0001
0010
0001
0100
0010
1000
0100
0010
0001
0100
0010
,
1000
0100
1000
0010
0100
0001
0100
0010
,
1000
0100
1000
0010
0100
0001
0100
0010
,
1000
0100
0010
0001
1000
0010
0100
0001
,
1000
0100
0010
0001
1000
0010
0100
0001
,
1000
0100
1000
0010
0100
0001
0100
0010
,
1000
0100
1000
0010
0100
0001
0100
0010
,
1000
0100
0010
0001
1000
0010
0100
0001
,
1000
0100
0010
0001
1000
0010
0100
0001
,
1000
0000
0100
0000
1100
0000
1000
0001
,
0100
0010
0100
0000
0101
0000
0001
0010
,
0100
0000
1000
0000
1001
0000
0001
0010
,
0100
0010
0001
0000
1001
0000
1000
0010
,
0100
0000
0010
0000
1010
0000
1000
0100
,
0010
0001
1000
0000
1100
0000
0100
1000
,
0001
0000
0100
0000
0101
0000
0001
0010
,
0100
1000
0001
0000
1001
0000
1000
0010
,
0200
0300
0000
0020
0030
0000
0100
0010
,
1000
0100
0010
0000
0021
0030
0002
0003
,
2000
3000
0000
0020
0030
0000
0100
0001
,
1000
0100
0010
0000
0011
0000
0001
1000
,
0200
0300
0000
2000
3000
0000
0010
1000
,
0010
0100
0001
0000
0102
0003
0200
0300
,
0020
0030
0000
2000
3000
0000
0001
1000
,
0100
0010
0001
0000
1001
0000
1000
0010
,
0200
0300
0000
0002
0003
0000
0010
0100
,
1000
0010
0100
0000
0101
0000
0001
1000
,
0100
0010
0001
0000
1001
0000
1000
0010
,
0200
0000
0301
1000
0200
0000
0310
0001
,
1000
0000
0001
0000
0101
0000
0100
0010
,
1000
0100
0010
0000
0011
0000
0001
1000
,
0100
0000
1000
0000
0001
0000
1000
0010
,
0100
0001
1000
0000
0002
1003
1001
0000
,
0001
0100
0001
0010
0100
0010
0100
1000
0010
1000
0001
0100
0001
1000
0100
1000
,
0010
1000
0001
0010
0100
0010
0001
0100
0001
1000
0010
0100
0010
1000
0100
0010
,
0001
0100
0001
1000
0100
0010
0100
1000
0010
0100
0001
0100
0010
1000
0001
0010
,
0100
0010
0001
1000
0100
1000
0010
0100
0010
1000
0001
0010
0001
0100
0010
0100
,
0001
0010
0100
1000
0001
1000
0100
1000
0010
0100
0010
1000
0001
0010
0100
0010
,
0001
0100
0010
1000
0100
0010
0001
0100
0001
0010
0001
1000
0010
0100
0010
1000
,
0100
1000
0010
0100
0001
0010
0001
0100
0001
1000
0010
1000
0100
0010
0001
0100
,
0001
1000
0100
1000
0010
0100
0001
0100
0010
1000
0100
0010
0001
0100
0010
1000
,
0100
1000
0001
1000
0100
0010
0001
0100
0001
1000
0001
0010
0100
0010
0001
0100
,
0010
1000
0010
0100
0001
1000
0100
1000
0010
0100
0001
0100
0010
1000
0100
0010
,
0001
0100
0001
0010
0001
1000
0100
1000
0010
0100
0010
1000
0010
0100
0001
0010
,
0100
1000
0010
1000
0001
1000
0100
0010
0001
0100
0001
0010
0100
0010
0001
0100
,
0010
1000
0100
0010
0001
0100
0001
1000
0010
0100
0010
1000
0010
0100
0001
0010
,
0100
0010
0001
1000
0100
1000
0010
0100
0001
0010
0001
0100
0001
1000
0010
1000
,
0100
0010
0001
0100
0001
1000
0100
0010
0100
1000
0010
0100
0010
1000
0001
0100
,
0002
0003
0000
0000
0000
0000
0000
0000
,
1000
0001
0010
0001
1000
0010
0100
0001
1000
0100
1000
0010
1000
0001
0010
0001
,
0100
0001
1000
0010
0100
0010
1000
0001
0010
0100
1000
0001
1000
0100
0010
0001
,
0100
0001
1000
0001
0100
0010
1000
0010
1000
0001
1000
0100
0010
0001
0100
0001
,
1000
0010
1000
0001
1000
0100
0010
0001
1000
0001
0010
0001
1000
0010
0100
0001
,
0100
0010
1000
0010
1000
0001
1000
0100
0010
0001
1000
0001
0100
0001
0010
0100
,
1000
0010
1000
0001
1000
0010
0100
0010
1000
0001
0010
0001
0100
0001
1000
0010
,
1000
0001
0010
0001
1000
0010
0100
0010
1000
0001
0100
0001
0010
0001
1000
0100
,
1000
0010
1000
0001
1000
0100
0010
0001
1000
0001
0010
0001
0100
0010
1000
0010
,
0100
0001
1000
0001
0010
0100
0010
0001
1000
0010
1000
0100
1000
0001
0010
0001
,
0100
0001
1000
0001
0010
0001
0100
0010
1000
0010
0100
0001
0010
0001
0010
0100
,
1000
0010
1000
0001
1000
0010
0100
0001
0100
0010
1000
0100
1000
0001
0010
0001
,
0100
0001
1000
0010
1000
0100
0010
0100
0010
0001
1000
0001
0010
0001
0100
0010
,
1000
0001
0100
0010
0100
0001
0010
0001
1000
0010
1000
0100
1000
0001
0010
0001
,
0100
0001
1000
0100
0010
0001
1000
0010
1000
0001
0100
0001
0010
0100
1000
0001
,
1000
0100
0010
0001
1000
0010
0100
0010
1000
0001
0010
0100
1000
0010
0100
0001
,
1000
0100
1000
0010
0100
0001
0010
0001
0100
0010
1000
0100
0010
0001
0100
0010
,
1000
0100
1000
0001
0010
0001
0100
0001
1000
0001
0010
0100
1000
0010
1000
0001
,
0010
0001
0100
0010
0100
0001
1000
0001
0010
0100
0010
0100
1000
0001
1000
0010
,
1000
0001
0010
0001
0100
0010
0100
0001
0010
0100
0010
0100
1000
0001
0100
0001
,
0010
0001
1000
0010
1000
0100
0010
0001
0100
0001
0010
0001
1000
0010
1000
0001
,
0100
0010
0100
0001
0100
0010
1000
0100
0010
0001
0100
0010
0100
0001
0100
0010
,
1000
0001
0010
0001
0100
0010
0100
0001
1000
0100
0010
0001
1000
0001
0100
0010
,
0100
0001
0010
0001
1000
0010
0100
0010
1000
0100
0010
0001
1000
0010
1000
0100
,
1000
0001
0010
0001
0100
0010
0100
0001
1000
0100
0010
0100
1000
0001
1000
0010
,
0100
0001
0010
0001
1000
0001
0100
0001
0010
0001
1000
0001
0100
0001
0010
0001
,
1000
0010
1000
0001
1000
0100
0010
0100
0010
0001
1000
0010
0100
0001
0010
0001
,
1000
0100
1000
0010
1000
0001
1000
0100
1000
0010
1000
0001
1000
0100
1000
0010
,
1000
0001
0010
0001
1000
0010
0100
0010
1000
0001
0010
0100
0010
0001
0100
0010
,
1000
0001
0100
0001
0010
0001
1000
0001
0100
0001
0010
0001
1000
0001
0100
0001
,
0010
0100
1000
0001
1000
0100
0010
0100
0010
0001
0100
0010
0100
0001
0010
0100
,
1000
0010
1000
0001
1000
0100
1000
0010
1000
0001
1000
0100
1000
0010
1000
0001
,
1000
0000
0000
1010
0000
0000
0010
0000
0110
0000
0000
0100
0000
0000
0101
0000
,
0001
0100
0001
0010
0100
0010
0100
1000
0010
1000
0001
0100
0001
1000
0100
1000
,
0010
1000
0001
0010
0100
0010
0001
0100
0001
1000
0010
0100
0010
1000
0100
0010
,
0001
0100
0001
1000
0100
0010
0100
1000
0010
0100
0001
0100
0010
1000
0001
0010
,
0100
0010
0001
1000
0100
1000
0010
0100
0010
1000
0001
0010
0001
0100
0010
0100
,
0001
0010
0100
1000
0001
1000
0100
1000
0010
0100
0010
1000
0001
0010
0100
0010
,
0001
0100
0010
1000
0100
0010
0001
0100
0001
0010
0001
1000
0010
0100
0010
1000
,
0100
1000
0010
0100
0001
0010
0001
0100
0001
1000
0010
1000
0100
0010
0001
0100
,
0001
1000
0100
1000
0010
0100
0001
0100
0010
1000
0100
0010
0001
0100
0010
1000
,
0100
1000
0001
1000
0100
0010
0001
0100
0001
1000
0001
0010
0100
0010
0001
0100
,
0010
1000
0010
0100
0001
1000
0100
1000
0010
0100
0001
0100
0010
1000
0100
0010
,
0001
0100
0001
0010
0001
1000
0100
1000
0010
0100
0010
1000
0010
0100
0001
0010
,
0100
1000
0010
1000
0001
1000
0100
0010
0001
0100
0001
0010
0100
0010
0001
0100
,
0010
1000
0100
0010
0001
0100
0001
1000
0010
0100
0010
1000
0010
0100
0001
0010
,
0100
0010
0001
1000
0100
1000
0010
0100
0001
0010
0001
0100
0001
1000
0010
1000
,
0100
0010
0001
0100
0001
1000
0100
0010
0100
1000
0010
0100
0010
1000
0001
0100
,
0002
0003
0000
0000
0000
0000
0000
0000
,
0100
0001
1000
0100
1000
0010
1000
0001
0010
0100
1000
0010
1000
0100
0010
0001
,
1000
0010
0100
0001
0010
0100
1000
0010
1000
0010
0100
0001
0010
0100
0010
0100
,
1000
0001
0100
0001
0010
0100
1000
0001
0100
0010
1000
0100
1000
0010
0100
0001
,
1000
0100
1000
0010
0100
0010
1000
0010
0100
0001
0010
0100
1000
0001
1000
0010
,
1000
0001
0100
0001
0010
0001
1000
0100
0010
0001
0100
0001
0010
0100
1000
0001
,
1000
0100
1000
0010
0100
0001
0100
0010
1000
0001
0100
0001
0010
0100
0010
0100
,
1000
0001
0100
0001
0010
0100
1000
0001
0100
0010
1000
0100
1000
0010
0100
0001
,
1000
0100
1000
0010
0100
0001
0010
0100
1000
0001
1000
0100
1000
0010
0100
0001
,
1000
0010
0100
0001
0100
0010
1000
0001
1000
0100
0010
0001
1000
0010
0100
0001
,
1000
0100
1000
0001
0010
0001
1000
0001
0100
0010
1000
0100
0010
0100
1000
0010
,
1000
0010
0100
0001
1000
0001
1000
0100
1000
0010
0100
0001
1000
0100
0010
0001
,
1000
0001
0100
0001
0010
0100
1000
0010
1000
0001
0100
0001
1000
0100
0010
0001
,
0100
0001
1000
0100
0010
0100
1000
0010
1000
0001
0100
0010
1000
0100
0010
0001
,
1000
0001
0100
0001
0010
0100
1000
0001
1000
0001
0100
0010
1000
0100
0010
0100
,
0010
0001
1000
0001
0010
0100
1000
0001
1000
0100
0010
0001
1000
0010
0100
0001
,
0010
0001
0100
0010
1000
0100
1000
0010
0100
0001
0010
0100
1000
0010
0100
0001
,
2000
3010
0100
0020
1030
0100
0010
0001
,
0100
0001
0010
0100
2000
3010
0200
0301
,
0020
0130
1000
0002
0103
0010
0100
0001
,
1000
0100
0010
0001
1000
0010
0100
0001
,
2000
3010
0100
0020
1030
0100
0010
0001
,
0100
0001
0010
0100
2000
3010
0200
0301
,
0020
0130
1000
0002
0103
0010
0100
0001
,
1000
0100
0010
0001
1000
0010
0100
0001
,
2000
3010
0100
0020
1030
0100
0010
0001
,
0100
0001
0010
0100
2000
3010
0200
0301
,
0020
0130
1000
0002
0103
0010
0100
0001
,
1000
0100
0010
0001
1000
0010
0100
0001
,
2000
3010
0100
0020
1030
0100
0010
0001
,
0100
0001
0010
0100
2000
3010
0200
0301
,
0020
0130
1000
0002
0103
0010
0100
0001
,
1000
0100
0010
0001
2000
3010
0200
0301
,
0020
0030
0000
0002
0000
0000
0000
0000
,
0000
0000
0000
0000
,
0003
0000
0000
0000
;
