#TITLE:Sweet Shining Shooting Star;
#SUBTITLE:DJMAX Technika O.S.T;
#ARTIST:Croove;
#TITLETRANSLIT:;
#SUBTITLETRANSLIT:;
#ARTISTTRANSLIT:;
#CREDIT:ALICE_;
#BANNER:Sweet Shining Shooting Star.png;
#BACKGROUND:Sweet Shining Shooting Star.jpg;
#LYRICSPATH:;
#CDTITLE:cdtitle.png;
#MUSIC:Sweet Shining Shooting Star.mp3;
#OFFSET:-0.040;
#SAMPLESTART:42.897;
#SAMPLELENGTH:12.000;
#SELECTABLE:YES;
#BPMS:0.000=140.000,212.000=35.000,212.875=17.500,213.438=35.000;
#STOPS:;
#BGCHANGES:;
// cache tags:
#FIRSTBEAT:4.000;
#LASTBEAT:213.438;
#SONGFILENAME:Songs/alice 4th complete step/Sweet Shining Shooting Star/Sweet Shining Shooting Star.sm;
#HASMUSIC:1;
#HASBANNER:1;
#MUSICLENGTH:100.567;
// end cache tags

//---------------dance-single - Copied from----------------
#NOTES:
     dance-single:
     Copied from:
     Challenge:
     13:
     1.000,1.000,1.000,1.000,0.517,390.000,187.000,189.000,0.000,22.000:
0000
0000
0000
0000
,
2001
0010
0100
0010
0000
0010
0100
3010
,
0000
0000
0102
0003
1000
0000
0120
0030
0000
0000
0120
0030
0001
0000
2010
0000
,
0000
0001
0100
0001
0000
0001
0100
0001
,
0000
0000
0001
0000
3010
0000
0201
0300
0000
0000
0210
0300
1000
0000
0012
0000
,
0000
0000
0100
0000
1003
0000
0120
0030
0000
0000
0120
0030
1000
0000
0210
0300
,
0000
0000
0201
0300
1000
0000
0021
0030
0000
0000
1020
0030
0100
0000
1002
0000
,
0000
0010
1000
0010
0000
0010
1000
0013
,
1000
0100
0000
1000
0001
0010
0100
0010
1001
0000
0000
0000
1111
0000
0000
0000
,
0202
0303
0000
0000
0000
0000
0000
0000
0202
0303
0000
0000
0000
0000
2020
0000
3030
0000
0000
0000
2020
3030
0000
0000
0000
0000
0000
0000
2020
3030
0000
0000
,
2200
3300
0000
0000
0000
0000
0000
0000
2200
3300
0000
0000
0000
0000
0220
0000
0330
0000
0000
0000
0220
0330
0000
0000
0000
0000
0220
0330
0000
0000
0000
0000
,
0202
0303
0000
0000
0000
0000
0000
0000
0202
0303
0000
0000
0000
0000
2020
0000
3030
0000
0000
0000
2020
3030
0000
0000
0000
0000
0000
0000
2002
3003
0000
0000
,
0000
0000
0101
0000
1010
0100
0001
0100
0010
0000
1100
0000
0011
0000
0100
0000
,
2002
3003
0000
0000
0000
0000
0000
0000
2002
3003
0000
0000
0000
0000
0220
0000
0330
0000
0000
0000
0220
0330
0000
0000
0000
0000
0000
0000
0000
0000
0000
0000
,
2002
3003
0000
0000
0000
0000
0000
0000
2002
3003
0000
0000
0000
0000
0220
0000
0330
0000
0000
0000
0220
0330
0000
0000
0000
0000
0220
0330
0000
0000
0000
0000
,
2002
3003
0000
0000
0000
0000
0000
0000
2002
3003
0000
0000
0000
0000
0220
0000
0330
0000
0000
0000
0220
0330
0000
0000
0000
0000
0000
0000
0000
0000
0000
0000
,
0101
0000
0000
0000
0000
0000
0000
0000
0000
0000
0000
0000
0010
0000
0000
0000
1000
0000
0000
0000
0000
0000
0000
0000
0100
0000
0000
0000
0000
0000
0000
0000
0022
0033
0000
0000
0000
0000
0000
0000
0100
0000
0000
0000
0000
0000
0000
0000
2022
3033
0000
0000
0000
0000
0000
0000
0000
0000
0000
0000
0000
0000
0000
0000
,
1001
0000
0010
0000
1100
0010
0000
0101
1000
0000
0110
0000
0001
0000
0100
0000
,
1010
0000
0001
0000
0101
0010
0000
1010
0100
0000
0001
0000
0110
0001
0000
0010
,
0101
0000
1000
0000
0110
0000
1000
0010
0000
0001
0010
0000
0101
0000
0000
0000
,
1100
0000
0001
0000
0110
0000
1000
0110
0000
0010
0001
0000
0110
1000
0001
0000
,
2002
3003
0000
0000
0000
0000
2002
3003
0000
0000
0000
0000
2020
0000
3030
0000
0000
0000
0000
0000
2020
3030
0000
0000
0000
0000
2020
3030
0000
0000
0000
0000
,
0000
0000
0000
0000
2002
3003
0000
0000
0000
0000
2002
3003
0000
0000
0000
0000
0202
0303
0000
0000
0000
0000
0202
0303
0000
0000
0000
0000
0012
0000
0000
0000
,
1000
0100
1000
0010
0103
1020
0130
1200
,
0001
0000
0010
0000
1000
0000
0310
0000
1001
0100
0000
0100
1010
0000
0110
0010
,
0022
0033
0000
0000
0000
0000
0000
0000
0000
0000
0000
0000
0022
0033
0000
0000
0100
0000
0000
0000
0000
0000
0000
0000
0022
0033
0000
0000
0000
0000
0000
0000
2002
3003
0000
0000
0000
0000
0000
0000
0000
0000
0000
0000
2002
3003
0000
0000
0100
0000
0000
0000
0000
0000
0000
0000
2020
3030
0000
0000
0000
0000
0000
0000
,
0000
0000
0000
0000
0000
0000
0000
0000
2020
3030
0000
0000
0000
0000
0000
0000
0100
0000
0000
0000
2020
3030
0000
0000
0000
0000
0000
0000
0000
0000
0000
0000
2200
3300
0000
0000
0000
0000
0000
0000
0000
0000
0000
0000
2200
3300
0000
0000
0001
0000
0000
0000
0000
0000
0000
0000
0220
0330
0000
0000
0000
0000
0000
0000
,
2200
3300
0000
0000
0000
0000
0000
0000
0000
0000
0000
0000
2200
3300
0000
0000
0010
0000
0000
0000
0000
0000
0000
0000
2200
3300
0000
0000
0000
0000
0000
0000
2002
3003
0000
0000
0000
0000
0000
0000
0000
0000
0000
0000
2002
3003
0000
0000
0010
0000
0000
0000
0000
0000
0000
0000
0202
0303
0000
0000
0000
0000
0000
0000
,
0000
0000
0000
0000
0000
0000
0000
0000
0202
0303
0000
0000
0000
0000
0000
0000
0010
0000
0000
0000
0202
0303
0000
0000
0000
0000
0000
0000
0000
0000
0000
0000
0022
0033
0000
0000
0000
0000
0000
0000
0000
0000
0000
0000
0022
0033
0000
0000
1000
0000
0000
0000
0000
0000
0000
0000
0220
0330
0000
0000
0000
0000
0000
0000
,
0000
0000
0000
0000
0000
0000
0000
0000
2002
3003
0000
0000
0000
0000
0000
0000
0100
0000
0000
0000
0022
0033
0000
0000
0000
0000
0000
0000
0000
0000
0000
0000
0220
0330
0000
0000
0000
0000
0000
0000
0000
0000
0000
0000
2200
3300
0000
0000
0001
0000
0000
0000
0000
0000
0000
0000
0220
0330
0000
0000
0000
0000
0000
0000
,
0000
0000
0000
0000
0000
0000
0000
0000
0202
0303
0000
0000
0000
0000
0000
0000
0010
0000
0000
0000
2200
3300
0000
0000
0000
0000
0000
0000
0000
0000
0000
0000
0220
0330
0000
0000
0000
0000
0000
0000
0000
0000
0000
0000
0022
0033
0000
0000
0100
0000
0000
0000
0000
0000
0000
0000
0220
0000
0000
0000
0000
0000
0000
0000
,
0000
1000
1000
1000
,
1000
0000
0000
0000
0000
0000
0000
0000
0330
0000
0000
0000
0000
0000
0000
0000
2002
3003
0000
0000
0000
0000
0000
0000
0000
0000
0000
0000
0010
0000
0000
0000
2002
3003
0000
0000
0000
0000
0000
0000
0110
0000
0000
0000
0010
0000
0000
0000
2002
3003
0000
0000
0000
0000
0000
0000
0110
0000
0000
0000
0010
0000
0000
0000
,
1001
0000
0000
1001
0100
0000
1001
0000
0100
1010
0000
1010
0200
0000
0310
0000
,
0100
0000
1001
0000
0100
0011
0000
0001
1100
0000
0000
0110
0000
1000
0110
0000
,
0011
0000
0100
0011
0000
0100
0011
0000
0100
1010
0000
0100
1001
0000
0110
0000
,
0010
0000
1001
0000
0100
1001
0010
0100
0001
0100
0010
0000
0101
0000
1010
0000
,
1001
0000
0000
0001
1100
0000
1001
0000
0100
0010
0000
0010
0101
0000
1010
0000
,
0100
0011
0000
1100
0010
0000
0100
1001
0000
0000
1001
0000
0100
0020
0000
0030
,
2002
0000
3003
0000
0000
0000
0000
0000
0000
0000
0000
0000
0000
0000
0000
0000
2002
0000
3003
0000
0000
0000
0000
0000
0000
0000
0000
0000
0000
0000
0000
0000
0220
0330
0000
0000
0000
0000
0000
0000
0220
0330
0000
0000
0000
0000
0000
0000
0000
0000
0000
0000
0000
0000
0000
0000
1010
0000
0000
0000
0000
0000
0000
0000
,
0100
0001
0000
0001
0101
0000
1001
0010
0100
0001
0100
1010
0000
0001
1010
0000
,
0101
0000
0010
0000
1001
0000
0100
0010
1000
0001
0010
0100
0001
0010
1000
0000
,
0011
0000
0100
0000
1100
0010
0000
0100
1001
0000
0010
0100
0001
1000
0100
0000
,
1001
0000
0010
0000
0110
0000
1001
0010
0100
0001
1000
0010
0000
0100
0001
0010
,
1100
0000
0010
0000
1001
0100
0000
0010
0101
0000
0100
0010
1000
0001
0110
0000
,
1001
0000
0010
0001
1100
0000
0110
0001
1000
0010
0100
0001
0010
0000
0100
1000
,
0101
0000
0010
0000
1100
0010
0000
0001
1010
0000
0100
0010
0001
1000
0100
0000
,
2002
0000
0100
0000
0000
0000
3103
2020
,
0000
0000
0001
0000
0001
0000
0001
3030
,
2002
0000
0010
0000
0000
0000
3013
0202
,
0000
0000
1000
0000
1000
0000
1000
0303
,
2100
0001
0110
0001
0000
0001
3110
0102
,
1010
0000
0000
0010
1100
0000
0000
0000
1010
0000
0000
0010
1100
0000
0003
0000
,
2000
0000
0000
0000
0000
0000
0000
0000
0000
0000
0000
0000
0000
3000
0020
0000
0000
0000
0000
0000
0000
0000
0000
0030
0000
0000
0000
0000
0000
0000
0000
0000
0000
0000
0000
0000
0000
0000
0000
0000
0000
0000
0000
0000
0000
0000
0000
0000
0000
0000
0000
0000
0000
0000
0000
0000
0000
0000
0000
0000
0000
0000
0000
0000
;

//---------------dance-single - ----------------
#NOTES:
     dance-single:
     :
     Hard:
     11:
     0.818,1.000,1.000,1.000,0.333,327.000,133.000,116.000,0.000,10.000:
0000
0000
0000
0000
,
2010
0001
0100
0001
0000
0001
0100
3001
,
0000
0102
1003
0110
0000
2010
3100
0012
,
0000
1000
0100
1000
0000
1000
0100
1003
,
0000
0120
1030
0101
0000
0012
1003
0120
,
1000
0001
0130
1002
0003
1002
0103
2010
,
3000
2010
3100
0021
0030
0102
0013
2100
,
0010
0001
0100
0001
0000
0001
0100
3001
,
1000
0000
0100
0000
1000
0000
0010
0010
1001
0000
0000
0000
1001
0000
0000
0000
,
2020
3030
0000
0000
0000
0000
0000
0000
2020
3030
0000
0000
0000
0000
2200
0000
3300
0000
0000
0000
2200
3300
0000
0000
0000
0000
0000
0000
2200
3300
0000
0000
,
2020
3030
0000
0000
0000
0000
0000
0000
2020
3030
0000
0000
0000
0000
0022
0000
0033
0000
0000
0000
0022
0033
0000
0000
0000
0000
0022
0033
0000
0000
0000
0000
,
2020
3030
0000
0000
0000
0000
0000
0000
2020
3030
0000
0000
0000
0000
2200
0000
3300
0000
0000
0000
2200
3300
0000
0000
0000
0000
0000
0000
2200
3300
0000
0000
,
0000
0000
0010
0000
1000
0100
0000
0001
0000
0000
0010
0000
0100
0000
1000
0000
,
0202
0303
0000
0000
0000
0000
0000
0000
0202
0303
0000
0000
0000
0000
0022
0000
0033
0000
0000
0000
0022
0033
0000
0000
0000
0000
0000
0000
0000
0000
0000
0000
,
0202
0303
0000
0000
0000
0000
0000
0000
0202
0303
0000
0000
0000
0000
2200
0000
3300
0000
0000
0000
2200
3300
0000
0000
0000
0000
2200
3300
0000
0000
0000
0000
,
0202
0303
0000
0000
0000
0000
0000
0000
0202
0303
0000
0000
0000
0000
0022
0000
0033
0000
0000
0000
0022
0033
0000
0000
0000
0000
0000
0000
0000
0000
0000
0000
,
0010
0000
0000
0000
0000
0000
0000
0000
0000
0000
0000
0000
0100
0000
0000
0000
0000
0000
0000
0000
0000
0000
0000
0000
1000
0000
0000
0000
0000
0000
0000
0000
0020
0030
0000
0000
0000
0000
0000
0000
0100
0000
0000
0000
0000
0000
0000
0000
2002
0003
3000
0000
0000
0000
0000
0000
0000
0000
0000
0000
0000
0000
0000
0000
,
0010
0000
0100
0000
0001
0000
1000
0010
0000
0000
0100
0000
0001
0000
0000
0000
,
0010
0000
1000
0000
1000
0010
0000
0010
0100
0000
0001
0000
1000
0001
0000
0010
,
0000
0000
0100
0000
1000
0000
0010
0001
0000
0000
0100
0000
0010
0000
0000
0000
,
1001
0000
0000
0000
0001
0000
0000
0100
0000
0000
1000
0000
0010
0001
0000
0100
,
2002
3003
0000
0000
0000
0000
2002
3003
0000
0000
0000
0000
2020
0000
3030
0000
0000
0000
0000
0000
2020
3030
0000
0000
0000
0000
2020
3030
0000
0000
0000
0000
,
0000
0000
0000
0000
2002
3003
0000
0000
0000
0000
2002
3003
0000
0000
0000
0000
0202
0303
0000
0000
0000
0000
0202
0303
0000
0000
0000
0000
2020
0000
0000
0000
,
0000
0000
0000
0000
3030
2200
3300
0202
,
0000
0000
0000
0000
0000
0000
0303
0000
0110
0000
0000
0110
0000
0000
0110
0000
,
1010
0000
0000
1010
0000
0000
1010
0000
1001
0000
0000
1001
0000
0000
1010
0000
,
0000
0000
0101
0000
0000
0101
0000
0000
0011
0000
0000
0011
0000
0000
0011
0000
,
1010
0000
0000
1010
0000
0000
1010
0000
1001
0000
0000
1001
0000
0000
0011
0000
,
0000
0000
1010
0000
0000
1010
0000
0000
1100
0000
0000
1100
0000
0000
0101
0000
,
0000
0000
1001
0000
0000
1001
0000
0000
1010
0000
0000
1010
0000
0000
1100
0000
,
0000
0000
1100
0000
0000
1100
0000
0000
1010
0000
0000
1010
0000
0000
2002
0000
,
0000
0000
0000
0000
,
0000
0000
0000
3003
0220
0000
0330
0000
0220
0000
0330
0000
0220
0000
0330
0000
,
1000
0010
0101
0010
1000
0010
0101
1010
,
1000
0010
0101
0010
1000
0010
0101
1010
,
0100
0001
1010
0001
0100
0001
1010
0101
,
0100
0000
0001
0000
1010
0000
0001
0100
1000
0100
0010
0000
1001
0000
0110
0000
,
0001
1000
0011
0100
0001
1000
0011
0110
,
0001
1000
0011
0100
0001
1000
0011
0110
,
0001
1000
0011
0100
0001
1000
0011
0110
,
0001
0000
1000
0000
0011
0000
0100
0000
0001
0000
1000
0000
0011
0000
0110
0100
,
0001
0000
1000
0000
0100
0000
0010
0001
0000
1000
0000
0100
0010
0000
0001
0000
,
1000
0000
0001
0000
0100
0010
0000
0100
1000
0000
0010
0001
0000
0100
0010
0000
,
0001
0000
1000
0000
0001
0000
0100
1000
0000
0001
0000
0100
0000
0010
1000
0000
,
0001
0000
0100
0000
0001
0010
0000
1000
0100
0000
0010
0100
0000
0001
1000
0000
,
0010
0000
1000
0000
0010
0000
0100
0001
0000
1000
0000
0010
0000
0100
0001
0000
,
0100
0000
1000
0000
0100
0010
0000
0001
1000
0000
0010
0100
0000
0001
0010
0000
,
2002
0000
0100
0000
0000
0000
3103
2020
,
0000
0000
0001
0000
0001
0000
0001
3030
,
2002
0000
0010
0000
0000
0000
3013
0202
,
0000
0000
1000
0000
1000
0000
1000
0303
,
1000
0001
0110
0001
1000
0001
0110
0001
,
1001
0000
0000
0010
0101
0000
0000
0000
1001
0000
0000
0100
1010
0000
0000
0000
,
2002
0000
0000
0000
0000
0000
0000
0000
0000
0000
0000
0000
0003
3000
0020
0000
0000
0000
0000
0000
0000
0000
0000
0030
0000
0000
0000
0000
0000
0000
0000
0000
0000
0000
0000
0000
0000
0000
0000
0000
0000
0000
0000
0000
0000
0000
0000
0000
0000
0000
0000
0000
0000
0000
0000
0000
0000
0000
0000
0000
0000
0000
0000
0000
;
