#TITLE:Contact;
#SUBTITLE:;
#ARTIST:Dragonland;
#TITLETRANSLIT:;
#SUBTITLETRANSLIT:;
#ARTISTTRANSLIT:;
#CREDIT:B. Abear;
#BANNER:Bn-Contact.png;
#BACKGROUND:Bg-Contact.png;
#LYRICSPATH:;
#CDTITLE:;
#MUSIC:3 - Contact.ogg;
#OFFSET:0.464;
#SAMPLESTART:99.240;
#SAMPLELENGTH:12.000;
#SELECTABLE:YES;
#BPMS:0.000=215.041,160.000=217.000,164.000=215.014,322.000=214.000,326.000=215.014,428.000=215.181,483.000=214.901,598.000=214.801,598.500=214.901,712.000=107.780,714.000=215.000,773.000=216.000,802.000=214.750,840.000=215.000,920.500=53.000;
#STOPS:86.000=-1.675
,912.500=-2.232
;
#BGCHANGES:;
// cache tags:
#FIRSTBEAT:20.000;
#LASTBEAT:923.500;
#SONGFILENAME:Songs/SSSC Pack 2/Contact - [cosmic pope]/3 - Contact.sm;
#HASMUSIC:1;
#HASBANNER:0;
#MUSICLENGTH:265.351;
// end cache tags

//---------------dance-single - B. Abear----------------
#NOTES:
     dance-single:
     B. Abear:
     Challenge:
     14:
     1.000,1.000,0.546,0.795,0.876,1744.000,145.000,211.000,163.000,1.000:



0000
0000
0000
0000
,
0000
0000
0000
0000
,
0000
0000
0000
0000
,
0000
0000
0000
0000
,
0000
0000
0000
0000
,
1000
0100
0001
0100
1000
0001
1000
0001
,
0100
1000
0100
0001
1000
0100
1000
0100
,
0020
0032
2003
3020
0230
0302
2003
3200
,
0320
0032
2003
3020
0230
0302
2003
0000
,
3001
0100
0010
1000
0001
0010
0001
1000
0100
0010
0100
1000
,
0001
0100
0001
1000
0100
0010
0001
1000
0001
1001
0000
0000
,
1000
0000
0100
0010
0100
0000
1000
0000
0001
1000
0001
0000
1000
0010
1000
0000
,
0010
0000
1000
0010
1000
0000
0001
0000
0100
0010
0100
0000
0010
1000
0010
0000
,
2000
3200
0320
0230
0320
0032
0203
0320
,
2030
3002
0203
0302
0023
0230
2300
3002
,
0203
0000
2300
0000
3200
0000
0302
0000
1003
0000
0010
0100
0010
0000
1000
0000
,
0001
1000
0001
0000
1000
0010
1000
0000
0100
0000
0010
0001
0010
0000
0100
0000
,
1000
0001
1000
0000
0001
0100
0001
0000
0040
0000
0001
0000
0000
0000
0100
0000
,
0000
0001
0000
0130
4000
0010
0000
0001
,
0000
0000
0010
0000
0000
0000
3001
0000
0100
0010
1000
0001
1000
0100
0010
0001
,
1000
0001
0100
0001
1000
0100
0010
0001
1000
0010
1000
0001
0100
0001
1000
0100
,
0010
0001
0100
0010
1000
0100
0010
0001
1000
0000
MMMM
0000
MMMM
0000
MMMM
0000
,
MMMM
MMMM
MMMM
0000
0000
0000
0000
0000
,
0000
0000
0000
0000
,
0001
0000
1000
0000
0001
0010
0100
0000
1000
0000
0001
0000
0100
0010
1000
0000
,
0001
0000
1000
0000
0010
0100
0001
0000
1000
0000
0100
0000
1000
0000
0100
0000
,
0010
0000
0001
0000
1000
0001
0100
0000
0010
0000
1000
0000
0001
0000
1000
0000
,
0001
0000
0010
0000
0001
1000
0010
0000
0100
0000
0010
0000
0100
0000
0001
0000
,
1000
0000
0001
0000
0010
0100
1000
0000
0001
0000
0010
0000
0100
0000
0010
0000
,
0001
0000
1000
0000
0100
1000
0010
0000
0100
0000
0001
0000
1000
0000
0001
0000
,
0010
0000
0100
0000
1000
0100
0010
0000
0100
0000
1000
0000
0001
0000
0100
0000
,
0010
0000
0100
0000
0001
0010
0100
0000
1000
0000
0001
0000
0010
0000
0001
0000
,
1002
0000
1003
0000
0100
0010
0001
0000
0100
0000
0001
0000
1000
0000
0100
0000
,
0010
0000
0001
0000
1000
0010
0100
0000
0001
0000
0100
0000
0010
0000
1000
0000
,
0001
0000
0100
0000
0010
0100
0001
0000
0010
0000
0100
0000
1000
0000
0001
0000
,
0011
0000
0010
0000
0100
1000
0001
0000
0100
0000
0010
0000
0100
0000
0001
0000
,
0101
0000
0100
0000
0010
1000
0001
0000
0010
0000
0100
0000
1000
0000
0001
0000
,
1000
0000
0001
0000
0010
0100
1000
0000
0001
0000
0100
0000
0010
0000
1000
0000
,
1001
0000
0001
0000
0100
0010
1000
0000
0001
0000
0010
0000
0001
0000
1000
0000
,
1100
0100
0010
0001
1000
0001
0101
0100
0010
1000
0001
1000
,
2002
0000
0000
0000
0000
0000
0000
3003
,
1100
0000
0100
0010
0000
0000
0011
0000
0001
0100
0000
0000
,
0110
0000
0010
1000
0000
0000
1001
0000
0001
0010
0000
0000
,
0110
0000
0010
0001
0000
0000
1001
0000
1000
0010
0100
0001
,
2002
3003
0100
0000
0022
0033
1000
0000
,
0202
0303
0010
0000
2020
3030
0100
0000
,
2002
0000
0000
3003
0000
0000
0001
0000
0100
0000
0010
0000
1000
0000
0001
0000
0010
0000
0100
0000
1000
0000
0001
0000
,
2000
3200
0320
0032
0023
0230
2300
3002
0203
0320
2030
3001
,
0102
0000
0000
0103
0010
1000
0002
0000
0000
0013
0100
1000
,
0200
0000
0000
1300
0001
0100
0020
0000
0000
1030
0100
0010
,
0002
0000
0000
0013
0100
1000
0200
0000
0000
1300
0001
0100
,
0020
0000
0000
0130
0001
1000
0002
0000
0000
1003
0010
0100
,
0020
0000
0000
0130
0001
0010
0200
0000
0000
0310
0001
1000
,
0002
0000
0000
1003
0010
0100
0002
0000
0000
1003
0100
0010
,
0200
0000
0000
1300
0001
0100
0002
0000
0000
0103
0010
1000
,
1MM1
0000
0001
0000
0010
0000
0100
0000
11MM
0000
1000
0001
0100
0001
1000
0010
,
0100
0001
0001
1000
0100
0100
0010
0001
,
0001
0100
0001
0001
0100
1000
0100
0010
,
1000
0100
0100
1000
0010
0010
20M2
0000
,
0M00
0000
00M0
0000
0M00
0000
00M0
3003
,
1000
0010
0010
0100
0001
0001
1000
0100
,
0100
0010
0001
0001
0010
1000
0010
0001
,
1000
0100
0010
0001
0100
0010
1000
0001
0010
0001
1000
0010
0100
0001
0010
0100
,
1000
0000
0000
0000
,
M22M
0330
2MM2
3003
1000
0010
1000
0100
,
1000
0000
0010
0000
1000
0000
0100
0000
0010
0001
1000
0000
0001
0000
0100
0000
,
0010
0100
0001
0000
1000
0000
0100
0000
0010
0001
0100
0000
0010
0000
1000
0000
,
0001
0100
0010
0000
1000
0000
0001
0000
0010
0100
1000
0000
0001
0000
0100
0000
,
0001
0010
0001
0100
0201
0301
1000
0100
,
0010
0001
0010
0000
0001
0000
1000
0000
2001
0000
3001
0000
0100
0000
0010
0000
,
1000
0000
0001
0000
0010
0000
0100
0000
1000
0000
0001
0100
0001
0000
1000
0000
,
0010
0100
0010
0000
1000
0001
1000
0000
1001
0000
0001
0010
0100
1000
0001
1000
,
0020
0230
0302
2003
3001
0100
0110
0010
,
1000
0001
0011
0010
0100
1000
1001
0001
,
0100
0010
1010
1000
0001
0010
0110
0100
,
1000
0001
0101
0100
0010
1000
1100
0100
,
0010
0001
1001
1000
0004
0100
0000
1000
,
0000
0100
0000
1003
0400
0010
0000
1300
,
0040
0100
0000
1030
0001
0100
0100
0001
,
1000
0000
0100
0000
0010
0000
0100
0000
0000
1000
0000
0000
0001
0000
0000
1000
0000
0000
0010
0000
0000
0100
0000
0000
,
0001
1000
0101
0000
1MM1
0000
1MM1
0000
,
1MM1
0000
0000
0000
1MM1
0000
0000
0000
0001
0100
0010
0100
0001
1000
0100
1000
,
0001
0100
0010
0100
0001
1000
0100
1000
0001
0010
0100
1000
0100
1000
0001
1000
,
0010
0100
0001
0100
0010
1000
0001
1000
0100
0010
0001
0100
0010
0100
0001
0100
,
0010
1000
0010
0100
0001
0100
0010
1000
0001
0010
0100
1000
0001
0010
0001
1000
,
0010
0100
0001
0100
0010
1000
0010
0100
0001
1000
0100
1000
0001
0100
0010
0100
,
0001
1000
0010
0100
0001
0100
0010
1000
0002
0000
0023
0000
0230
0000
2300
0000
,
3001
0000
0100
0010
0100
0000
0010
0000
1000
0001
1000
0000
0001
0010
0001
0000
,
1000
0000
0001
0010
0001
0000
1000
0000
0100
0010
0100
0000
1000
0001
1000
0000
,
0004
0100
0000
0100
0000
1000
0000
1003
,
0044
1000
0000
1000
0000
0100
0000
0133
,
0001
0010
0100
1000
0001
0010
0100
1000
0001
0010
0100
1000
0001
0010
0100
1000
,
0001
0100
0010
1000
0001
0100
0010
1000
0001
0100
0010
1000
0001
0100
0010
1000
,
0001
M000
0M00
00M0
000M
00M0
0M00
M000
,
1000
0000
0001
0000
1000
0100
0010
0000
0001
0000
1000
0000
0010
0100
0001
0000
,
1000
0000
0001
0000
0100
0010
1000
0000
0001
0000
0010
0000
0001
0000
0010
0000
,
0100
0000
1000
0000
0001
1000
0010
0000
0100
0000
0001
0000
1000
0000
0001
0000
,
1000
0000
0100
0000
1000
0001
0100
0000
0010
0000
0100
0000
0010
0000
1000
0000
,
0001
0000
1000
0000
0100
0010
0001
0000
1000
0000
0100
0000
0010
0000
0100
0000
,
1000
0000
0001
0000
0010
0001
0100
0000
0010
0000
1000
0000
0001
0000
1000
0000
,
0100
0000
0010
0000
0001
0010
0100
0000
0010
0000
0001
0000
1000
0000
0010
0000
,
0100
0000
0010
0000
1000
0100
0010
0000
0001
0000
1000
0000
0100
0000
1000
0000
,
2001
0000
3001
0000
0010
0100
1000
0000
0010
0000
1000
0000
0001
0000
0010
0000
,
0100
0000
1000
0000
0001
0100
0010
0000
1000
0000
0010
0000
0100
0000
0001
0000
,
1000
0000
0010
0000
0100
0010
1000
0000
0100
0000
0010
0000
0001
0000
1000
0000
,
1100
0000
0100
0000
0010
0001
1000
0000
0010
0000
0100
0000
0010
0000
1000
0000
,
1010
0000
0010
0000
0100
0001
1000
0000
0100
0000
0010
0000
0001
0000
1000
0000
,
0001
0000
1000
0000
0100
0010
0001
0000
1000
0000
0010
0000
0100
0000
0001
0000
,
1001
0000
1000
0000
0010
0100
0001
0000
1000
0000
0100
0000
1000
0000
0001
0000
,
0011
0010
0100
1000
0001
1000
1010
0010
0100
0001
1000
0001
,
1001
0000
0000
1000
0100
0010
0002
0000
0000
1003
0010
0100
,
0020
0000
0000
0130
0001
0010
0200
0000
0000
1300
0001
1000
,
0200
0000
0000
0310
0001
0100
0020
0000
0000
0130
0001
1000
,
0200
0000
0000
1300
0001
0100
0002
0000
0000
0103
0010
1000
,
0200
0000
0000
1300
0001
0010
0200
0000
0000
0310
0001
0010
,
0002
0000
0000
1003
0010
0100
0002
0000
0000
1003
0010
1000
,
0001
0010
0100
1000
0100
0010
0001
0010
0100
1000
0100
0010
,
0002
0203
0320
2030
3020
0230
0302
0203
0320
2030
3020
0230
,
0302
0000
0000
1003
0100
0010
0002
0000
0000
1003
0010
0100
,
0020
0000
0000
0130
0001
1000
0200
0000
0000
0310
0001
1000
,
0002
0000
0000
0103
0010
1000
0001
1000
0100
0010
0100
1000
,
0002
0000
0000
0103
0010
1000
0020
0000
0000
0130
0001
1000
,
0002
0000
0000
0013
0100
1000
0020
0000
0000
1030
0001
1000
,
0002
0000
0000
0013
0100
1000
0002
0000
0000
0103
0010
1000
,
00M2
0M00
M000
0M00
00M0
0M00
M000
0M00
,
00M0
0M00
M000
0M00
00M0
0M00
M000
0M03
,
20M2
0M00
00M0
0M00
00M0
0M00
00M0
0M00
,
00M0
0M00
00M0
0M00
00M0
0M00
00M0
3M03
,
1100
0000
0000
1000
0001
0100
0101
0000
0000
0001
1000
0100
,
0110
0000
0010
0001
1000
0001
0101
0100
0010
1000
0100
0010
,
0001
0100
0010
1000
0100
0010
0100
1000
,
0001
0100
0001
0000
0010
0000
0100
0000
1000
0000
0001
0000
0100
0000
0001
0000
,
2001
3010
0100
0001
0010
0100
0010
0001
,
0102
1003
0100
0010
0100
1000
0001
0010
,
0012
1003
0010
0100
0001
1000
0100
0010
,
0120
0130
1000
0001
0100
0010
1000
0001
,
1000
0001
1000
0000
0100
0000
0010
0000
0001
1000
0001
0000
0100
0001
0100
0000
,
0101
1000
1000
0101
2000
3002
2003
3002
,
0103
0010
1010
1000
0001
0010
0110
0100
,
1000
0001
0011
0010
0100
1000
1001
0001
,
0100
0010
1010
1000
0001
0010
0110
0100
,
1000
0001
0101
0100
0010
1000
1010
0010
,
M2M2
0000
0000
0000
0000
0000
0000
0303
,
2MM2
0000
0000
3003
22MM
0000
0000
3300
,
0220
0000
0000
1330
0220
0000
0000
0330
,
2002
0003
3001
0100
0010
0100
1000
0100
,
M101
0001
1000
1100
10M1
0000
0000
0000
,
0000
0000
1001
0101
,
0110
0000
101M
1001
0000
M011
1001
0000
,
0000
0000
0000
0000
2002
0000
0000
3003
,
0220
0000
0000
0000
,
0000
0000
0330
0MM0
0220
0000
0000
0330
,
1MM1
0000
0000
0000
,
MMM0
0000
0001
0100
0010
1000
0001
1000
0001
0010
0100
1000
0001
0000
0000
0000
,
2000
0000
3100
0020
0000
0031
020M
0000
,
0000
0000
0000
0000
0000
0310
1000
0001
1000
0000
0100
0000
0010
0000
0100
0000
,
2000
0000
0000
0000
0000
0000
0000
0000
0000
0000
0000
0000
0000
0000
0000
3002
0000
0000
0000
0000
0000
0000
0000
0000
0000
0000
0000
0000
0000
0000
0003
0000
0200
0000
0000
0000
0000
0000
0000
0000
0000
0000
0000
0000
0000
0000
0000
0000
0000
0000
0000
0000
0000
0000
0000
0000
0000
0000
0000
0000
0000
0000
0000
0000
0000
0000
0000
0000
0000
0000
0000
0000
0000
0000
0000
0000
0000
0000
0010
0000
0300
0000
0000
0000
0000
0000
0000
0000
0000
0000
0000
0000
0000
0000
0000
0000
0000
0000
0000
0000
0000
0000
0000
0000
0000
0000
0000
0000
0000
0000
0000
0000
0000
0000
0000
0000
0000
0000
0000
0000
0000
0000
0000
0000
1000
0000
0000
0000
0000
0000
0000
0000
0000
0000
0000
0000
0000
0000
0000
0000
0000
0000
0000
0000
0004
0000
0000
0000
0000
0000
0000
0000
0000
0000
0000
0000
0000
0000
0000
0000
0000
0000
0000
0000
0000
0000
0000
0000
0000
0000
0000
0000
0000
0000
0000
0000
0000
0000
0000
0000
0000
0000
0000
0000
0000
0000
0000
0000
0000
0000
0000
0000
,
0000
0000
0000
0000
1003
1000
0101
0000
,
0001
0100
0010
1000
0010
0100
0001
0100
0010
1000
0010
0100
,
0001
0000
0000
0000
0100
0000
0000
0000
0010
0000
0000
0000
1000
0000
0000
0000
0010
0000
0000
0000
0100
0000
0000
0000
0001
0000
0000
0010
0000
0000
0100
0000
0000
1000
0000
0000
0001
0000
0000
0000
0000
0000
0010
0000
0000
0000
0000
0000
,
0002
0100
0103
0020
1000
1030
0002
0010
,
1003
0000
0000
0000
0000
0000
1000
0000
0000
0000
0000
0000
0001
0000
0000
0100
0000
0000
0001
0000
0000
0000
1000
0000
0000
0000
0100
0000
0000
0000
0010
0000
0000
0000
0000
0000
0011
0000
0000
0000
0000
0000
0000
0000
0000
0000
0000
0000
,
0001
0100
0100
0010
1000
1000
0001
0010
,
0010
0100
1000
1000
0001
0100
1000
0100
,
0001
0010
0010
0100
1000
1000
0001
0100
,
0100
0010
1000
1000
0002
0000
0000
0003
,
0011
0010
0010
0100
1000
1000
0001
0100
,
0100
0010
1000
1000
0100
0001
0100
1000
,
0010
0100
0010
0000
1000
0001
1000
0000
0001
0010
0100
1000
0001
0010
0100
1000
,
0001
0100
0010
0100
0001
1000
0001
1000
0100
0010
0100
1000
0001
0000
0000
0000
,
1001
M00M
0001
0010
0100
0100
1000
0001
,
0001
0100
0010
0010
0100
1000
0100
0010
,
1000
0001
0000
0010
0000
0000
0100
0000
0000
0010
0001
0000
1000
0000
0000
0001
0000
0000
0202
0000
0000
0000
0000
0000
,
0000
0000
0000
0000
0000
0000
0000
0000
0000
0000
0000
0003
0002
0000
0000
0000
0000
0000
0000
0000
0000
0000
0000
0003
0002
0000
0000
0000
0000
0000
0000
0000
0000
0000
0000
0003
0002
0000
0000
0000
0000
0000
0300
0000
0000
0000
0000
0000
,
1003
0100
0010
0001
1000
0000
1000
0001
0100
0000
0001
0100
0010
1000
0001
0000
,
0010
0001
0010
0100
0010
0001
1000
0001
0100
0000
0100
0001
1000
0000
0000
0000
,
0001
0000
0000
0100
0000
0000
0001
0000
0000
0000
0000
0000
0000
0000
1000
0000
0000
0000
0000
0000
0000
0000
0001
0000
0000
0000
0000
0000
0000
0000
0010
0000
0000
0000
0000
0000
0000
0000
0100
0000
0000
0000
0000
0000
0000
0000
0000
0000
,
1000
0001
0100
0001
0100
0001
1000
0010
0100
0010
0100
0010
,
2M02
0000
00M0
0000
0M00
0000
00M0
3003
0002
0000
0000
0000
0000
0000
0000
0000
,
0000
0000
0000
0003
0000
0000
1000
0000
0100
0000
0010
0000
0200
0000
0000
0000
0000
0000
0000
0000
0000
2300
0000
0000
,
0000
3002
0403
0000
,
0000
0000
0000
0300
0010
1000
0001
0010
0100
1000
0001
1000
,
0001
0100
0010
1000
0001
0010
0100
0010
0001
1000
0010
1000
,
0010
0100
0001
0010
0100
1000
0004
0000
0000
0000
0000
0000
,
0000
0000
0000
0000
0000
0000
1003
0000
0100
0000
0010
0000
,
0001
0000
1000
0000
0001
0000
0200
0000
0301
1000
0001
1000
,
0200
0000
0310
0001
1000
0001
0400
0000
0000
0000
0000
0000
,
0300
0000
0010
1000
0001
0010
0100
1000
0100
0010
0001
0100
,
0010
1000
0001
1000
0001
0010
0100
1000
0001
0100
0010
0100
,
0010
0100
0001
1000
0100
0010
0004
0000
0000
0000
0000
0000
,
0000
0003
2000
0000
3400
0000
0320
0000
,
0034
2003
3004
0100
,
0100
0000
0103
0000
1001
1100
0000
0110
,
0010
0001
1000
0000
1001
0000
0000
0000
0001
0000
1000
0000
1000
0000
0100
0000
,
0010
0010
0001
0100
0100
0010
1000
1000
,
0100
0001
0100
1000
0001
0100
0100
0010
,
1000
1000
2002
0000
0000
0000
0000
0000
,
0000
0000
3003
0001
1000
0010
0010
0100
,
0001
0001
1000
0100
0100
0010
0001
0001
,
0100
0000
1000
0000
0100
0000
0010
0000
1000
0100
0010
0001
1000
0000
1000
0001
,
0100
0001
1000
0010
0100
0001
0010
0100
4000
0000
0000
0000
0000
0000
0000
0000
,
0000
0000
0000
0000
0000
0000
0000
0000
0000
0000
0000
0000
0000
0000
0000
3000
0M22
0000
0000
0000
0033
0000
0000
0000
2MM2
0000
0000
0000
3003
0000
0000
0000
,
0001
0100
0001
0010
0001
0100
0001
1000
,
0010
0000
0100
0000
0001
0000
0010
0000
0100
0000
1000
0000
0001
1000
0010
0000
,
1020
0000
1030
0000
0001
1000
0100
0000
0010
0000
0001
0000
1000
0001
0100
0000
,
0201
0000
0301
0000
1000
0010
0100
0000
0001
0000
1000
0000
0001
0010
0100
0000
,
0210
0000
0310
0000
0001
1000
0010
0000
0100
0000
0001
0000
1000
0010
0100
0000
,
0201
0000
0301
0000
1000
0100
0010
0000
0100
0000
1000
0000
0001
0100
0001
0000
,
1000
0000
0010
0100
0010
0000
0100
0000
0001
1000
0001
0000
1000
0001
1000
0000
,
1001
0100
0010
1001
0200
0320
0230
0320
,
1030
0001
0011
0010
0100
1000
1001
0001
,
0100
0010
1010
1000
0001
0010
0110
0100
,
1000
0001
0101
0100
0010
1000
1100
0100
,
0010
0001
0011
0010
0100
1000
1010
0010
,
2MM2
0000
0000
0000
0000
0000
0000
3003
,
22MM
0000
0000
3300
M22M
0000
0000
0330
,
MM22
0000
0000
0033
2MM2
0000
0000
3003
,
2M2M
0000
0000
3030
M2M2
0000
0000
0303
,
0001
0000
1000
0001
0010
0000
0100
0000
1000
0001
1000
0000
0001
0100
0001
0000
,
0100
0000
0010
1000
0100
0000
0010
0000
0001
0010
0001
0000
1000
0100
1000
0000
,
0004
0100
0000
1000
0000
0100
0000
0013
,
0400
1000
0000
0010
0000
1000
0000
0310
,
0002
0000
0023
0000
0230
0000
2300
0000
3001
0000
0100
0010
1000
0000
0001
0000
,
0010
0100
0010
0000
0100
1000
0100
0000
1000
0000
0001
0100
0010
0000
0100
0000
,
0010
1000
0010
0000
0100
0001
0100
0000
0040
0000
1000
0000
0000
0000
1000
0000
,
0000
0100
0000
0130
0044
1000
0000
1000
,
0000
0000
0100
0000
0000
0000
0133
0000
0101
0000
0001
0100
0010
0000
1010
0000
,
1000
0001
1000
0000
0001
0010
0001
0000
0011
0000
0110
0000
1100
0000
1001
0000
,
0110
0000
0000
1MM1
0000
0000
M00M
0000
0MM0
0000
M00M
0000
0MM0
0000
M00M
0000
0MM0
0000
M00M
0000
0MM0
0000
M00M
0000
,
0MM0
M00M
0MM0
M00M
0000
0000
0000
0000
0000
0000
0000
0000
,
0000
0000
0000
0MM0
M00M
M00M
M00M
0MM0
;
