#TITLE:Blue Planet;
#SUBTITLE:;
#ARTIST:Izayoi Sak;
#TITLETRANSLIT:;
#SUBTITLETRANSLIT:;
#ARTISTTRANSLIT:;
#CREDIT:;
#BANNER:brueplanet-bn.png;
#BACKGROUND:bruepranet-bg.png;
#LYRICSPATH:;
#CDTITLE:!KillerS.png;
#MUSIC:blue planet.mp3;
#OFFSET:0.860;
#SAMPLESTART:117.500;
#SAMPLELENGTH:14.000;
#SELECTABLE:YES;
#BPMS:0.000=147.000,367.000=333.319;
#STOPS:;
#BGCHANGES:;
// cache tags:
#FIRSTBEAT:4.000;
#LASTBEAT:367.750;
#SONGFILENAME:Songs/Definitive Keyboard Megapack/Blue Planet (Killers)/blue planet.sm;
#HASMUSIC:1;
#HASBANNER:1;
#MUSICLENGTH:149.446;
// end cache tags

//---------------dance-single - ----------------
#NOTES:
     dance-single:
     :
     Hard:
     12:
     1.000,1.000,1.000,0.027,1.000,1110.000,241.000,4.000,37.000,47.000:
0000
0000
0000
0000
,
1101
0000
0000
0111
0000
0000
1011
0000
,
0000
1101
0000
0000
1110
1110
0101
0110
,
0110
0000
0000
1011
0000
0000
0111
0000
,
0000
1101
0000
0000
0110
0110
0110
0011
,
1100
0000
0000
0111
0000
0000
1011
0000
,
0000
1100
0000
0000
0110
0110
0110
0011
,
1110
0000
0000
0110
0000
0000
0011
0000
,
0010
1100
0000
0100
0011
0000
0010
0100
0010
1000
0001
0000
0110
0000
0110
0000
,
0001
0010
1000
0010
0000
0100
0010
0100
1000
0100
0010
0001
0000
0010
0100
0010
,
1000
0100
0100
0010
0010
0001
0001
0100
1000
0010
0100
0010
0100
0010
0100
0000
,
0100
0010
1000
0001
0000
0010
0100
0010
1000
0001
0100
0010
0000
0100
0010
1000
,
0001
1000
0100
0010
1000
1000
0100
0100
0001
0100
0010
0100
0010
0010
0100
0000
,
1000
0100
0010
1000
0000
0100
0010
1000
0001
0100
0010
1000
0000
0010
0100
0010
,
1000
0001
0100
0010
1000
0100
0010
1000
0100
0010
0100
0001
0010
1000
0010
0000
,
0010
0100
0010
1000
0000
0010
0100
0010
1000
0100
0010
0100
0000
0001
0010
0100
,
1000
0010
0100
0001
0100
0010
1000
0100
0010
1000
0100
0010
1000
0001
0010
0000
,
0110
1000
0010
0100
0000
0110
0001
1000
0100
0010
1000
0101
0000
0110
0001
1000
,
0100
0010
1000
0100
0010
1000
0010
0100
0001
0100
0010
1000
0010
1000
0111
0000
,
1110
0001
0100
0011
0000
0110
1000
0100
0010
1000
0010
1101
0000
0111
1000
0100
,
0010
1000
0010
0100
0001
1000
0100
0010
1000
0001
0100
0010
1000
0100
1010
0000
,
0111
1000
0100
1011
0000
0001
0100
0010
1000
0100
0010
1000
0000
0010
0100
0010
,
1000
0001
1000
0100
1000
0100
1000
0001
0100
0010
1000
0100
0010
1000
0100
0000
,
0110
0100
0010
0100
0000
0110
0001
0010
1000
0100
1000
0110
0000
0001
0010
0100
,
1000
0010
0100
1000
0100
0010
1000
0001
0100
1000
0010
1000
0010
0001
0010
1000
,
0111
0000
0000
0100
0000
0000
0010
0000
1001
0000
0000
1000
0110
0000
0110
0000
,
1101
0000
0010
0100
0000
0000
0100
0010
0000
0000
0010
0100
0000
0000
0010
1000
,
0000
0000
0100
0001
0000
0000
0010
0100
0000
0000
1000
0100
1000
0100
0001
0010
,
0100
0000
0010
0100
0000
0000
1000
0100
0000
0000
0001
0010
0000
0000
0100
0010
,
0000
0000
0100
0010
0000
0000
0100
1000
0000
0000
0010
1000
0010
0100
0001
0100
,
1000
0000
0010
0100
0000
0000
0001
0010
0000
0000
1000
0100
0000
0000
0010
0100
,
0000
0000
1000
0100
0000
0000
0001
0010
0000
0000
1000
0100
1000
0001
1000
0100
,
0010
0000
0001
0010
0000
0000
1000
0100
0000
0000
0010
0100
0000
0000
0100
0010
,
0101
1010
0000
0101
1010
0000
0110
1000
0011
1000
0110
0000
0011
0000
0011
0000
,
0111
0000
0010
0100
0000
0000
1000
0100
0000
0000
0001
0010
0000
0000
0100
0010
,
0000
0000
0010
0100
0000
0000
1000
0100
0000
0000
0001
1000
0010
0100
0010
1000
,
0001
0000
0010
0100
0000
0000
0001
0010
0000
0000
1000
0100
0000
0000
0010
0100
,
0000
0000
0010
0100
0000
0000
0001
0010
0000
0000
1000
0100
0010
1000
0001
0010
,
0100
0000
1000
0100
0000
0000
0010
1000
0000
0000
0010
0001
0000
0000
0100
0001
,
0000
0000
0010
0100
0000
0000
0100
0010
0000
0000
0001
0010
0100
1000
0100
0010
,
1000
0000
0100
0010
0000
0000
1000
0001
0000
0000
0010
0001
0000
0000
0100
0010
,
1100
0011
0000
0110
1100
0000
0011
0100
0011
1000
0110
0000
0011
0000
1011
0000
,
0010
0100
1000
0001
1000
0100
0010
1000
0100
0010
0100
0001
0100
0010
1000
0100
,
0010
0000
1000
0000
0001
0000
0100
0000
0010
0000
1000
0000
0001
0000
1000
0000
0100
0000
0010
0000
1000
0100
0010
0001
0010
0000
1000
0000
1000
0100
0010
0001
,
0100
0010
1000
0001
0100
0010
1000
0100
0010
1000
0100
0010
1000
0001
0100
0010
,
0100
0000
0001
0000
0100
0000
1000
0000
0100
0000
0010
0000
0100
0000
0010
0000
0001
0000
0100
0000
0001
0010
0100
1000
0001
0000
0100
0000
1000
0100
0010
0001
,
1000
0010
0100
0001
1000
0100
0010
0100
0001
0100
0010
1000
0100
0010
0100
0001
,
0010
0000
0100
0000
1000
0000
0001
0000
1000
0000
0100
0000
0010
0000
0100
0000
0001
0000
0100
0000
0001
0010
0100
1000
0100
0000
0010
0000
0001
0010
0100
1000
,
0100
0010
1000
0100
0010
0001
0100
1000
0010
1000
0100
0001
0100
0010
1000
0001
,
0110
0101
0000
0110
1010
0000
0011
0100
1010
0100
0011
0000
0011
0000
0011
0000
,
0010
0100
0010
1000
0001
1000
0100
1000
0100
0010
1000
0100
0010
0001
0100
0010
,
0100
0000
1000
0000
0001
0000
1000
0000
0100
0000
0010
0000
1000
0000
0100
0000
1000
0000
0001
0000
1000
0100
0010
0001
0010
0000
0100
0000
1000
0100
0010
0001
,
0010
0100
1000
0010
0100
0001
0100
0010
1000
0100
0010
1000
0001
0100
0010
1000
,
0100
0000
0010
0000
1000
0000
0100
0000
0010
0000
0001
0000
0100
0000
0010
0000
0100
0000
0001
0000
1000
0100
0010
0001
0010
0000
0100
0000
1000
0100
0010
0001
,
0010
0100
0010
1000
0100
0010
1000
0100
0010
0001
0010
0100
0010
1000
0100
0010
,
0001
0000
0100
0000
0010
0000
0100
0000
0001
0000
1000
0000
0100
0000
0010
0000
0100
0000
0001
0000
1000
0100
0010
0001
0010
0000
0100
0000
1000
0100
0010
0001
,
0010
0100
0010
1000
0001
0100
0010
1000
0100
0010
1000
0100
0001
0010
1000
0100
,
0110
1010
0000
0110
0101
0000
0011
0100
1001
0100
1010
0000
0101
0000
1110
0000
,
0111
0000
0000
1110
0000
0000
1111
0000
,
0000
1111
0000
0000
0011
0110
1110
0011
,
1111
0000
0000
0011
0000
0000
1110
0000
,
0000
1111
0000
0000
0111
0110
0011
0110
,
0111
1100
0000
0000
0110
0000
0000
0011
,
0110
0000
0000
0000
0000
0110
0000
0000
0110
0000
0000
0000
0000
0011
0000
0000
,
0110
0000
0000
0000
0000
1100
0000
0000
0000
0110
0000
0000
0011
0000
0000
0000
,
0110
0000
0000
0110
0000
0000
0000
0011
0000
0000
0000
0110
0000
0000
0000
0011
0100
0010
1000
0100
0010
0000
0010
0000
0100
1000
0100
0010
0001
1000
0000
0000
,
1001
0010
0100
0010
0000
1001
0010
0100
0010
1000
0010
0101
0000
1001
0100
0010
,
0100
0001
0100
1010
0100
0010
0100
0001
0100
0010
1000
0101
0010
0001
1110
0000
,
0111
1000
0100
0011
0000
0011
1000
0100
0010
0001
0100
1011
0000
0101
0010
0100
,
1000
0011
0100
1010
0100
0011
0100
1010
0100
0011
0100
1010
0001
0110
1001
0000
,
0111
1000
0100
0010
0000
0111
1000
0100
1000
0001
1000
0101
0000
0110
1000
0001
,
0100
0010
1000
0110
1000
0101
1000
0110
0001
1010
0100
1001
0010
0101
1000
0000
,
0110
0001
0010
0101
0000
0110
0001
0010
1000
0100
0010
1001
0000
0110
0001
1000
,
0100
0010
0100
1010
0001
0110
1000
0110
0001
1010
0001
0110
1000
0101
1020
0000
,
0000
0000
0030
0000
0111
1000
0100
0011
0100
1000
0010
0100
0001
1000
0100
0010
,
1000
0001
0100
0010
1000
0100
0010
1000
0100
0001
0100
1000
0010
0100
1000
0000
,
0101
0010
0100
1001
0000
0101
0010
1000
0100
0001
0100
1010
0000
0101
0010
0100
,
1000
0010
0100
1001
0100
0011
0100
1010
0001
1010
0001
0110
1000
0101
1000
0000
,
0110
0001
0010
1000
0000
0110
0001
1000
0100
0010
1000
0101
0000
0110
1000
0001
,
1000
0100
0010
1001
0010
0101
0010
1001
0100
1010
0100
1001
0010
0101
0010
0000
,
0111
1000
0001
0100
0000
0011
1000
0100
0010
1000
0001
0110
0000
0011
0100
0010
,
1000
0001
0100
1010
0100
1001
0100
0011
1000
0101
1000
0101
1000
0110
0001
0000
,
1111
0010
0100
0001
0000
0111
1000
0100
0010
1000
0001
0100
0000
0011
0100
1000
,
0010
1000
0100
0011
1000
0110
1000
0101
1000
0110
0001
1010
0001
1010
0001
0000
,
0111
1000
0100
0010
0000
0011
1000
0100
1000
0001
0010
1001
0000
0110
0001
1000
,
0100
0010
0001
0110
1000
0101
1000
0101
1000
0110
0001
1010
0001
1010
0100
0000
,
0110
0001
1000
0100
0000
0110
0001
1000
0100
0010
0100
0001
0000
0110
0001
1000
,
0100
0010
0001
0110
0001
1010
0001
1010
0001
0110
1000
0101
1000
0101
0010
0000
,
0110
0001
1000
0100
0000
0110
0001
1000
0100
0010
1000
0100
0000
0011
0100
1000
,
0010
0100
0001
1000
0100
0010
1000
0100
1000
0001
0100
0010
1000
0100
0010
0100
,
1010
1001
0101
0110
1001
1010
0101
0101
,
1111
0000
0000
0000
0000
0000
0000
0000
0000
0000
0000
0000
0110
0000
0000
0000
0000
0000
0000
0000
0000
0000
0000
0000
0111
0000
0000
0000
0000
0000
0000
0000
1110
0000
0000
0000
0001
0000
0000
0000
0010
0000
0000
0000
0100
0000
0000
0000
2M22
0M00
0M00
0M00
3M33
MMMM
MMMM
MMMM
MMMM
MMMM
MMMM
MMMM
MMMM
0000
0000
0000
;
