#TITLE:Papaoutai;
#SUBTITLE:Feels The Arrow;
#ARTIST:Stromae;
#TITLETRANSLIT:;
#SUBTITLETRANSLIT:;
#ARTISTTRANSLIT:;
#CREDIT:Ov3rHell3XoduZ;
#BANNER:../bn.png;
#BACKGROUND:../bg.png;
#LYRICSPATH:;
#CDTITLE:;
#MUSIC:Stromae - Papaoutai.ogg;
#OFFSET:0.722;
#SAMPLESTART:44.739;
#SAMPLELENGTH:11.840;
#SELECTABLE:YES;
#BPMS:0.000=116.100,159.000=110.000,160.000=116.100,190.500=108.000,191.000=116.100,319.000=135.000,320.000=116.100,350.250=200.000,352.000=116.100,415.000=110.000,416.000=116.100;
#STOPS:;
#BGCHANGES:;
// cache tags:
#FIRSTBEAT:2.000;
#LASTBEAT:448.000;
#SONGFILENAME:Songs/EXoduz' Feels The Arrow/Papaoutai - [Ov3rHell3XoduZ]/Stromae - Papaoutai.sm;
#HASMUSIC:1;
#HASBANNER:1;
#MUSICLENGTH:232.640;
// end cache tags

//---------------dance-single - Ov3rHell3XoduZ----------------
#NOTES:
     dance-single:
     Ov3rHell3XoduZ:
     Challenge:
     11:
     0.712,0.794,0.069,0.206,1.000,1095.000,16.000,48.000,0.000,0.000:

0000
0000
2002
0000
,
0000
0000
0000
0000
3003
0000
0000
0000
0000
0202
0000
0000
0303
0000
0220
0000
0000
0000
0330
0000
2020
0000
0000
0000
0000
0000
0000
0000
3030
0000
0000
0000
,
0000
0000
2200
0000
0000
0000
0000
0000
0000
0000
0000
0000
0000
0000
0000
0000
3300
0000
0000
0220
0000
0000
0000
0000
0000
0000
0000
0000
0000
0000
0000
0000
,
0000
0000
0000
0330
0022
0000
0000
0000
,
0000
0000
0000
0000
0033
0000
0000
0000
0000
0002
0000
0000
0000
0203
0000
0000
0000
0000
0000
0000
0320
0000
0000
0000
0000
0000
0000
0000
0000
0000
0000
0000
,
0000
2030
0000
0000
0000
0000
0000
0000
0000
0000
0000
0000
0000
0000
0000
0000
0000
0000
0000
0000
0000
0000
0000
0000
0000
0000
0000
0000
0000
0000
0000
0000
,
0000
0000
0000
0000
,
0000
0000
0000
0000
0000
0000
0000
0000
0000
0000
0000
0000
3100
0000
0010
0001
,
0000
1000
0100
0000
0010
0000
0000
0000
0001
0000
0100
0000
0010
0000
1000
0100
,
0000
0010
0001
0000
1000
0000
0000
0000
0001
0000
0100
0000
0001
0000
1000
0100
,
0000
1000
0000
0010
0000
0100
0000
0000
0001
0000
0010
0000
0100
0000
1000
0010
,
0000
0100
0000
0001
0000
0010
0000
0000
0100
0000
1000
0000
0010
0000
0100
0001
,
0000
0100
0001
0000
0010
0000
0000
0000
0100
0000
1000
0000
0001
0000
0010
0100
,
0000
0010
0100
0000
1000
0000
0000
0000
0010
0000
0100
0000
0001
0000
0010
0100
,
0000
1000
0010
0000
0100
0000
0000
0000
0001
0000
0010
0000
0100
0000
1000
0001
,
0000
1000
0010
0000
0100
0000
0000
0000
0001
0000
0010
0000
0110
0000
0100
1000
,
0000
0010
0100
0000
0001
0000
0000
0010
0000
0000
0100
0000
1000
0000
0001
0100
,
0000
0010
1000
0000
0100
0000
0000
0010
0000
0000
0001
0000
0101
0000
0010
1000
,
0000
0000
0010
0000
1000
0000
0000
0000
0100
0010
0001
1000
0100
0000
0010
0000
0000
0000
0000
0000
0001
0000
0000
0000
0100
0000
0000
0000
0010
0000
1000
0000
,
0000
0100
0010
0000
0001
0000
0000
0100
0000
0000
0010
0000
1000
0000
0100
0010
,
0000
0001
0100
0000
0010
0000
0000
1000
0000
0000
0100
0000
0010
0000
0001
0100
,
0000
0010
1000
0000
0100
0000
0000
0010
0000
0000
0001
0000
0100
0000
0010
1000
,
0000
0100
0010
0000
0001
0000
0000
0100
0001
0000
0010
0000
0100
0000
0000
1000
,
0000
0001
0100
0000
0010
0000
0000
0000
1000
0000
0100
0000
0110
0001
0000
1000
,
0100
0000
0000
0000
1000
0100
1000
0100
1000
0000
0001
0000
0000
0000
1000
0000
0100
0000
0000
0000
1000
0000
0001
0000
0100
0000
0000
0000
0000
0000
0010
0000
,
1000
0001
1000
0001
0010
0000
0000
0000
0010
0000
0001
0000
0000
0000
1000
0000
0100
0010
0001
0000
1000
0000
0000
0000
0001
0000
0100
0000
0010
0000
1000
0000
,
0100
0000
0010
0001
1000
0000
0100
0010
0001
0000
1000
0000
0000
0000
1000
0000
0100
0000
0000
0000
0010
0000
0000
0000
0011
0000
0000
0000
0001
0100
0000
0000
,
0010
0000
0000
0000
1000
0100
0000
0000
0010
0000
0001
0000
0000
0000
1000
0000
0001
0000
0000
0000
0100
0000
0000
0000
0110
0000
0000
0000
0010
1000
0001
0000
,
0100
0000
0000
0000
0010
0000
1000
0000
0000
0000
0001
0100
0010
0000
1000
0000
0001
0000
0000
0000
0100
0000
0010
1000
0200
0000
0000
0000
0000
0000
0000
0000
,
0310
0000
0000
0000
0001
0000
0000
0000
1000
0000
0001
0000
0000
0000
0100
0010
1000
0000
0000
0000
0100
0000
0000
0000
0010
0001
0010
0001
1000
0000
0000
0000
,
0001
0000
0000
0000
0100
0000
0000
0000
0010
0000
1000
0000
0000
0000
0100
0010
0001
0000
0000
0000
1000
0000
0000
0000
0001
0000
0000
0000
0100
0010
0000
0000
,
1000
0000
0000
0000
0100
0010
0000
0000
0000
0000
0001
0000
0000
0000
1000
0000
0100
0000
0000
0000
0010
0000
0001
0000
1000
0010
1000
0010
0000
0000
0100
0000
,
0001
0000
0010
0100
1000
0000
0000
0000
0000
0000
0001
0100
0010
1000
0000
0100
,
0010
0000
0000
0000
0001
0000
1000
0100
0010
0000
0000
0000
0000
0000
0000
0000
0001
0000
0000
0000
1000
0100
1000
0100
1000
0000
0001
0000
0000
0000
0100
0000
,
0010
0000
0000
0000
1000
0000
0000
0000
0100
0000
0000
0000
0000
0000
0000
0000
0010
0000
0000
0000
0001
1000
0100
0000
0010
0000
0000
0000
0001
0000
0100
0000
,
0010
0000
0000
0000
1000
0000
0000
0000
1000
0000
0000
0000
0000
0000
0000
0000
0001
0000
0000
0000
0100
0010
0100
0010
1000
0000
0100
0000
0000
0000
0010
0000
,
0001
0000
0000
0000
1000
0000
0000
0000
0001
0000
0000
0000
0000
0000
0000
0000
0100
0000
0000
0000
0010
0000
1000
0000
0001
0100
0010
0000
1000
0000
0001
0000
,
0100
0000
0000
0000
0010
0000
0000
0000
1000
0000
0000
0000
0000
0000
0000
0000
0010
0000
0000
0000
1000
0100
0010
0001
1000
0000
0001
0000
0000
0000
1000
0000
,
0100
0000
0010
0000
0001
0000
0000
0000
1000
0000
0100
0000
0010
0001
0000
1000
,
0010
0100
0001
0000
1000
0100
0011
0000
,
0000
1000
0001
0000
0100
0000
0000
0010
1000
0100
0000
0010
0001
1000
0100
1000
,
0010
0100
0001
0010
0001
1000
0100
1000
0010
0100
0001
0010
0001
1000
0001
0100
,
0001
1000
0010
0100
0001
0010
0001
1000
0100
0010
0001
1000
0010
0100
0001
0010
,
0001
1000
0100
0010
0001
1000
0010
1000
0100
0010
0001
1000
0001
0000
0000
0100
,
0010
0000
1000
0000
0100
0010
0001
1000
0100
1000
0001
0100
0001
0000
0000
0010
,
0100
0000
1000
0000
0001
0100
0010
1000
0100
0010
0001
0000
1000
0100
0000
1000
,
0000
0000
0000
0000
0010
0000
0000
0000
0100
0000
0001
0000
0000
0000
0000
0000
1000
0000
0100
0000
0010
0000
0001
0000
1000
0001
0100
0000
0010
1000
0000
0000
,
0001
0000
0000
1000
0001
1000
0100
1000
0100
0000
0010
0000
0001
0000
1000
0000
0100
0000
0010
0001
1000
0000
0000
0000
1000
0000
0100
0000
1000
0000
0010
0000
,
0100
0001
0010
0100
1000
0001
0100
0001
1000
0100
0010
0001
1000
0010
1000
0100
,
0010
0001
1000
0001
1000
0100
1000
0010
0100
0010
1000
0100
0010
0001
1000
0001
,
1000
0001
0100
0001
0010
0100
1000
0010
0100
0001
1000
0100
1000
0001
0100
0001
,
1000
0100
1000
0001
1000
0001
1000
0100
1000
0010
0100
0001
0010
0001
1000
0100
,
0010
0001
1000
0001
0100
0001
0010
0100
1000
0100
1000
0010
0100
0001
0010
0001
,
1000
0100
0010
0001
1000
0000
0000
0000
0001
0000
0100
0000
0000
0000
0000
0010
,
0000
0000
1000
0000
0100
0000
0010
0000
0001
0000
1000
0000
0000
0000
0000
0001
,
0000
0100
0010
0000
1000
0000
0000
0000
1100
0000
0100
0000
0010
0001
1000
0100
,
1000
0010
0100
0001
0010
0001
1000
0100
0010
0001
1000
0010
1000
0010
0100
0001
,
0010
0001
1000
0100
0010
0001
1000
0001
0100
0010
1000
0010
1000
0100
0010
0001
,
1000
0000
0100
0000
1000
0000
0010
0000
0100
0000
0001
0000
0100
0000
0001
0000
0010
0000
0100
0000
1000
0000
0001
0000
0100
0000
0000
0000
0010
1000
0000
0000
,
0100
0000
0000
0000
0010
0001
0000
0000
1000
0000
0100
0000
1000
0000
0010
0000
0100
0000
0001
0000
0010
0000
0100
0000
1000
0000
0001
0000
0100
0000
0001
0000
,
1000
0100
1000
0100
0010
0001
1000
0010
0100
0001
0010
0001
0010
0100
1000
0001
,
0100
0001
1000
0100
0010
0001
1000
0001
1000
0010
0100
0001
0010
0001
0010
0100
,
1000
0000
0010
0000
0100
0000
0001
0000
1000
0000
0100
0000
1000
0000
0100
0000
0010
0000
0001
0000
1000
0000
0010
0000
0100
0000
0000
0000
0001
0010
0000
0000
,
0100
0000
0000
0000
1000
0010
0000
0000
0100
0000
0001
0000
0010
0000
0100
0000
1000
0000
0010
0000
0100
0001
0010
0001
0010
0000
0100
0000
0000
0000
1000
0000
,
0010
0000
0100
0000
0001
0000
0000
0000
1000
0000
0000
0000
0001
0100
0000
0010
,
1000
0000
0000
0000
0100
0000
0000
0000
0010
0000
0000
0000
0000
0000
0000
0000
0001
0000
0000
0000
0100
0010
0100
0010
1000
0000
0100
0000
0000
0000
0010
0000
,
0001
0000
1000
0000
0001
0000
0000
0000
0100
0000
0010
1000
0001
0000
0010
0100
,
1000
0000
0000
0000
0010
0000
0000
0000
0100
0000
0000
0000
0000
0000
0000
0000
0001
0000
0000
0000
1000
0100
0010
0001
1000
0000
0100
0000
0000
0000
0010
0000
,
0001
0000
1000
0000
0100
0000
0000
0000
0000
0000
0000
0000
0010
0000
0001
0100
,
0010
0000
0000
0000
1000
0000
0000
0000
1000
0000
0000
0000
0000
0000
0000
0000
0100
0000
0000
0000
0010
0001
0010
0001
1000
0000
0001
0000
0000
0000
1000
0000
,
0100
0000
0010
0000
0001
0000
0000
0000
0100
0000
0010
1000
0100
0000
0010
0001
,
1000
0001
0001
0000
1100
1100
0000
0000
,
0000
0000
0000
0000
,
0000
0000
0000
0000
,
0000
0000
0000
0000
,
0000
0000
0000
0000
,
0000
0000
0000
0000
,
0000
0000
0000
0000
,
0000
0000
0000
0000
,
0000
0000
0000
0000
,
1000
0100
0000
0000
0010
0000
0001
0000
0000
0000
1000
0000
0000
0000
0100
0000
0000
0000
0010
0000
0000
0000
0000
0000
0000
0010
0001
0000
0000
0000
1000
0000
,
0010
0000
0100
0001
0000
0010
0000
0100
0000
1000
0000
0000
0000
1000
0000
0000
,
0001
0000
0100
0000
0010
1000
0100
0000
0010
0000
0001
0000
1000
0000
0100
0010
0001
1000
0001
0000
0000
0000
0000
0000
0000
0000
0100
0000
0000
0000
0000
0000
,
0010
0010
1000
0100
0000
0010
0000
0001
0000
0000
0000
1000
0001
0100
0000
0000
,
0000
0000
0010
0000
0000
0000
1000
0100
0010
0000
0001
0000
1000
0000
0100
0000
0000
0000
0010
0000
0001
0000
0100
0000
0000
0000
0010
0000
0000
0000
0000
0000
,
1000
0000
0000
0100
0000
0010
0000
0000
0000
0001
0000
0100
0000
0000
0000
0000
,
0010
0000
0000
1000
0000
0100
0000
0010
0000
0001
0000
0100
0000
0000
0000
0000
,
0010
0000
0000
0000
1000
0100
0000
0000
0000
0000
0010
0000
0000
0000
0000
0000
0000
0000
0001
0000
0000
0000
0000
0000
0000
0000
0000
0000
0000
0000
0000
0000
,
1000
0100
1000
0001
0100
0001
0010
0100
1000
0010
0100
0010
1000
0100
0010
0001
,
1000
0001
0100
0010
1000
0100
1000
0001
0010
0100
1000
0001
0100
0001
1000
0100
,
0010
0001
1000
0010
1000
0001
0010
0100
1000
0010
0100
0010
1000
0100
0010
0001
,
1000
0001
0100
0010
1000
0100
0010
0001
1000
0010
0100
0001
0010
0100
1000
0001
,
0100
0010
1000
0100
1000
0010
0100
0001
0010
0100
1000
0001
0100
0010
1000
0001
,
0010
0100
1000
0010
0100
0001
1000
0100
1000
0010
0100
0001
0010
0100
1000
0010
,
0100
0001
1000
0100
1000
0001
0100
0010
1000
0001
0010
0001
1000
0100
0010
0001
,
1000
0010
0100
0010
1000
0100
0010
0001
1000
0100
1000
0001
0100
0010
1000
0001
,
0010
0001
1000
0100
0010
0100
1000
0010
0100
0001
1000
0100
1000
0001
0100
0010
,
1000
0001
0010
0001
1000
0100
1000
0010
0100
0001
1000
0100
1000
0001
0100
0010
,
1000
0001
0010
0001
1000
0100
1000
0010
0100
0001
1000
0100
1000
0010
0100
0001
,
0010
0001
1000
0100
0010
0001
1000
0100
1000
0001
0100
0010
1000
0001
0010
0001
,
1000
0100
0010
0100
1000
0010
0100
0001
1000
0100
1000
0001
0100
0010
1000
0001
,
0010
0001
1000
0100
1000
0001
0100
0010
1000
0001
0010
0001
1000
0100
0010
0001
,
1000
0001
0100
0001
0010
0100
1000
0010
0100
0010
1000
0100
0010
0001
1000
0001
,
0100
0001
0010
0100
1000
0010
0100
0010
1000
0100
0010
0100
1000
0010
0100
0010
,
2000
3200
0320
0032
,
2003
3200
2300
3020
,
0230
0302
0023
0230
,
2300
0000
0000
0000
3002
0000
0000
0000
2003
0000
0000
0000
3100
0000
0010
0001
,
2000
3200
2300
3020
,
0230
0302
2003
3200
,
2300
3002
0203
0302
,
0023
0000
0000
0000
0130
0000
1000
0001
0200
0000
0000
0000
0000
0000
0000
0000
,
0300
0000
0000
0000
;
