#TITLE:California Gurls;
#SUBTITLE:Sexuality Violation;
#ARTIST:Katy Perry feat. Snoop Dogg;
#TITLETRANSLIT:;
#SUBTITLETRANSLIT:;
#ARTISTTRANSLIT:;
#CREDIT:;
#BANNER:California Gurls-bn.png;
#BACKGROUND:California Gurls-bg.png;
#LYRICSPATH:;
#CDTITLE:GazeboCD.png;
#MUSIC:California Gurls.ogg;
#OFFSET:-0.069;
#SAMPLESTART:53.826;
#SAMPLELENGTH:15.362;
#SELECTABLE:YES;
#BPMS:0.000=250.000;
#STOPS:;
#BGCHANGES:;
// cache tags:
#FIRSTBEAT:32.000;
#LASTBEAT:838.000;
#SONGFILENAME:Songs/Sexuality Violation 2/California Gurls - [Gazebo]/California Gurls.sm;
#HASMUSIC:1;
#HASBANNER:1;
#MUSICLENGTH:203.125;
// end cache tags

//---------------dance-single - Gazebo----------------
#NOTES:
     dance-single:
     Gazebo:
     Challenge:
     18:
     1.000,1.000,0.354,0.315,0.906,1349.000,72.000,64.000,8.000,0.000:
0000
0000
0000
0000
,
0000
0000
0000
0000
,
0000
0000
0000
0000
,
0000
0000
0000
0000
,
0000
0000
0000
0000
,
0000
0000
0000
0000
,
0000
0000
0000
0000
,
0000
0000
0000
0000
,
1000
0000
0000
0000
0101
0000
0000
0010
,
1000
0100
0011
0001
,
1000
0000
0000
0000
0110
0000
0000
0001
,
1000
0001
1100
0100
,
0010
0000
0010
0000
1001
0000
0001
1000
,
0010
1000
0101
0000
,
0010
0000
0000
0000
1001
0000
0000
1000
,
0100
1000
0011
0001
,
0100
0000
0000
0000
1010
0000
0000
0100
,
0001
0010
1100
1000
,
0001
0000
0000
0000
0110
0000
0000
1000
,
0001
1000
0011
0010
,
0100
0000
0100
0000
1001
0000
1000
0001
,
0100
0001
1010
0000
,
0100
0000
0000
0000
1001
0000
0000
0001
,
0010
0001
0000
0000
1100
0000
1000
0000
,
0001
0000
0001
0000
0101
0000
0000
0010
,
1000
0100
0011
0001
,
1000
0000
0000
0000
0110
0000
0000
0001
,
1000
0001
1100
0100
,
0010
0000
0010
0000
1001
0000
0001
1000
,
0010
1000
0101
0000
,
0010
0000
0000
0000
1001
0000
0000
1000
,
0100
1000
0011
0001
,
0100
0000
0000
0000
1010
0000
0000
0100
,
0001
0010
1100
1000
,
0001
0000
0000
0000
0110
0000
0000
1000
,
0001
1000
0011
0010
,
0100
0000
0100
0000
1001
0000
1000
0001
,
0100
0001
1010
0000
,
0100
0000
0000
0000
1001
0000
0000
0001
,
0010
0001
1000
0000
1100
0000
0001
0000
,
1000
0000
0010
0100
0010
0000
0100
0010
,
0100
0000
0001
0100
0001
0000
1000
0001
,
0010
0000
0001
0010
0001
0000
0010
0001
,
0010
0000
0001
0010
0001
0000
1000
0001
,
0100
0000
0001
0100
0010
0000
0100
0010
,
1000
0000
0001
0100
0001
0000
0100
0001
,
4000
0000
3400
0000
,
0340
0000
0034
0000
,
1003
0000
0010
0100
0010
0000
0100
0010
,
0100
0000
0001
0100
0001
0000
1000
0001
,
0010
0000
0001
0010
0001
0000
0010
0001
,
0010
0000
0001
0010
0100
0000
1000
0001
,
0100
0000
0001
0100
0010
0000
0100
0010
,
1000
0000
0010
1000
0010
0000
1000
0001
,
1000
0000
0000
0000
1100
0000
0000
1000
,
0001
1000
0000
0000
0011
0000
0001
0000
,
1000
0100
1000
0100
0010
0001
1000
0100
0010
0100
1000
0001
0010
0001
0010
0100
,
1000
0001
0010
0100
0010
0001
1000
0001
1000
0100
0010
0001
1000
0000
0000
0000
,
0000
0001
0010
0100
,
1000
1000
0010
0100
,
0001
1000
0001
1000
0010
0100
0010
1000
0001
0100
0001
1000
0010
1000
0001
0100
,
0010
1000
0010
1000
0001
0100
0010
1000
0001
0000
0000
0000
2000
0000
0000
0000
,
3000
1000
0200
0000
,
0310
0001
0010
0001
,
1000
0100
1000
0100
0010
0001
1000
0100
0010
0100
1000
0001
0010
0001
0010
0100
,
1000
0001
0010
0100
0010
0001
1000
0001
1000
0100
0010
0001
1000
0000
0000
0000
,
0000
0001
0010
0100
,
1000
1000
0010
0100
,
0001
0020
0230
0320
,
0230
0320
0031
1000
,
0000
0020
0230
0320
,
0230
0320
1030
0001
,
1000
0100
0010
0001
1000
0100
1000
0001
0010
0100
1000
0001
0010
0001
1000
0001
,
1000
0100
0010
0001
1000
0100
1000
0001
0010
0100
1000
0001
1000
0001
0100
0010
,
0100
0001
1000
0001
0100
0010
1000
0001
1000
0010
0100
0001
1000
0001
1000
0100
,
0010
0001
0010
0100
1000
0001
0010
0001
1000
0010
1000
0001
0100
0010
0100
0001
,
1000
0010
0100
0001
1000
0010
1000
0001
0100
0010
1000
0001
0100
0001
1000
0001
,
1000
0010
0100
0001
1000
0010
1000
0001
0100
0010
1000
0001
1000
0001
0010
0100
,
1000
0001
0010
0001
0010
0100
1000
0001
1000
0100
0010
0001
1000
0100
1000
0001
,
0100
0001
0100
0010
1000
0010
0100
0001
1000
0001
0100
0010
0100
0001
1000
0001
,
1000
0100
0010
0001
1000
0100
1000
0001
0010
0100
1000
0001
0010
0001
1000
0001
,
1000
0100
0010
0001
1000
0100
1000
0001
0010
0100
1000
0001
1000
0001
0100
0010
,
0100
0001
1000
0001
0100
0010
1000
0001
1000
0010
0100
0001
1000
0001
1000
0100
,
0010
0001
0010
0100
1000
0001
0010
0001
1000
0010
1000
0001
0100
0010
0100
0001
,
1000
0020
0230
0320
,
0230
0320
1030
0001
,
0000
0020
0230
0320
,
0230
0320
0031
1000
,
0001
0000
0000
0000
1100
0000
0000
0010
,
0001
0100
1010
1000
,
0001
0000
0000
0000
0110
0000
0000
1000
,
0001
1000
0101
0100
,
0010
0000
0010
0000
1001
0000
1000
0001
,
0010
0001
1100
0000
,
0010
0000
0000
0000
1001
0000
0000
0001
,
0100
0001
1010
1000
,
0100
0000
0000
0000
0011
0000
0000
0100
,
1000
0010
0101
0001
,
1000
0000
0000
0000
0110
0000
0000
0001
,
1000
0001
1010
0010
,
0100
0000
0000
0000
1001
0000
0001
1000
,
0100
1000
0011
0000
,
0100
0000
0000
0000
1001
0000
0000
0001
,
0010
0001
0000
0000
1100
0000
1000
0000
,
0001
0000
0010
0100
0010
0000
0100
0010
,
0100
0000
1000
0100
1000
0000
0001
1000
,
0010
0000
1000
0010
1000
0000
0010
1000
,
0010
0000
1000
0010
1000
0000
0001
1000
,
0100
0000
1000
0100
0010
0000
0100
0010
,
0001
0000
1000
0100
1000
0000
0100
1000
,
0004
0000
0403
0000
,
0340
0000
4030
0000
,
3001
0000
0010
0100
0010
0000
0100
0010
,
0100
0000
1000
0100
1000
0000
0001
1000
,
0010
0000
1000
0010
1000
0000
0010
1000
,
0010
0000
1000
0010
0100
0000
0001
1000
,
0100
0000
1000
0100
0010
0000
0100
0010
,
0001
0000
0010
0001
0010
0000
0001
1000
,
0001
0000
0000
0000
0101
0000
0000
0001
,
1000
0001
0000
0000
1010
0000
1000
0000
,
0001
0100
0001
0100
0010
1000
0001
0100
0010
0100
0001
1000
0010
1000
0010
0100
,
0001
1000
0010
0100
0010
1000
0001
1000
0001
0100
0010
1000
0001
0000
0000
0000
,
0000
1000
0010
0100
,
0001
0001
0010
0100
,
1000
0001
1000
0001
0010
0100
0010
0001
1000
0100
1000
0001
0010
0001
1000
0100
,
0010
0001
0010
0001
1000
0100
0010
0001
1000
0000
0000
0000
0002
0000
0000
0000
,
0003
0001
0200
0000
,
0310
1000
0010
1000
,
0001
0100
0001
0100
0010
1000
0001
0100
0010
0100
0001
1000
0010
1000
0010
0100
,
0001
1000
0010
0100
0010
1000
0001
1000
0001
0100
0010
1000
0001
0000
0000
0000
,
0000
1000
0010
0100
,
0001
0001
0010
0100
,
1000
0020
0230
0320
,
0230
0320
1030
0001
,
0000
0020
0230
0320
,
0230
0320
0031
1000
,
0001
0100
0010
1000
0001
0100
0001
1000
0010
0100
0001
1000
0010
1000
0001
1000
,
0001
0100
0010
1000
0001
0100
0001
1000
0010
0100
0001
1000
0001
1000
0100
0010
,
0100
1000
0001
1000
0100
0010
0001
1000
0001
0010
0100
1000
0001
1000
0001
0100
,
0010
1000
0010
0100
0001
1000
0010
1000
0001
0010
0001
1000
0100
0010
0100
1000
,
0001
0010
0100
1000
0001
0010
0001
1000
0100
0010
0001
1000
0100
1000
0001
1000
,
0001
0010
0100
1000
0001
0010
0001
1000
0100
0010
0001
1000
0001
1000
0010
0100
,
0001
1000
0010
1000
0010
0100
0001
1000
0001
0100
0010
1000
0001
0100
0001
1000
,
0100
1000
0100
0010
0001
0010
0100
1000
0001
1000
0100
0010
0100
1000
0001
1000
,
0001
0100
0010
1000
0001
0100
0001
1000
0010
0100
0001
1000
0010
1000
0001
1000
,
0001
0100
0010
1000
0001
0100
0001
1000
0010
0100
0001
1000
0001
1000
0100
0010
,
0100
1000
0001
1000
0100
0010
0001
1000
0001
0010
0100
1000
0001
1000
0001
0100
,
0010
1000
0010
0100
0001
1000
0010
1000
0001
0010
0001
1000
0100
0010
0100
1000
,
0001
0020
0230
0320
,
0230
0320
0031
1000
,
0000
0020
0230
0320
,
0230
0320
1030
0001
,
1001
0000
0011
0000
,
0110
0000
0100
0000
1000
0001
0000
0000
,
1000
0000
0100
1000
0010
0000
0100
0001
,
1000
0000
0001
0000
0010
0100
0000
0000
,
1001
0000
1001
0000
,
0101
0000
0110
0000
,
1000
0000
0010
1000
0010
0000
1000
0001
,
0000
0100
0001
0000
1000
0100
1000
0100
,
0010
0000
0000
0001
1000
0000
0001
0000
,
0100
0000
0001
1000
0000
0000
0000
0000
,
1010
1000
1100
1000
,
1001
0001
0010
0100
,
M22M
M00M
M00M
M33M
0000
0000
0000
1000
,
0001
0000
1000
0010
0000
1000
0001
0000
,
0001
0100
0000
0000
1001
0000
0000
1000
,
0100
0010
0001
1000
0000
0000
0001
0000
,
0100
0000
0010
1000
0000
0001
0000
0000
,
0010
0001
0000
1000
0000
0100
1000
0000
,
0010
0000
0000
1000
0000
0000
0000
0000
0000
0001
0000
0000
1000
0000
0000
0000
0100
0000
0000
0000
0010
0000
0000
0000
,
0001
0000
1000
0000
1001
0000
0000
0001
,
0100
0010
0000
1000
,
0002
0003
2002
3003
,
1000
0000
0000
0000
0001
0010
0000
0001
,
0000
1000
0001
0000
0100
0000
0010
0000
,
1001
0000
0000
1000
0000
0000
0000
0000
,
0001
0000
0010
0001
0000
0000
0000
0000
,
0200
0320
0230
0300
,
0020
0000
0230
0302
0000
0003
0000
1000
,
0001
0001
0010
0100
,
0100
1000
0001
0001
,
0100
0000
0010
0000
0010
1000
0000
0001
,
1000
0000
0100
0010
0002
0000
0000
0000
,
1003
0000
0000
0000
0000
0000
0001
0000
0100
0000
0001
0000
,
1000
0100
0022
0033
,
0000
0000
0000
1000
0001
0010
0001
0000
,
1000
0000
0000
0010
0000
0000
0202
0303
,
0202
0303
0000
0001
1000
0000
0001
0000
,
1000
0000
0100
0000
0000
0000
1000
0001
,
0010
0000
0000
0001
1000
0000
0010
0000
,
0100
0001
0100
0000
0100
0000
0010
1000
,
0001
0100
0001
1000
0001
1000
0010
0100
0010
1000
0001
1000
0001
0010
0100
1000
,
0100
1000
0001
1000
0001
0010
0100
1000
0001
1000
0001
0010
0100
0010
0001
1000
,
0001
0000
0100
0000
0001
0000
1000
0001
,
0100
0010
0100
0001
0100
0010
1000
0001
1000
0001
0010
0100
1000
0100
0010
0001
,
1000
0010
1000
0001
1000
0001
0100
0010
0100
0001
1000
0001
1000
0100
0010
0001
,
0010
0001
1000
0001
1000
0100
0010
0001
1000
0000
0000
0000
0001
0100
0010
1000
,
0010
0100
0001
1000
0010
1000
0001
0100
0001
0000
0000
0000
1000
0000
0100
0000
,
0010
0100
0010
0001
0010
0100
1000
0001
1000
0001
0100
0010
0100
0001
0100
0001
,
1000
0100
1000
0001
1000
0001
0010
0100
0010
0001
1000
0001
1000
0010
0100
0001
,
0100
0001
1000
0001
1000
0010
0100
0001
1000
0001
1000
0010
0100
0010
1000
0001
,
1000
0000
0100
0000
0010
0000
0001
1000
,
0010
0100
0010
1000
0010
0100
0001
1000
0001
1000
0100
0010
0001
0010
0100
1000
,
0001
0100
0001
1000
0001
1000
0010
0100
0010
1000
0001
1000
0001
0010
0100
1000
,
0100
1000
0001
1000
0001
0010
0100
1000
0001
0000
0000
0000
1000
0010
0100
0001
,
0100
0010
1000
0001
0100
0001
1000
0010
1000
0000
0000
0000
0001
0000
0100
0000
,
0010
1000
0000
0000
0001
0000
0001
0000
,
2000
0000
0000
0200
,
0000
0000
3300
0000
;

//---------------dance-single - Gazebo----------------
#NOTES:
     dance-single:
     Gazebo:
     Hard:
     16:
     0.952,1.000,0.354,0.315,0.581,1211.000,72.000,64.000,8.000,0.000:
0000
0000
0000
0000
,
0000
0000
0000
0000
,
0000
0000
0000
0000
,
0000
0000
0000
0000
,
0000
0000
0000
0000
,
0000
0000
0000
0000
,
0000
0000
0000
0000
,
0000
0000
0000
0000
,
1000
0000
0000
0000
0101
0000
0000
0010
,
1000
0100
0011
0001
,
1000
0000
0000
0000
0110
0000
0000
0001
,
1000
0001
1100
0100
,
0010
0000
0010
0000
1001
0000
0001
1000
,
0010
1000
0101
0000
,
0010
0000
0000
0000
1001
0000
0000
1000
,
0100
1000
0011
0001
,
0100
0000
0000
0000
1010
0000
0000
0100
,
0001
0010
1100
1000
,
0001
0000
0000
0000
0110
0000
0000
1000
,
0001
1000
0011
0010
,
0100
0000
0100
0000
1001
0000
1000
0001
,
0100
0001
1010
0000
,
0100
0000
0000
0000
1001
0000
0000
0001
,
0010
0001
0000
0000
1100
0000
1000
0000
,
0001
0000
0001
0000
0101
0000
0000
0010
,
1000
0100
0011
0001
,
1000
0000
0000
0000
0110
0000
0000
0001
,
1000
0001
1100
0100
,
0010
0000
0010
0000
1001
0000
0001
1000
,
0010
1000
0101
0000
,
0010
0000
0000
0000
1001
0000
0000
1000
,
0100
1000
0011
0001
,
0100
0000
0000
0000
1010
0000
0000
0100
,
0001
0010
1100
1000
,
0001
0000
0000
0000
0110
0000
0000
1000
,
0001
1000
0011
0010
,
0100
0000
0100
0000
1001
0000
1000
0001
,
0100
0001
1010
0000
,
0100
0000
0000
0000
1001
0000
0000
0001
,
0010
0001
1000
0000
1100
0000
0001
0000
,
1000
0000
0010
0100
0010
0000
0100
0010
,
0100
0000
0001
0100
0001
0000
1000
0001
,
0010
0000
0001
0010
0001
0000
0010
0001
,
0010
0000
0001
0010
0001
0000
1000
0001
,
0100
0000
0001
0100
0010
0000
0100
0010
,
1000
0000
0001
0100
0001
0000
0100
0001
,
4000
0000
3400
0000
,
0340
0000
0034
0000
,
1003
0000
0010
0100
0010
0000
0100
0010
,
0100
0000
0001
0100
0001
0000
1000
0001
,
0010
0000
0001
0010
0001
0000
0010
0001
,
0010
0000
0001
0010
0100
0000
1000
0001
,
0100
0000
0001
0100
0010
0000
0100
0010
,
1000
0000
0010
1000
0010
0000
1000
0001
,
1000
0000
0000
0000
1100
0000
0000
1000
,
0001
1000
0000
0000
0011
0000
0001
0000
,
1000
0100
1000
0100
0010
0001
1000
0100
0010
0100
1000
0001
0010
0001
0010
0100
,
1000
0001
0010
0100
0010
0001
1000
0001
1000
0100
0010
0001
1000
0000
0000
0000
,
0000
0001
0010
0100
,
1000
1000
0010
0100
,
0001
1000
0001
1000
0010
0100
0010
1000
0001
0100
0001
1000
0010
1000
0001
0100
,
0010
1000
0010
1000
0001
0100
0010
1000
0001
0000
0000
0000
2000
0000
0000
0000
,
3000
1000
0200
0000
,
0310
0001
0010
0001
,
1000
0100
1000
0100
0010
0001
1000
0100
0010
0100
1000
0001
0010
0001
0010
0100
,
1000
0001
0010
0100
0010
0001
1000
0001
1000
0100
0010
0001
1000
0000
0000
0000
,
0000
0001
0010
0100
,
1000
1000
0010
0100
,
0001
0020
0230
0320
,
0230
0320
0031
1000
,
0000
0020
0230
0320
,
0230
0320
1030
0001
,
1000
0100
0010
0001
1000
0100
1000
0001
0010
0100
1000
0001
0010
0001
1000
0001
,
1000
0100
0010
0001
1000
0100
1000
0001
0010
0100
1000
0001
1000
0001
0100
0010
,
1000
0001
0100
0001
1000
0001
0010
0100
,
1000
0100
0010
0001
1000
0010
1000
0001
,
1000
0010
0100
0001
1000
0010
1000
0001
0100
0010
1000
0001
0100
0001
1000
0001
,
1000
0010
0100
0001
1000
0010
1000
0001
0100
0010
1000
0001
1000
0001
0010
0100
,
1000
0001
0010
0001
0100
0010
0100
0010
,
1000
0001
0010
0100
1000
0001
0010
0001
,
1000
0100
0010
0001
1000
0100
1000
0001
0010
0100
1000
0001
0010
0001
1000
0001
,
1000
0100
0010
0001
1000
0100
1000
0001
0010
0100
1000
0001
1000
0001
0100
0010
,
1000
0001
0100
0001
1000
0001
0010
0100
,
1000
0100
0010
0001
1000
0010
1000
0001
,
1000
0020
0230
0320
,
0230
0320
1030
0001
,
0000
0020
0230
0320
,
0230
0320
0031
1000
,
0001
0000
0000
0000
1100
0000
0000
0010
,
0001
0100
1010
1000
,
0001
0000
0000
0000
0110
0000
0000
1000
,
0001
1000
0101
0100
,
0010
0000
0010
0000
1001
0000
1000
0001
,
0010
0001
1100
0000
,
0010
0000
0000
0000
1001
0000
0000
0001
,
0100
0001
1010
1000
,
0100
0000
0000
0000
0011
0000
0000
0100
,
1000
0010
0101
0001
,
1000
0000
0000
0000
0110
0000
0000
0001
,
1000
0001
1010
0010
,
0100
0000
0000
0000
1001
0000
0001
1000
,
0100
1000
0011
0000
,
0100
0000
0000
0000
1001
0000
0000
0001
,
0010
0001
0000
0000
1100
0000
1000
0000
,
0001
0000
0010
0100
0010
0000
0100
0010
,
0100
0000
1000
0100
1000
0000
0001
1000
,
0010
0000
1000
0010
1000
0000
0010
1000
,
0010
0000
1000
0010
1000
0000
0001
1000
,
0100
0000
1000
0100
0010
0000
0100
0010
,
0001
0000
1000
0100
1000
0000
0100
1000
,
0004
0000
0403
0000
,
0340
0000
4030
0000
,
3001
0000
0010
0100
0010
0000
0100
0010
,
0100
0000
1000
0100
1000
0000
0001
1000
,
0010
0000
1000
0010
1000
0000
0010
1000
,
0010
0000
1000
0010
0100
0000
0001
1000
,
0100
0000
1000
0100
0010
0000
0100
0010
,
0001
0000
0010
0001
0010
0000
0001
1000
,
0001
0000
0000
0000
0101
0000
0000
0001
,
1000
0001
0000
0000
1010
0000
1000
0000
,
0001
0100
0001
0100
0010
1000
0001
0100
0010
0100
0001
1000
0010
1000
0010
0100
,
0001
1000
0010
0100
0010
1000
0001
1000
0001
0100
0010
1000
0001
0000
0000
0000
,
0000
1000
0010
0100
,
0001
0001
0010
0100
,
1000
0001
1000
0001
0010
0100
0010
0001
1000
0100
1000
0001
0010
0001
1000
0100
,
0010
0001
0010
0001
1000
0100
0010
0001
1000
0000
0000
0000
0002
0000
0000
0000
,
0003
0001
0200
0000
,
0310
1000
0010
1000
,
0001
0100
0001
0100
0010
1000
0001
0100
0010
0100
0001
1000
0010
1000
0010
0100
,
0001
1000
0010
0100
0010
1000
0001
1000
0001
0100
0010
1000
0001
0000
0000
0000
,
0000
1000
0010
0100
,
0001
0001
0010
0100
,
1000
0020
0230
0320
,
0230
0320
1030
0001
,
0000
0020
0230
0320
,
0230
0320
0031
1000
,
0001
0100
0010
1000
0001
0100
0001
1000
0010
0100
0001
1000
0010
1000
0001
1000
,
0001
0100
0010
1000
0001
0100
0001
1000
0010
0100
0001
1000
0001
1000
0100
0010
,
0001
1000
0100
1000
0001
1000
0010
0100
,
0001
0100
0010
1000
0001
0010
0001
1000
,
0001
0010
0100
1000
0001
0010
0001
1000
0100
0010
0001
1000
0100
1000
0001
1000
,
0001
0010
0100
1000
0001
0010
0001
1000
0100
0010
0001
1000
0001
1000
0010
0100
,
0001
1000
0010
1000
0100
0010
0100
0010
,
0001
1000
0010
0100
0001
1000
0010
1000
,
0001
0100
0010
1000
0001
0100
0001
1000
0010
0100
0001
1000
0010
1000
0001
1000
,
0001
0100
0010
1000
0001
0100
0001
1000
0010
0100
0001
1000
0001
1000
0100
0010
,
0001
1000
0100
1000
0001
1000
0010
0100
,
0001
0100
0010
1000
0001
0010
0001
1000
,
0001
0020
0230
0320
,
0230
0320
0031
1000
,
0000
0020
0230
0320
,
0230
0320
1030
0001
,
1001
0000
0011
0000
,
0110
0000
0100
0000
1000
0001
0000
0000
,
1000
0000
0100
1000
0010
0000
0100
0001
,
1000
0000
0001
0000
0010
0100
0000
0000
,
1001
0000
1001
0000
,
0101
0000
0110
0000
,
1000
0000
0010
1000
0010
0000
1000
0001
,
0000
0100
0001
0000
1000
0100
1000
0100
,
0010
0000
0000
0001
1000
0000
0001
0000
,
0100
0000
0001
1000
0000
0000
0000
0000
,
1010
1000
1100
1000
,
1001
0001
0010
0100
,
M22M
M00M
M00M
M33M
0000
0000
0000
1000
,
0001
0000
1000
0010
0000
1000
0001
0000
,
0001
0100
0000
0000
1001
0000
0000
1000
,
0100
0010
0001
1000
0000
0000
0001
0000
,
0100
0000
0010
1000
0000
0001
0000
0000
,
0010
0001
0000
1000
0000
0100
1000
0000
,
0010
0000
0000
1000
0000
0000
0000
0000
0000
0001
0000
0000
1000
0000
0000
0000
0100
0000
0000
0000
0010
0000
0000
0000
,
0001
0000
1000
0000
1001
0000
0000
0001
,
0100
0010
0000
1000
,
0002
0003
2002
3003
,
1000
0000
0000
0000
0001
0010
0000
0001
,
0000
1000
0001
0000
0100
0000
0010
0000
,
1001
0000
0000
1000
0000
0000
0000
0000
,
0001
0000
0010
0001
0000
0000
0000
0000
,
0200
0320
0230
0300
,
0020
0000
0230
0302
0000
0003
0000
1000
,
0001
0001
0010
0100
,
0100
1000
0001
0001
,
0100
0000
0010
0000
0010
1000
0000
0001
,
1000
0000
0100
0010
0002
0000
0000
0000
,
1003
0000
0000
0000
0000
0000
0001
0000
0100
0000
0001
0000
,
1000
0100
0022
0033
,
0000
0000
0000
1000
0001
0010
0001
0000
,
1000
0000
0000
0010
0000
0000
0202
0303
,
0202
0303
0000
0001
1000
0000
0001
0000
,
1000
0000
0100
0000
0000
0000
1000
0001
,
0010
0000
0000
0001
1000
0000
0010
0000
,
0100
0001
0100
0000
0100
0000
0010
1000
,
0001
0100
0001
1000
0001
1000
0010
0100
0010
1000
0001
1000
0001
0010
0100
1000
,
0100
1000
0001
1000
0001
0010
0100
1000
0001
1000
0001
0010
0100
0010
0001
1000
,
0001
0000
0100
0000
0001
0000
1000
0001
,
0010
0100
0010
0000
0001
0100
0001
0000
,
1000
0010
1000
0001
1000
0001
0100
0010
0100
0001
1000
0001
1000
0100
0010
0001
,
0010
0001
1000
0001
1000
0100
0010
0001
1000
0000
0000
0000
0001
0000
0100
0000
,
0010
1000
0100
0010
0001
0000
1000
0001
,
0100
0010
0100
0000
0001
0010
0001
0000
,
1000
0100
1000
0001
1000
0001
0010
0100
0010
0001
1000
0001
1000
0010
0100
0001
,
0100
0001
1000
0001
1000
0010
0100
0001
1000
0001
1000
0010
0100
0010
1000
0001
,
1000
0000
0010
0000
0100
0000
0001
1000
,
0100
0010
0100
0000
1000
0010
1000
0000
,
0001
0100
0001
1000
0001
1000
0010
0100
0010
1000
0001
1000
0001
0010
0100
1000
,
0100
1000
0001
1000
0001
0010
0100
1000
0001
0000
0000
0000
1000
0000
0010
0000
,
0100
0001
0010
0100
1000
0000
0001
0100
,
0010
1000
0000
0000
0001
0000
0001
0000
,
2000
0000
0000
0200
,
0000
0000
3300
0000
;

//---------------dance-single - Gazebo----------------
#NOTES:
     dance-single:
     Gazebo:
     Medium:
     13:
     0.915,1.000,0.354,0.315,0.876,1159.000,72.000,64.000,8.000,0.000:

0000
0000
0000
0000
,
0000
0000
0000
0000
,
0000
0000
0000
0000
,
0000
0000
0000
0000
,
0000
0000
0000
0000
,
0000
0000
0000
0000
,
0000
0000
0000
0000
,
0000
0000
0000
0000
,
1000
0000
0000
0000
0101
0000
0000
0010
,
1000
0100
0011
0001
,
1000
0000
0000
0000
0110
0000
0000
0001
,
1000
0001
1100
0100
,
0010
0000
0010
0000
1001
0000
0001
1000
,
0010
1000
0101
0000
,
0010
0000
0000
0000
1001
0000
0000
1000
,
0100
1000
0011
0001
,
0100
0000
0000
0000
1010
0000
0000
0100
,
0001
0010
1100
1000
,
0001
0000
0000
0000
0110
0000
0000
1000
,
0001
1000
0011
0010
,
0100
0000
0100
0000
1001
0000
1000
0001
,
0100
0001
1010
0000
,
0100
0000
0000
0000
1001
0000
0000
0001
,
0010
0001
0000
0000
1100
0000
1000
0000
,
0001
0000
0001
0000
0101
0000
0000
0010
,
1000
0100
0011
0001
,
1000
0000
0000
0000
0110
0000
0000
0001
,
1000
0001
1100
0100
,
0010
0000
0010
0000
1001
0000
0001
1000
,
0010
1000
0101
0000
,
0010
0000
0000
0000
1001
0000
0000
1000
,
0100
1000
0011
0001
,
0100
0000
0000
0000
1010
0000
0000
0100
,
0001
0010
1100
1000
,
0001
0000
0000
0000
0110
0000
0000
1000
,
0001
1000
0011
0010
,
0100
0000
0100
0000
1001
0000
1000
0001
,
0100
0001
1010
0000
,
0100
0000
0000
0000
1001
0000
0000
0001
,
0010
0001
1000
0000
1100
0000
0001
0000
,
1000
0000
0010
0100
0010
0000
0100
0010
,
0100
0000
0001
0100
0001
0000
1000
0001
,
0010
0000
0001
0010
0001
0000
0010
0001
,
0010
0000
0001
0010
0001
0000
1000
0001
,
0100
0000
0001
0100
0010
0000
0100
0010
,
1000
0000
0001
0100
0001
0000
0100
0001
,
4000
0000
3400
0000
,
0340
0000
0034
0000
,
1003
0000
0010
0100
0010
0000
0100
0010
,
0100
0000
0001
0100
0001
0000
1000
0001
,
0010
0000
0001
0010
0001
0000
0010
0001
,
0010
0000
0001
0010
0100
0000
1000
0001
,
0100
0000
0001
0100
0010
0000
0100
0010
,
1000
0000
0010
1000
0010
0000
1000
0001
,
1000
0000
0000
0000
1100
0000
0000
1000
,
0001
1000
0000
0000
0011
0000
0001
0000
,
1000
0100
1000
0100
0010
0001
1000
0100
1000
0100
0010
0001
,
1000
0010
1000
0010
0100
0001
0010
0100
1000
0001
0000
0000
,
0000
0001
0100
0010
,
1000
1000
0100
0010
,
0001
0010
0001
0010
0100
1000
0001
0010
0001
0010
0100
1000
,
0001
0100
0001
0100
0010
1000
0001
0000
0000
2000
0000
0000
,
3000
1000
0200
0000
,
0310
0001
0010
0001
,
1000
0010
1000
0010
0100
0001
1000
0010
1000
0010
0100
0001
,
1000
0100
1000
0100
0010
0001
0100
0010
1000
0001
0000
0000
,
0000
0001
0010
0100
,
1000
1000
0010
0100
,
0001
0020
0230
0320
,
0230
0320
0031
1000
,
0000
0020
0230
0320
,
0230
0320
1030
0001
,
1000
0100
1000
0100
0010
0001
1000
0100
1000
0100
0010
0001
,
1000
0010
1000
0010
0100
0001
0010
0100
1000
0001
0010
0001
,
0010
0100
1000
0001
0100
0001
1000
0010
1000
0001
0010
0001
,
1000
0100
0010
0001
0010
0100
1000
0001
0100
0001
0100
0001
,
1000
0100
1000
0100
0010
0001
1000
0100
1000
0100
0010
0001
,
1000
0010
1000
0010
0100
0001
1000
0010
1000
0001
0010
0100
,
0010
0100
1000
0001
0010
0001
1000
0010
0100
0001
0100
0010
,
1000
0001
0010
0001
1000
0001
1000
0010
1000
0001
0100
0001
,
1000
0100
1000
0100
0010
0001
1000
0100
1000
0100
0010
0001
,
1000
0010
1000
0010
0100
0001
0010
0100
1000
0001
0010
0001
,
0010
0100
1000
0001
0100
0001
1000
0010
1000
0001
0010
0001
,
1000
0100
0010
0001
0010
0100
1000
0001
0100
0001
0010
0001
,
1000
0020
0230
0320
,
0230
0320
1030
0001
,
0000
0020
0230
0320
,
0230
0320
0031
1000
,
0001
0000
0000
0000
1100
0000
0000
0010
,
0001
0100
1010
1000
,
0001
0000
0000
0000
0110
0000
0000
1000
,
0001
1000
0101
0100
,
0010
0000
0010
0000
1001
0000
1000
0001
,
0010
0001
1100
0000
,
0010
0000
0000
0000
1001
0000
0000
0001
,
0100
0001
1010
1000
,
0100
0000
0000
0000
0011
0000
0000
0100
,
1000
0010
0101
0001
,
1000
0000
0000
0000
0110
0000
0000
0001
,
1000
0001
1010
0010
,
0100
0000
0000
0000
1001
0000
0001
1000
,
0100
1000
0011
0000
,
0100
0000
0000
0000
1001
0000
0000
0001
,
0010
0001
0000
0000
1100
0000
1000
0000
,
0001
0000
0010
0100
0010
0000
0100
0010
,
0100
0000
1000
0100
1000
0000
0001
1000
,
0010
0000
1000
0010
1000
0000
0010
1000
,
0010
0000
1000
0010
1000
0000
0001
1000
,
0100
0000
1000
0100
0010
0000
0100
0010
,
0001
0000
1000
0100
1000
0000
0100
1000
,
0004
0000
0403
0000
,
0340
0000
4030
0000
,
3001
0000
0010
0100
0010
0000
0100
0010
,
0100
0000
1000
0100
1000
0000
0001
1000
,
0010
0000
1000
0010
1000
0000
0010
1000
,
0010
0000
1000
0010
0100
0000
0001
1000
,
0100
0000
1000
0100
0010
0000
0100
0010
,
0001
0000
0010
0001
0010
0000
0001
1000
,
0001
0000
0000
0000
0101
0000
0000
0001
,
1000
0001
0000
0000
1010
0000
1000
0000
,
0001
0100
0001
0100
0010
1000
0001
0100
0001
0100
0010
1000
,
0001
0010
0001
0010
0100
1000
0010
0100
0001
1000
0000
0000
,
0000
1000
0100
0010
,
0001
0001
0100
0010
,
1000
0010
1000
0010
0100
0001
1000
0010
1000
0010
0100
0001
,
1000
0100
1000
0100
0010
0001
1000
0000
0000
0002
0000
0000
,
0003
0001
0200
0000
,
0310
1000
0010
1000
,
0001
0010
0001
0010
0100
1000
0001
0010
0001
0010
0100
1000
,
0001
0100
0001
0100
0010
1000
0100
0010
0001
1000
0000
0000
,
0000
1000
0010
0100
,
0001
0001
0010
0100
,
1000
0020
0230
0320
,
0230
0320
1030
0001
,
0000
0020
0230
0320
,
0230
0320
0031
1000
,
0001
0100
0001
0100
0010
1000
0001
0100
0001
0100
0010
1000
,
0001
0010
0001
0010
0100
1000
0010
0100
0001
1000
0010
1000
,
0010
0100
0001
1000
0100
1000
0001
0010
0001
1000
0010
1000
,
0001
0100
0010
1000
0010
0100
0001
1000
0100
1000
0100
1000
,
0001
0100
0001
0100
0010
1000
0001
0100
0001
0100
0010
1000
,
0001
0010
0001
0010
0100
1000
0001
0010
0001
1000
0010
0100
,
0010
0100
0001
1000
0010
1000
0001
0010
0100
1000
0100
0010
,
0001
1000
0010
1000
0001
1000
0001
0010
0001
1000
0100
1000
,
0001
0100
0001
0100
0010
1000
0001
0100
0001
0100
0010
1000
,
0001
0010
0001
0010
0100
1000
0010
0100
0001
1000
0010
1000
,
0010
0100
0001
1000
0100
1000
0001
0010
0001
1000
0010
1000
,
0001
0100
0010
1000
0010
0100
0001
1000
0100
1000
0010
1000
,
0001
0020
0230
0320
,
0230
0320
0031
1000
,
0000
0020
0230
0320
,
0230
0320
1030
0001
,
1001
0000
0011
0000
,
0110
0000
0100
0000
1000
0001
0000
0000
,
1000
0000
0100
1000
0010
0000
0100
0001
,
1000
0000
0001
0000
0010
0100
0000
0000
,
1001
0000
1001
0000
,
0101
0000
0110
0000
,
1000
0000
0010
1000
0010
0000
1000
0001
,
0000
0100
0001
0000
1000
0100
1000
0100
,
0010
0000
0000
0001
1000
0000
0001
0000
,
0100
0000
0001
1000
0000
0000
0000
0000
,
1010
1000
1100
1000
,
1001
0001
0010
0100
,
M22M
M00M
M00M
M33M
0000
0000
0000
1000
,
0001
0000
1000
0010
0000
1000
0001
0000
,
0001
0100
0000
0000
1001
0000
0000
1000
,
0100
0010
0001
1000
0000
0000
0001
0000
,
0100
0000
0010
1000
0000
0001
0000
0000
,
0010
0001
0000
1000
0000
0100
1000
0000
,
0010
0000
0000
1000
0000
0000
0000
0000
0000
0001
0000
0000
1000
0000
0000
0000
0100
0000
0000
0000
0010
0000
0000
0000
,
0001
0000
1000
0000
1001
0000
0000
0001
,
0100
0010
0000
1000
,
0002
0003
2002
3003
,
1000
0000
0000
0000
0001
0010
0000
0001
,
0000
1000
0001
0000
0100
0000
0010
0000
,
1001
0000
0000
1000
0000
0000
0000
0000
,
0001
0000
0010
0001
0000
0000
0000
0000
,
0200
0320
0230
0300
,
0020
0000
0230
0302
0000
0003
0000
1000
,
0001
0001
0010
0100
,
0100
1000
0001
0001
,
0100
0000
0010
0000
0010
1000
0000
0001
,
1000
0000
0100
0010
0002
0000
0000
0000
,
1003
0000
0000
0000
0000
0000
0001
0000
0100
0000
0001
0000
,
1000
0100
0022
0033
,
0000
0000
0000
1000
0001
0010
0001
0000
,
1000
0000
0000
0010
0000
0000
0202
0303
,
0202
0303
0000
0001
1000
0000
0001
0000
,
1000
0000
0100
0000
0000
0000
1000
0001
,
0010
0000
0000
0001
1000
0000
0010
0000
,
0100
0001
0100
0000
0100
0000
0010
1000
,
0001
0100
0001
1000
0001
1000
0010
1000
0001
0010
0100
0010
,
0100
1000
0001
0010
0001
1000
0001
1000
0010
0100
0001
1000
,
0001
0000
0100
0000
0001
0000
1000
0001
,
0010
0100
0010
0000
0001
0100
0001
0000
,
1000
0010
1000
0001
1000
0001
0100
0001
1000
0100
0010
0100
,
0010
0001
1000
0100
1000
0001
0010
0001
1000
0010
0100
0001
,
0100
0010
1000
0001
1000
0001
0010
0100
1000
0100
1000
0001
,
0100
0010
0100
0000
0001
0010
0001
0000
,
1000
0100
1000
0001
1000
0001
0010
0001
1000
0010
0100
0010
,
0100
0001
1000
0010
1000
0001
1000
0001
0010
0100
1000
0001
,
1000
0000
0010
0000
0100
0000
0001
1000
,
0100
0010
0100
0000
1000
0010
1000
0000
,
0001
0010
0001
1000
0001
1000
0100
1000
0001
0100
0010
0100
,
0010
1000
0001
0100
0001
1000
0010
1000
0001
0010
0100
1000
,
0100
0010
0001
1000
0001
1000
0010
1000
0001
0100
0001
1000
,
0001
1000
0000
0000
0010
0000
0010
0000
,
2000
0000
0000
0200
,
0000
0000
3300
0000
;

//---------------dance-single - Gazebo----------------
#NOTES:
     dance-single:
     Gazebo:
     Easy:
     10:
     0.791,0.877,0.354,0.315,0.010,983.000,72.000,64.000,8.000,0.000:
0000
0000
0000
0000
,
0000
0000
0000
0000
,
0000
0000
0000
0000
,
0000
0000
0000
0000
,
0000
0000
0000
0000
,
0000
0000
0000
0000
,
0000
0000
0000
0000
,
0000
0000
0000
0000
,
1000
0000
0000
0000
0101
0000
0000
0010
,
1000
0100
0011
0001
,
1000
0000
0000
0000
0110
0000
0000
0001
,
1000
0001
1100
0100
,
0010
0000
0010
0000
1001
0000
0001
1000
,
0010
1000
0101
0000
,
0010
0000
0000
0000
1001
0000
0000
1000
,
0100
1000
0011
0001
,
0100
0000
0000
0000
1010
0000
0000
0100
,
0001
0010
1100
1000
,
0001
0000
0000
0000
0110
0000
0000
1000
,
0001
1000
0011
0010
,
0100
0000
0100
0000
1001
0000
1000
0001
,
0100
0001
1010
0000
,
0100
0000
0000
0000
1001
0000
0000
0001
,
0010
0001
0000
0000
1100
0000
1000
0000
,
0001
0000
0001
0000
0101
0000
0000
0010
,
1000
0100
0011
0001
,
1000
0000
0000
0000
0110
0000
0000
0001
,
1000
0001
1100
0100
,
0010
0000
0010
0000
1001
0000
0001
1000
,
0010
1000
0101
0000
,
0010
0000
0000
0000
1001
0000
0000
1000
,
0100
1000
0011
0001
,
0100
0000
0000
0000
1010
0000
0000
0100
,
0001
0010
1100
1000
,
0001
0000
0000
0000
0110
0000
0000
1000
,
0001
1000
0011
0010
,
0100
0000
0100
0000
1001
0000
1000
0001
,
0100
0001
1010
0000
,
0100
0000
0000
0000
1001
0000
0000
0001
,
0010
0001
1000
0000
1100
0000
0001
0000
,
1000
0000
0010
0100
0010
0000
0100
0010
,
0100
0000
0001
0100
0001
0000
1000
0001
,
0010
0000
0001
0010
0001
0000
0010
0001
,
0010
0000
0001
0010
0001
0000
1000
0001
,
0100
0000
0001
0100
0010
0000
0100
0010
,
1000
0000
0001
0100
0001
0000
0100
0001
,
4000
0000
3400
0000
,
0340
0000
0034
0000
,
1003
0000
0010
0100
0010
0000
0100
0010
,
0100
0000
0001
0100
0001
0000
1000
0001
,
0010
0000
0001
0010
0001
0000
0010
0001
,
0010
0000
0001
0010
0100
0000
1000
0001
,
0100
0000
0001
0100
0010
0000
0100
0010
,
1000
0000
0010
1000
0010
0000
1000
0001
,
1000
0000
0000
0000
1100
0000
0000
1000
,
0001
1000
0000
0000
0011
0000
0001
0000
,
1000
0100
1000
0100
0010
0001
0010
0001
,
1000
0010
1000
0010
0100
0001
1000
0000
,
0000
0001
0100
0010
,
1000
1000
0100
0010
,
0001
0010
0001
0010
0100
1000
0100
1000
,
0001
0100
0001
0100
0001
0000
2000
0000
,
3000
1000
0200
0000
,
0310
0001
0010
0001
,
1000
0010
1000
0010
0100
0001
0100
0001
,
1000
0100
1000
0100
0010
0001
1000
0000
,
0000
0001
0010
0100
,
1000
1000
0010
0100
,
0001
0020
0230
0320
,
0230
0320
0031
1000
,
0000
0020
0230
0320
,
0230
0320
1030
0001
,
1000
0100
1000
0100
0010
0001
0010
0001
,
1000
0010
1000
0010
0100
0001
1000
0001
,
1000
0001
0010
0001
1000
0001
0100
0001
,
0010
0100
0010
0100
1000
0001
1000
0001
,
1000
0010
1000
0010
0100
0001
0100
0001
,
1000
0100
1000
0100
0010
0001
0100
0001
,
0100
0010
1000
0001
0010
0100
0010
0100
,
1000
0001
0100
0001
1000
0010
1000
0001
,
1000
0100
1000
0100
0010
0001
0010
0001
,
1000
0010
1000
0010
0100
0001
1000
0001
,
1000
0001
0010
0001
1000
0001
0100
0001
,
0010
0100
0010
0100
1000
0001
1000
0001
,
1000
0020
0230
0320
,
0230
0320
1030
0001
,
0000
0020
0230
0320
,
0230
0320
0031
1000
,
0001
0000
0000
0000
1100
0000
0000
0010
,
0001
0100
1010
1000
,
0001
0000
0000
0000
0110
0000
0000
1000
,
0001
1000
0101
0100
,
0010
0000
0010
0000
1001
0000
1000
0001
,
0010
0001
1100
0000
,
0010
0000
0000
0000
1001
0000
0000
0001
,
0100
0001
1010
1000
,
0100
0000
0000
0000
0011
0000
0000
0100
,
1000
0010
0101
0001
,
1000
0000
0000
0000
0110
0000
0000
0001
,
1000
0001
1010
0010
,
0100
0000
0000
0000
1001
0000
0001
1000
,
0100
1000
0011
0000
,
0100
0000
0000
0000
1001
0000
0000
0001
,
0010
0001
0000
0000
1100
0000
1000
0000
,
0001
0000
0010
0100
0010
0000
0100
0010
,
0100
0000
1000
0100
1000
0000
0001
1000
,
0010
0000
1000
0010
1000
0000
0010
1000
,
0010
0000
1000
0010
1000
0000
0001
1000
,
0100
0000
1000
0100
0010
0000
0100
0010
,
0001
0000
1000
0100
1000
0000
0100
1000
,
0004
0000
0403
0000
,
0340
0000
4030
0000
,
3001
0000
0010
0100
0010
0000
0100
0010
,
0100
0000
1000
0100
1000
0000
0001
1000
,
0010
0000
1000
0010
1000
0000
0010
1000
,
0010
0000
1000
0010
0100
0000
0001
1000
,
0100
0000
1000
0100
0010
0000
0100
0010
,
0001
0000
0010
0001
0010
0000
0001
1000
,
0001
0000
0000
0000
0101
0000
0000
0001
,
1000
0001
0000
0000
1010
0000
1000
0000
,
0001
0100
0001
0100
0010
1000
0010
1000
,
0001
0010
0001
0010
0100
1000
0001
0000
,
0000
1000
0100
0010
,
0001
0001
0100
0010
,
1000
0010
1000
0010
0100
0001
0100
0001
,
1000
0100
1000
0100
1000
0000
0002
0000
,
0003
0001
0200
0000
,
0310
1000
0010
1000
,
0001
0010
0001
0010
0100
1000
0100
1000
,
0001
0100
0001
0100
0010
1000
0001
0000
,
0000
1000
0010
0100
,
0001
0001
0010
0100
,
1000
0020
0230
0320
,
0230
0320
1030
0001
,
0000
0020
0230
0320
,
0230
0320
0031
1000
,
0001
0100
0001
0100
0010
1000
0010
1000
,
0001
0010
0001
0010
0100
1000
0001
1000
,
0001
1000
0010
1000
0001
1000
0100
1000
,
0010
0100
0010
0100
0001
1000
0001
1000
,
0001
0010
0001
0010
0100
1000
0100
1000
,
0001
0100
0001
0100
0010
1000
0100
1000
,
0100
0010
0001
1000
0010
0100
0010
0100
,
0001
1000
0100
1000
0001
0010
0001
1000
,
0001
0100
0001
0100
0010
1000
0010
1000
,
0001
0010
0001
0010
0100
1000
0001
1000
,
0001
1000
0010
1000
0001
1000
0100
1000
,
0010
0100
0010
0100
0001
1000
0001
1000
,
0001
0020
0230
0320
,
0230
0320
0031
1000
,
0000
0020
0230
0320
,
0230
0320
1030
0001
,
1001
0000
0011
0000
,
0110
0000
0100
0000
1000
0001
0000
0000
,
1000
0000
0100
1000
0010
0000
0100
0001
,
1000
0000
0001
0000
0010
0100
0000
0000
,
1001
0000
1001
0000
,
0101
0000
0110
0000
,
1000
0000
0010
1000
0010
0000
1000
0001
,
0000
0100
0001
0000
1000
0100
1000
0100
,
0010
0000
0000
0001
1000
0000
0001
0000
,
0100
0000
0001
1000
0000
0000
0000
0000
,
1010
1000
1100
1000
,
1001
0001
0010
0100
,
M22M
M00M
M00M
M33M
0000
0000
0000
1000
,
0001
0000
1000
0010
0000
1000
0001
0000
,
0001
0100
0000
0000
1001
0000
0000
1000
,
0100
0010
0001
1000
0000
0000
0001
0000
,
0100
0000
0010
1000
0000
0001
0000
0000
,
0010
0001
0000
1000
0000
0100
1000
0000
,
0010
0000
0000
1000
0000
0000
0000
0000
0000
0001
0000
0000
1000
0000
0000
0000
0100
0000
0000
0000
0010
0000
0000
0000
,
0001
0000
1000
0000
1001
0000
0000
0001
,
0100
0010
0000
1000
,
0002
0003
2002
3003
,
1000
0000
0000
0000
0001
0010
0000
0001
,
0000
1000
0001
0000
0100
0000
0010
0000
,
1001
0000
0000
1000
0000
0000
0000
0000
,
0001
0000
0010
0001
0000
0000
0000
0000
,
0200
0320
0230
0300
,
0020
0000
0230
0302
0000
0003
0000
1000
,
0001
0001
0010
0100
,
0100
1000
0001
0001
,
0100
0000
0010
0000
0010
1000
0000
0001
,
1000
0000
0100
0010
0002
0000
0000
0000
,
1003
0000
0000
0000
0000
0000
0001
0000
0100
0000
0001
0000
,
1000
0100
0022
0033
,
0000
0000
0000
1000
0001
0010
0001
0000
,
1000
0000
0000
0010
0000
0000
0202
0303
,
0202
0303
0000
0001
1000
0000
0001
0000
,
1000
0000
0100
0000
0000
0000
1000
0001
,
0010
0000
0000
0001
1000
0000
0010
0000
,
0100
0001
0100
0000
0100
0000
0010
1000
,
0001
0100
0001
1000
0001
1000
0100
0010
,
0001
0010
0100
1000
0001
1000
0001
0010
,
0001
0000
0100
0000
0001
0000
1000
0001
,
0010
0100
0010
0000
0001
0100
0001
0000
,
1000
0010
1000
0001
1000
0001
0010
0100
,
1000
0100
0010
0001
1000
0001
1000
0010
,
0100
0001
1000
0001
0010
0100
1000
0001
,
0100
0010
0100
0000
0001
0010
0001
0000
,
1000
0100
1000
0001
1000
0001
0100
0010
,
1000
0010
0100
0001
1000
0001
1000
0010
,
1000
0000
0010
0000
0100
0000
0001
1000
,
0100
0010
0100
0000
1000
0010
1000
0000
,
0001
0010
0001
1000
0001
1000
0010
0100
,
0001
0100
0010
1000
0001
1000
0001
0010
,
0100
1000
0001
1000
0010
0100
0001
1000
,
0001
1000
0000
0000
0010
0000
0010
0000
,
2000
0000
0000
0200
,
0000
0000
3300
0000
;
