#TITLE:Red Remix;
#SUBTITLE:NX2;
#ARTIST:World Max;
#TITLETRANSLIT:;
#SUBTITLETRANSLIT:;
#ARTISTTRANSLIT:;
#CREDIT:;
#BANNER:Red remix bn.png;
#BACKGROUND:Red remix.png;
#LYRICSPATH:;
#CDTITLE:super_sonic.PNG;
#MUSIC:Red Remix.mp3;
#OFFSET:0.000;
#SAMPLESTART:123.840;
#SAMPLELENGTH:12.000;
#SELECTABLE:YES;
#BPMS:0.000=240.001;
#STOPS:;
#BGCHANGES:;
// cache tags:
#FIRSTBEAT:15.000;
#LASTBEAT:646.167;
#SONGFILENAME:Songs/Definitive Keyboard Megapack/Red remix(SonicX)/Piu Nx 2   Red Remix (High Quality) stereo.sm;
#HASMUSIC:1;
#HASBANNER:1;
#MUSICLENGTH:163.540;
// end cache tags

//---------------dance-single - SonicX Edits----------------
#NOTES:
     dance-single:
     SonicX Edits:
     Hard:
     13:
     1.000,1.000,1.000,0.049,0.000,1150.000,319.000,8.000,0.000,40.000:
0000
0000
0000
0000
,
0000
0000
0000
0000
,
0000
0000
0000
0000
,
0000
0000
0000
2002
,
0000
0000
0000
3003
,
0000
0000
0000
0000
0000
0000
0000
0010
,
0100
0001
1000
0100
0100
0010
0001
0010
,
0100
1000
0010
0000
0100
0000
0001
0000
,
0000
0000
0000
0000
,
0000
0000
2002
0000
,
0000
3003
0000
0000
0010
0010
0001
0010
,
0100
0001
0010
0010
0100
0001
0010
0100
,
0001
0010
0100
0001
1000
0100
0010
0001
,
0010
0001
1000
0100
0010
1000
0001
0100
,
0010
1000
0001
0010
0100
0001
1000
0010
,
0100
0001
0001
0110
0100
0001
0010
1000
,
0001
0100
0010
0001
0100
0010
0001
0010
,
1000
0001
0100
0010
0100
0001
0010
0101
,
1000
0010
0100
0001
0010
0110
0001
0010
,
1000
0101
0010
0010
0001
0010
0010
0001
,
1000
0010
0100
0001
0100
0010
1000
0001
,
0100
0010
1000
0001
0100
0110
0010
0001
,
1010
0100
0001
0000
0010
0001
0110
0001
,
0010
0100
0010
0001
0010
0101
0001
0010
,
0100
0001
1010
0000
0001
0000
0010
0000
,
0101
0010
1001
0010
,
0101
0000
0010
0000
0001
1000
0010
0100
,
0001
0100
0010
0100
0001
1000
0010
1000
,
0001
0100
0010
0000
1101
0000
0011
0000
,
1010
1010
0101
1010
,
1001
0000
0110
0000
0001
0010
1000
0001
,
0100
0010
0100
0001
0010
0010
0100
0001
,
0100
0010
0100
0001
1010
0000
1010
0000
,
0011
0110
1100
0011
,
0110
0000
1100
0000
0001
0010
0001
0010
,
0110
0010
0001
1000
0010
0100
0001
0010
,
0100
0001
0100
0010
1001
0000
0110
0000
,
0101
1001
0011
0110
,
0101
0000
1010
0000
0001
0010
0100
0001
,
0001
0010
0100
0001
0010
0100
0001
0010
,
1000
0001
0100
0010
0100
0101
1000
0010
,
1000
0101
0100
0010
0100
0101
0010
1010
,
0010
0001
0100
0010
0100
0001
0010
0101
,
1000
0110
0010
0001
1010
0010
0100
0010
,
1000
0001
0100
0010
0100
0001
0100
0010
,
1000
0001
0110
0001
0101
0100
0010
1000
,
0001
0100
1000
0010
0100
0001
0110
0100
,
0001
0100
0010
0100
0001
1000
0010
0100
,
0001
0100
0010
1000
0001
0100
0010
0100
,
0001
0010
0101
0010
1010
0001
0100
0010
,
0100
0001
0100
0010
0100
0001
1000
0010
,
0100
0001
0100
0010
0100
0001
1000
0010
,
0100
0001
0110
0010
0101
0100
0010
0001
,
0010
1000
0001
0100
0010
0100
0001
0100
,
0010
1000
0001
0110
0100
0001
0100
0010
,
0100
0001
0100
0010
0100
0001
1000
0010
,
0100
0101
1000
0010
0100
0001
0100
0011
,
1000
0010
0101
0001
1010
0100
0001
0010
,
0110
0100
0001
0100
0010
0100
0011
0010
,
1100
0001
0100
0010
1000
0001
0100
0010
,
1000
0001
0110
0100
1001
0010
0010
0001
,
0110
0001
0001
1000
0010
0100
0001
1000
,
0010
0110
0001
1000
0001
0010
0010
0100
,
0001
0010
0100
0001
1000
0010
0100
0001
,
0100
0010
0100
0001
1000
0010
0100
0001
,
0010
0100
0100
0001
0010
0101
0010
0001
,
0001
0001
0001
0010
0100
0010
0001
1000
,
0010
0100
0001
0100
0010
0101
1000
0010
,
1000
0101
0010
0100
0010
0100
0001
1000
,
0010
0100
0001
0010
0100
0001
1000
0010
,
0100
0001
0100
0110
0000
0011
1000
0001
,
0100
0010
1000
0001
0100
0010
0100
0001
,
1000
0010
0100
0001
0100
0010
0100
0001
,
0010
1000
0001
0100
0010
0100
0010
0101
,
0010
1000
0001
0100
0010
0110
0010
0101
,
0010
1000
1001
1000
0100
0010
0001
0010
,
1110
0110
1011
1110
,
0110
0000
1001
0000
0011
0010
1100
1000
,
0110
0010
0011
1000
0011
0010
1100
1000
,
0101
0001
0110
0010
1100
1000
0110
0010
,
1001
0100
0101
1000
1010
0100
0011
1000
,
0101
0010
1100
0001
1001
0100
0101
1000
,
0110
0010
1001
1000
0101
0001
1010
0010
,
0110
1000
1001
0010
1001
1000
0110
0100
,
0011
0001
1100
0010
0011
1000
0101
0001
,
1100
0100
0011
1000
0011
0100
1100
0001
,
0110
0100
1010
0100
1001
0001
0110
1000
,
1110
0001
1100
0010
0011
1000
1100
0010
,
1001
1000
0110
0001
1100
0010
1001
1000
,
0101
0100
1010
0010
1001
1000
0011
0001
,
1100
0100
0011
1000
1100
0001
1100
0100
,
0011
1000
1100
0001
1001
0010
0101
1000
,
0110
0001
1001
0100
1010
1000
0011
0100
,
1001
0010
1100
0001
0110
1000
0011
0100
,
1100
0010
0011
0010
1100
1000
0011
0001
,
1100
0010
0011
0100
1100
0001
1100
1000
,
0110
0001
1010
0100
1001
0001
0110
1000
,
1010
0010
1001
0100
0101
1000
0101
0010
,
0110
0001
1100
0100
1001
1000
0110
0100
,
1001
0010
0110
0001
0101
0010
1001
0100
,
1100
1000
0110
0100
1010
0010
1010
0001
,
1001
0001
1010
0010
0101
0100
1010
0100
,
1001
0010
1100
0001
1100
0010
0011
0100
,
1010
1000
0101
1010
0110
1001
0110
1000
,
0011
0100
1100
0001
0100
0010
1010
0001
,
0100
0010
1010
0001
1010
0100
0011
1000
,
0011
1000
0101
0010
1001
1000
0110
0010
,
0101
1000
0101
0001
0110
0010
1100
0100
,
1010
1000
0011
0100
0011
0001
1100
0010
,
0011
0100
1100
0001
0011
1100
0110
0001
,
1100
0010
0111
1100
1110
0111
1111
0001
,
0110
1100
0011
1010
1010
0001
0110
1000
,
0101
0001
1100
1000
0101
0100
1010
1000
,
1001
0100
0011
1000
1001
0010
1100
0010
,
0101
1000
0110
0010
1100
0101
0100
0010
,
1100
0001
0101
0100
1010
1000
0101
0100
,
0011
0001
0101
0010
1100
1000
0011
0100
,
1100
0001
1001
0100
0110
1000
0110
0000
,
1110
0111
0111
1110
,
1101
0000
0111
0000
1101
0000
0010
0100
,
0000
0001
0100
0000
1000
0010
0100
0001
,
0010
0100
1000
0100
0001
0010
0111
0000
,
1011
1110
1111
0110
,
1110
0000
0111
0000
1110
0000
0100
0010
,
1000
0001
0100
1000
0001
0010
0010
0100
,
1000
0010
0100
1000
0001
0100
1110
0000
,
0111
1110
0111
0111
,
1110
0000
1110
0000
0111
0001
1000
0100
,
0010
1000
0010
0001
0100
1000
0010
0001
,
0100
1000
0010
1000
0001
0010
1110
0000
,
1101
0111
1110
0111
,
1011
0000
0111
0000
1110
0100
1000
0001
,
0010
1000
0001
0100
0001
0100
1000
0001
,
0100
1000
0010
1000
0001
0100
1000
0001
,
0100
1000
0010
0001
0100
1000
0001
0010
,
0100
0001
1000
0100
0010
0001
1000
0001
,
0010
0100
1000
0001
0010
0100
1000
0100
,
1000
0001
0100
0010
1000
0001
0010
1000
,
0100
0010
1000
0001
0100
0010
1000
0001
,
0100
0010
0100
0010
1000
0010
1100
0011
,
1100
0011
1100
0011
1100
0011
1100
0011
,
1100
0011
1100
0011
1100
0011
1100
0011
,
1100
1010
0101
1010
0101
1010
0101
1010
,
0101
1010
0101
1010
0101
1010
0101
1010
,
0101
1010
0101
1010
0101
0010
0100
1000
,
0100
0010
0001
0010
0100
1000
0100
0010
,
0001
0010
0100
1000
0100
0010
0001
0010
,
0100
1000
0100
0010
0001
0100
0010
0100
,
0010
0100
0010
0100
0010
0100
0010
0100
,
0010
0100
0010
0100
0010
0100
0010
1000
,
0001
0100
1000
0010
0100
0100
1000
0001
,
0100
0010
1000
0010
0100
1000
0001
0100
,
0100
1000
0100
0010
0001
1000
0001
1000
,
0001
1000
0001
1000
0331
1000
0100
0010
,
0001
0010
1000
0100
0010
0001
0010
0100
,
1000
0010
0001
0010
0100
1000
0010
0001
,
0100
1000
0001
0010
0100
0010
1000
0001
,
0010
0100
0010
1000
0001
0100
0010
0100
,
0010
1000
0001
0100
1000
0001
0100
0010
,
1000
0001
0100
0010
1000
0001
1000
0100
,
0100
0001
0010
1000
0001
0010
0100
0001
,
1000
0000
0000
0001
0000
0000
1000
0000
0000
0000
0000
0000
2222
3333
0000
0000
0000
0000
0000
0000
0000
0000
0000
0000
;
