#TITLE:Girl boy song;
#SUBTITLE:;
#ARTIST:Aphex Twin;
#TITLETRANSLIT:;
#SUBTITLETRANSLIT:;
#ARTISTTRANSLIT:;
#CREDIT:;
#BANNER:Girl Boy Song.png;
#BACKGROUND:Girl Boy Song-bg.png;
#LYRICSPATH:;
#CDTITLE:!toph-cdtitle.png;
#MUSIC:Aphex Twin - Girl Boy Song (Cut).mp3;
#OFFSET:-0.038;
#SAMPLESTART:11.300;
#SAMPLELENGTH:12.000;
#SELECTABLE:YES;
#BPMS:0.000=84.420,16.000=168.840,336.000=84.420;
#STOPS:;
#BGCHANGES:;
// cache tags:
#FIRSTBEAT:8.000;
#LASTBEAT:346.000;
#SONGFILENAME:Songs/Community Keyboard Megapack - Volume 1/(Toph) Girl Boy Song/Girl Boy Song.sm;
#HASMUSIC:1;
#HASBANNER:1;
#MUSICLENGTH:133.572;
// end cache tags

//---------------dance-single - ----------------
#NOTES:
     dance-single:
     :
     Hard:
     12:
     1.000,1.000,1.000,0.262,1.000,1043.000,163.000,35.000,0.000,0.000:  // measure 1
0000
0000
0000
0000
,  // measure 2
0000
0000
0000
0000
,  // measure 3
1010
0000
0100
0000
0011
0001
0101
0001
,  // measure 4
1001
0001
0001
0001
0101
0001
0011
0001
,  // measure 5
1001
0100
0010
1000
0001
0000
0000
0000
1001
0100
0010
0001
1000
0000
0010
0100
,  // measure 6
1001
0000
0110
0000
0110
0000
0001
1000
0110
0000
0011
0000
1001
0000
0011
0000
,  // measure 7
1100
0000
0000
0000
0011
0000
1000
0001
0010
0001
0100
0010
1000
0100
0000
0000
,  // measure 8
1001
0000
0100
0010
0011
0000
0000
0000
1010
0000
0011
0000
1100
0000
0011
0000
,  // measure 9
2001
0000
0000
0000
3010
0100
0001
0100
0010
1000
0100
0010
0001
0100
0010
1000
,  // measure 10
0001
0000
0010
0000
0100
0000
0010
0000
0001
0000
0100
0000
0010
0000
1000
0000
0001
0000
0000
0000
0020
0000
0000
0030
1001
0000
0100
0000
0010
0000
1000
0000
,  // measure 11
0001
0000
0110
0000
0110
0000
0010
0001
1100
0000
0010
1000
1001
0000
0010
0000
,  // measure 12
0101
1000
0000
0000
1100
0001
0100
0010
1000
0001
0010
0000
0110
0000
1000
0100
,  // measure 13
1000
0010
0100
0001
0010
0010
0000
0000
1100
0000
0010
0000
0101
1000
0010
0100
,  // measure 14
0001
0010
0100
1000
0011
0000
0100
0010
1000
0000
0001
0000
0010
0100
0000
0100
,  // measure 15
1000
0000
0110
0000
0011
1000
0001
0100
0001
1000
0100
1000
0010
0000
0100
0001
,  // measure 16
1000
0100
0010
0000
0101
0000
0010
1000
0001
0000
0010
0000
1100
0000
0001
0100
,  // measure 17
0001
0010
0100
1000
0010
1000
0100
0010
0001
1000
0010
0100
0010
1000
0100
0010
,  // measure 18
0001
0100
0010
1000
0101
0000
0010
0100
0001
1000
0100
0010
0001
1000
0010
0100
,  // measure 19
0010
1000
0100
0010
1001
0000
0010
0001
0100
0001
0010
0100
1000
0010
0100
0001
,  // measure 20
2000
0000
0000
0000
3000
0000
0201
0000
0020
0000
0330
0000
0011
0000
0001
0010
,  // measure 21
1100
0001
0100
0000
0100
0001
0100
0001
0010
0100
0010
0100
1000
0001
0100
0010
,  // measure 22
1001
0000
0001
0100
0010
1000
0101
0000
0010
1000
0010
1000
0001
0010
0100
1000
,  // measure 23
0001
0000
0000
0100
0000
0000
0000
0000
0000
0010
0000
0000
1000
0000
0000
0000
0100
0000
0000
0000
0010
0000
0000
0000
0001
0000
0100
0000
0010
0000
1000
0000
0010
0000
1000
0000
0010
0000
0000
0000
0000
0000
1001
0000
0000
0000
0000
0000
,  // measure 24
1001
0000
0000
0110
0000
0001
0100
0000
0010
1000
0000
0000
0100
0000
0010
0100
0000
1001
0000
0000
0000
0100
0000
0000
,  // measure 25
0011
0000
1100
0001
0100
0000
0000
0000
0010
0100
0010
0100
0001
0010
0100
1000
,  // measure 26
0001
0000
0000
0100
0000
0000
0010
0000
0000
1000
0000
0000
0100
0000
0000
0010
0000
0000
0001
0000
0000
0000
0000
0000
2100
0000
0000
0010
0000
0000
3001
0000
0000
0000
0000
0000
1000
0000
0000
0000
0100
0000
0010
0000
0000
0000
0001
0000
,  // measure 27
1000
0000
0000
0000
0000
0000
0010
0000
0000
0100
0000
0000
0001
0000
0000
0010
0000
0000
0100
0000
1000
0000
0000
0000
0101
0000
0000
0000
0000
0000
0000
0000
0000
1010
0000
0000
0001
0000
0000
0000
0000
0000
0000
0000
0000
0010
0000
0000
,  // measure 28
0001
1000
0000
0000
0101
0001
0000
0000
1000
0100
0010
0100
1000
0000
0000
0000
,  // measure 29
0001
0010
0000
0100
0000
1000
0000
0000
1000
0000
0010
0000
0100
0000
0001
0000
0010
0000
0100
0000
0010
0000
0100
0000
1000
0000
0001
0000
0100
0000
0010
0000
,  // measure 30
1000
0000
0100
0010
0001
1001
0000
0000
1000
0100
1000
0100
0010
0100
1000
0100
,  // measure 31
0010
0000
0000
0001
0000
0000
0000
0000
0000
0001
0000
0000
0100
0000
0000
0000
0010
0000
0000
0000
1000
0000
0000
0000
0011
0000
0000
0000
0000
0000
0100
0000
0000
0100
0000
0000
1000
0000
0000
0010
0000
0000
1001
0000
0000
0000
0000
0000
,  // measure 32
1001
0000
0000
1000
0000
0001
0100
0000
0010
1000
0000
0000
0001
0000
0010
0100
0000
1000
0001
0000
0000
0100
0000
0000
,  // measure 33
1010
0000
1001
0001
0100
0000
0000
0000
0010
1000
0001
1000
0010
0000
0110
0100
,  // measure 34
1000
0000
0000
1000
0000
0000
0000
0000
0000
1000
0000
0000
0101
0000
0000
0000
0001
0000
0100
0000
0000
0000
0000
0000
1010
0000
0000
0000
0000
0000
1000
0000
0000
0000
0100
0000
0010
0000
0000
0000
0001
0000
0100
0000
0000
0000
0001
0000
,  // measure 35
0010
0100
1000
0001
0100
0010
1001
0000
1000
0100
0000
0010
0001
0100
0000
0010
,  // measure 36
0010
0000
1000
0100
0010
0001
0000
0001
0100
0010
1000
0001
0020
0000
0000
0030
,  // measure 37
1100
0100
0000
0000
0010
0000
1001
0100
0010
1000
0100
0000
0010
0001
0000
0001
,  // measure 38
0100
0000
0000
0010
0010
0010
0010
0010
0100
0001
1000
0000
0100
0000
0011
0000
,  // measure 39
1000
0001
0100
0001
0010
0100
1000
0000
0001
0100
0001
0000
1000
0100
0011
0011
,  // measure 40
0000
1100
0000
0000
0101
1000
0100
0000
1001
0000
0000
0000
0001
0100
0001
1000
,  // measure 41
0100
0010
0001
0100
0010
1001
0000
0001
0100
0010
1000
0010
0100
0000
1001
0000
,  // measure 42
0010
0100
1000
0000
0001
0101
0000
0000
1010
0000
1010
0000
1000
0010
1000
0000
,  // measure 43
1010
1010
0000
1000
0010
0100
0000
1010
0000
0101
0000
0000
0110
0000
0110
0000
,  // measure 44
0001
0100
0010
0100
0001
0010
0100
1000
0010
0100
0001
0010
0001
0100
0010
0000
,  // measure 45
1001
0010
0100
1000
0100
0000
0010
0001
1000
0000
1001
0000
0110
0000
0011
1000
,  // measure 46
0001
1000
0011
0000
1001
0010
0100
1000
0010
0100
0010
0100
0011
0000
0011
0100
,  // measure 47
0000
0000
0100
0000
1001
1001
0000
1001
0200
0000
0300
0000
0011
0000
2000
0000
,  // measure 48
3000
0001
0100
0010
1000
0100
1000
0100
0010
0001
0100
0010
1000
0001
0010
0100
,  // measure 49
0000
1000
0001
0100
0100
0010
0000
1010
1000
0100
0010
0001
0001
0100
0010
0100
,  // measure 50
0010
0100
0001
0100
0000
1010
1000
0100
0010
0001
0000
0000
1010
0000
0001
0100
,  // measure 51
0010
1000
0100
0010
0001
1000
0001
1000
0010
1000
0100
0010
0001
1100
0000
1000
,  // measure 52
0011
0000
0000
0000
1010
0001
0010
0001
0010
0001
0010
0001
1000
1100
0000
1100
,  // measure 53
0000
1100
0000
0000
0101
0000
0001
0010
1100
0000
0010
0001
0100
0010
1000
0001
,  // measure 54
0010
0100
1001
0000
1001
0000
0010
1000
0102
0000
1000
0000
0013
0000
0000
0000
,  // measure 55
0101
0000
0000
0000
0001
0010
0100
1000
0010
1000
0010
1000
0100
0010
0001
1000
,  // measure 56
0110
0000
0001
0010
0100
0000
0010
0100
1001
0000
0001
0100
0010
1000
0101
0000
,  // measure 57
1100
0000
0000
0000
0000
0000
0000
0000
0010
0001
0010
0001
0100
0001
1000
0001
,  // measure 58
0010
0100
0010
0100
1001
0010
0100
0001
1000
0100
0010
0001
1010
0000
1000
0100
,  // measure 59
0011
0000
1100
0000
1100
0000
0001
0100
1001
0000
0010
1000
0100
0010
0100
0010
,  // measure 60
0001
0100
0010
1000
0001
0010
0100
1000
0010
1000
0100
0010
1001
0000
0100
0010
,  // measure 61
1100
0000
0100
0101
0000
0000
0010
1000
0001
0010
0010
0001
0100
0010
1000
0000
,  // measure 62
0001
0100
0001
0010
0000
1100
0000
0000
0001
0100
0010
1000
0011
0000
0110
0000
,  // measure 63
1100
0000
0001
0010
0100
1000
0001
0010
0001
0100
0010
1000
0100
0010
0001
1000
,  // measure 64
0110
0001
1000
0100
0010
0001
0100
0010
1000
0002
0000
0000
0013
0100
1000
0001
,  // measure 65
0100
0000
0010
0100
1001
0000
0010
0001
0100
0010
1000
0001
1000
0001
1000
0001
,  // measure 66
0010
0001
0100
0010
1001
0000
0001
0100
0010
1000
0100
1000
0011
0000
0000
0011
,  // measure 67
0000
0000
0000
0000
0000
0000
0011
0000
0000
0000
0000
0000
0001
0000
0010
0000
0100
0000
1000
0000
0100
0000
0010
0000
0001
0000
0000
1000
0000
0000
0010
0000
0000
0100
0000
0000
1001
0000
0000
0000
0000
0000
0100
0000
0000
1000
0000
0000
,  // measure 68
0100
0010
0001
0100
0010
1000
0100
1000
0010
1000
0100
0010
0001
1000
0010
0100
,  // measure 69
1001
0100
0010
0001
0100
0001
0010
0100
1000
0010
0100
0001
1000
0100
0010
0001
,  // measure 70
0100
0010
1000
0001
1000
0100
0010
0001
0100
0010
0100
0010
1000
0100
0010
0001
,  // measure 71
1000
0000
0100
1000
0100
0000
1000
0000
0001
0100
0001
0000
0000
0000
1001
0000
0100
0000
0000
0000
1010
0000
0010
0000
1000
0000
0100
0000
1000
0000
0001
0000
,  // measure 72
0100
0000
0020
0000
0000
0000
0030
0000
1001
0000
1000
0000
0010
0000
1000
0000
0100
0000
0010
0000
0001
0000
0100
0000
0010
0000
1000
0100
1000
0000
0000
0001
,  // measure 73
0010
0100
1000
0001
0100
0002
2003
3002
0103
0010
1000
0010
1000
0100
1000
0001
,  // measure 74
0100
0000
0000
0010
0000
0000
1000
0000
0000
0010
0000
0000
0100
0000
0000
0001
0000
0000
1000
0000
0000
0000
0000
0000
2200
0000
0000
3300
0000
0000
0011
0000
0000
0000
0000
0000
1000
0000
0000
0000
0001
0000
0100
0000
0000
0000
0010
0000
,  // measure 75
1000
0000
0000
0000
0000
0000
0011
0000
0000
0000
0000
0000
1100
0000
0000
0000
0100
0000
0000
0000
0000
0000
0100
0000
1001
0000
0000
0100
0000
0000
0010
0000
0000
1000
0000
0000
0001
0000
0000
0010
0000
0000
0100
0000
0000
1000
0000
0000
,  // measure 76
0100
0010
0000
0100
0010
0010
0000
0000
0001
0001
0100
0010
1001
0000
0000
1000
,  // measure 77
0010
0100
0001
0010
0100
1000
0001
0100
0010
1000
0010
0100
0001
1000
0001
0010
,  // measure 78
0100
1000
0001
0100
0010
0100
0001
0000
1000
0100
0010
0001
1010
0100
0001
1000
,  // measure 79
0100
0000
0020
0000
0031
0000
1001
0000
0100
0000
0000
0010
0000
0000
0000
1000
0001
0000
0000
0000
0110
0000
0010
0000
0001
0000
1000
0000
0010
0000
1000
0000
,  // measure 80
0002
0000
0000
0000
0000
0000
0003
0000
1000
0000
0100
0000
1000
0000
0001
0000
0100
0000
0010
0000
1000
0000
0100
0010
0100
0000
2000
0000
0000
0000
3100
0000
,  // measure 81
0010
0000
0001
0000
0001
0000
0100
0000
0010
0000
1000
0000
0000
0000
1000
0000
0100
0000
0010
0000
0001
0000
0010
0000
0100
1000
0100
0000
0010
0000
0001
0000
,  // measure 82
0100
0000
0000
0000
0000
0000
0000
0000
0000
0000
0000
0000
0020
0000
0000
0000
0000
0000
0000
0000
0000
0000
0000
0000
2030
0000
0000
0000
0000
0000
0000
0000
0000
0000
0000
0000
3002
0000
0000
0000
0000
0000
0000
0000
0000
0000
0000
0000
0023
0000
0000
0000
0000
0000
0000
0000
0000
0000
0000
0000
0230
0000
0000
0000
0000
0000
0000
0000
0000
0000
0000
0000
0300
0000
0000
0000
0000
0000
0000
0000
0000
0000
0000
0000
0000
0000
0000
0000
0000
0000
2000
0000
0000
0000
0000
0000
0000
0000
0000
0000
0000
0000
0002
0000
0000
0000
0000
0000
3000
0000
0000
0000
0000
0000
0003
0000
0000
0000
0000
0000
1010
0000
0000
0000
0000
0000
0000
0000
0000
0000
0000
0000
0000
0000
0000
0000
0100
0000
0000
0000
0000
0000
0000
0000
0001
0000
0000
0000
0000
0000
0000
0000
0000
0000
0000
0000
0000
0000
0000
0000
1000
0000
0000
0000
0000
0000
0000
0000
0010
0000
0000
0000
0000
0000
0000
0000
0000
0000
0000
0000
0000
0000
0000
0000
1000
0000
0000
0000
0000
0000
0000
0000
,  // measure 83
0100
0010
0001
1000
0011
0100
0000
0010
1000
0001
0010
0100
1001
0010
0001
0100
,  // measure 84
0010
1000
0000
0010
1001
0001
0100
0010
1000
0100
0010
0100
1001
0000
0100
0010
,  // measure 85
2002
3003
0110
0000
1010
0000
0101
0000
,  // measure 86
0022
0033
1100
0000
0202
0303
1010
0000
,  // measure 87
2002
0000
3003
0000
;

//---------------dance-single - ----------------
#NOTES:
     dance-single:
     :
     Challenge:
     13:
     1.000,1.000,1.000,0.262,1.000,1076.000,190.000,35.000,0.000,0.000:  // measure 1
0000
0000
0000
0000
,  // measure 2
0000
0000
0000
0000
,  // measure 3
1010
0000
0100
0000
0011
0001
0101
0001
,  // measure 4
1001
0001
0001
0001
0101
0001
0011
0001
,  // measure 5
1001
0100
0010
0100
1001
0000
0000
0000
1001
0100
0010
0100
1001
0000
0010
0100
,  // measure 6
1001
0000
0110
0000
0110
0000
0001
1000
0110
0000
0011
0000
1001
0000
0011
0000
,  // measure 7
1100
0000
0000
0000
0011
0000
1000
0001
0110
1000
0010
0100
0001
1000
0000
0000
,  // measure 8
1001
0000
0100
0010
0011
0000
0000
0000
1010
0000
0011
0000
1100
0000
0011
0000
,  // measure 9
2001
0000
0000
0000
3010
0100
0001
0100
0010
1000
0100
0010
1001
0100
0010
1000
,  // measure 10
0001
0000
0010
0000
0100
0000
0010
0000
1001
0000
0100
0000
0010
0000
1000
0000
0001
0000
0000
0000
0020
0000
0000
0030
1001
0000
0100
0000
0010
0000
1000
0000
,  // measure 11
0001
0000
0110
0000
0110
0000
0010
0001
1100
0000
0010
1000
1001
0000
0010
0000
,  // measure 12
0101
1000
0000
0000
1100
0001
0100
0010
1000
0001
0010
0000
0110
0000
1000
0100
,  // measure 13
1000
0010
0100
0001
1010
0010
0000
0000
1100
0000
0010
0000
0101
1000
0010
0100
,  // measure 14
0001
0000
0010
0000
0100
0000
1000
0000
0011
0000
0000
0000
0100
0000
0010
0000
1000
0000
0000
0000
0001
0000
0000
0000
0010
0100
1000
0000
0000
0000
1000
0000
,  // measure 15
0101
0000
0110
0000
1001
0100
0010
0100
0001
1000
0100
1000
0011
0000
0100
0001
,  // measure 16
1000
0100
0010
0000
0101
0000
0010
1000
0001
0000
0010
0000
1100
0000
0001
0100
,  // measure 17
0001
0010
0100
1000
0011
1000
0100
0010
0001
1000
0010
0100
0011
1000
0100
0010
,  // measure 18
0001
0100
0010
1000
0101
0000
0010
0100
1000
0010
0100
0010
1001
0010
0100
0001
,  // measure 19
1000
0010
0100
0010
1001
0000
0010
0001
0100
0001
0010
0100
1001
0010
0100
0001
,  // measure 20
2000
0000
0000
0000
3000
0000
0201
0000
0020
0000
0330
0000
0011
0000
0010
0100
,  // measure 21
1001
0100
0010
0000
0010
0100
0010
0100
0001
0001
0001
0001
0100
0010
1000
0001
,  // measure 22
0110
0000
0001
0100
0010
1000
0101
0000
0010
1000
0010
1000
0101
0010
0100
1000
,  // measure 23
0001
0000
0000
0100
0000
0000
0000
0000
0000
0010
0000
0000
1000
0000
0000
0000
0100
0000
0000
0000
0010
0000
0000
0000
0001
0000
0100
0000
0010
0000
1000
0000
0010
0000
1000
0000
0010
0000
0000
0000
0000
0000
1001
0000
0000
0000
0000
0000
,  // measure 24
1001
0000
0000
0110
0000
0001
0100
0000
0010
1000
0000
0000
0100
0000
0010
0100
0000
1001
0000
0000
0000
0100
0000
0000
,  // measure 25
0011
0000
0000
0000
1100
0000
0001
0000
0100
0000
0000
0000
0000
0000
0000
0000
0010
0000
0100
0000
0001
0100
0001
0100
0001
1000
0001
1000
0001
0000
0100
0000
,  // measure 26
0010
0000
0000
1000
0000
0000
0100
0000
0000
0010
0000
0000
0001
0000
0000
0100
0000
0000
0010
0000
0000
0000
0000
0000
2100
0000
0000
3010
0000
0000
0101
0000
0000
0000
0000
0000
1000
0000
0000
0000
0100
0000
0010
0000
0000
0000
0001
0000
,  // measure 27
1000
0000
0000
0000
0000
0000
0010
0000
0000
0100
0000
0000
0001
0000
0000
0010
0000
0000
0100
0000
1000
0000
0000
0000
0101
0000
0000
0000
0000
0000
0000
0000
0000
1010
0000
0000
0001
0000
0000
0000
0000
0000
0000
0000
0000
0100
0000
0000
,  // measure 28
1001
0010
0000
0000
0101
1010
0000
0000
1000
0100
0010
0100
1000
0000
0000
0000
,  // measure 29
0001
0010
0000
0100
0000
1000
0000
0000
0001
0000
0100
0000
0010
0000
1000
0000
0100
0000
0100
0000
0100
0000
0100
0000
0010
0000
0001
0000
0100
0000
0010
0000
,  // measure 30
1000
0000
0100
0010
0001
1001
0000
0000
1000
0100
1000
0100
0011
0100
1000
0100
,  // measure 31
0010
0000
0000
0001
0000
0000
0000
0000
0000
0001
0000
0000
0100
0000
0000
0000
0010
0000
0000
0000
1000
0000
0000
0000
0011
0000
0000
0000
0000
0000
0100
0000
0000
0100
0000
0000
1000
0000
0000
0010
0000
0000
1001
0000
0000
0000
0000
0000
,  // measure 32
1001
0000
0000
1000
0000
0001
0100
0000
0010
1000
0000
0000
0001
0000
0010
0100
0000
1000
0001
0000
0000
0100
0000
0000
,  // measure 33
1010
0000
0000
0000
1001
0000
0001
0000
0100
0000
0000
0000
0000
0000
0000
0000
0010
0000
1000
0001
1000
0001
1000
0001
0010
0000
0000
0000
0110
0000
0100
0000
,  // measure 34
1000
0000
0000
1000
0000
0000
0000
0000
0000
1000
0000
0000
0101
0000
0000
0000
0001
0000
0100
0000
0000
0000
0000
0000
1010
0000
0000
0000
0000
0000
1000
0000
0000
0000
0100
0000
0010
0000
0000
0000
0001
0000
0100
0000
0000
0000
0001
0000
,  // measure 35
0010
0100
1000
0001
0100
0010
1001
0000
1000
0100
0000
0100
0011
0100
0000
0010
,  // measure 36
0010
0000
1000
0100
0010
0001
0000
0001
0100
0010
1000
0001
0020
0000
0000
0030
,  // measure 37
1100
0100
0000
0000
0010
0000
1001
0100
0010
1000
0100
0000
0010
0001
0000
0001
,  // measure 38
0100
0000
0000
0010
0010
0010
0010
0010
0100
0001
1000
0000
0100
0000
0011
0000
,  // measure 39
1000
0001
0100
0001
0010
0100
1000
0000
0001
0100
0001
0000
1000
0100
0011
0011
,  // measure 40
0000
0000
1100
0000
0000
0000
0000
0000
0101
0000
1000
0000
0100
0000
0000
0000
1001
0000
0000
0000
0000
0000
0000
0000
0001
0000
0100
0000
0001
0000
1000
0100
,  // measure 41
0010
0001
0100
0010
1000
0101
0000
0001
0100
0010
1000
0010
0100
0000
1001
0000
,  // measure 42
0010
0100
1000
0000
0001
0101
0000
0000
1010
0000
1010
0000
1010
1000
0010
0000
,  // measure 43
1010
1010
0000
1000
0011
0100
0000
1010
0000
0101
0000
0000
0110
1000
0110
0000
,  // measure 44
1001
0100
0010
0100
1001
0010
0100
1000
0010
0100
0001
0010
0001
0100
0010
0000
,  // measure 45
1001
0010
0100
1000
0100
0000
0010
0001
1000
0000
1001
0000
0110
0000
0010
1000
,  // measure 46
0001
1000
0010
0000
1001
0010
0100
1000
0010
0100
0010
0100
0001
0000
0001
0100
,  // measure 47
0000
0000
0100
0000
1001
1001
0000
1001
0200
0000
0300
0000
0011
0000
2000
0000
,  // measure 48
3000
0001
0100
0010
1000
1000
1000
1000
0100
0010
0001
0100
0010
1000
0001
0010
,  // measure 49
0000
0100
1000
0001
0001
0100
0000
1010
1000
0100
0010
0001
0001
0100
0100
0010
,  // measure 50
1000
0010
0100
0001
0000
1010
1000
0100
0010
0001
0000
0000
1010
0000
0010
0100
,  // measure 51
1001
0100
0010
1000
0001
0100
0001
0100
0010
0100
0001
0010
0100
1001
0000
1000
,  // measure 52
0011
0000
0000
0000
1010
0001
0010
0001
0010
0001
0010
0001
1000
1100
0000
1100
,  // measure 53
0000
1100
0000
0000
0101
0000
0001
0010
1100
0000
0010
0001
1100
0010
0001
0100
,  // measure 54
0010
0100
1001
0000
1001
0000
0010
1000
0102
0000
1000
0000
0013
0000
0000
0000
,  // measure 55
0101
0000
0000
0000
0001
0010
0100
1000
0010
1000
0010
1000
0100
0010
0001
1000
,  // measure 56
0110
0000
0001
0010
0100
0000
0010
0100
1001
0000
0001
0100
0010
1000
0101
0000
,  // measure 57
1100
0000
0000
0000
0000
0000
0000
0000
0010
0010
0001
0001
0100
0001
1000
0001
,  // measure 58
0010
0100
0010
0100
1001
0010
0100
0001
1000
0100
0010
0001
1010
0000
1000
0100
,  // measure 59
0011
0000
1100
0000
1100
0000
0001
0100
1001
0000
0010
1000
0001
0100
0001
0100
,  // measure 60
0010
1001
0100
0010
1000
0100
0010
0001
0100
0010
1000
0100
1001
0000
0100
0010
,  // measure 61
1100
0000
0100
0101
0000
0000
0010
1000
0001
0010
0010
0001
0100
0010
1000
0000
,  // measure 62
0001
0100
0001
0010
0000
1100
0000
0000
0001
0100
0010
1000
0011
0000
0110
0000
,  // measure 63
1100
1000
0001
0010
0100
1000
0001
0010
0001
0100
0010
1000
0100
0010
0001
1000
,  // measure 64
0110
0000
0001
0000
1000
0000
0100
0010
0100
0000
1000
0000
0010
0000
0100
0000
0001
0000
0020
0000
0000
0000
0000
0000
0130
0000
1000
0000
0001
0000
0100
0000
,  // measure 65
0010
0000
0100
0010
1001
0100
0010
0001
0100
0010
1000
0001
1000
0001
1000
0001
,  // measure 66
0010
0001
0100
0010
1001
0000
0001
0100
0010
1000
0100
1000
0011
0000
0000
0011
,  // measure 67
0000
0000
0000
0000
0000
0000
0011
0000
0000
0000
0000
0000
0001
0000
0010
0000
0100
0000
1000
0000
0100
0000
0010
0000
0001
0000
0000
1000
0000
0000
0010
0000
0000
0100
0000
0000
1001
0000
0000
0000
0000
0000
0100
0000
0000
1000
0000
0000
,  // measure 68
0100
0010
0001
0100
0010
1000
0100
1000
0010
1000
0100
0010
0001
1000
0010
0100
,  // measure 69
1001
0100
0010
0100
1001
0100
0010
0001
1000
1000
1000
1000
1000
0100
0010
0001
,  // measure 70
0100
0010
1000
0001
1000
0100
0010
0001
1100
0001
0100
0010
1000
0100
0010
0001
,  // measure 71
1000
0000
0001
0100
0010
0000
1000
0000
0001
1000
0010
0000
0000
0000
1001
0000
0100
0000
0000
0000
1010
0000
0010
0000
1000
0100
1000
0100
1000
0000
1000
0100
,  // measure 72
1000
0000
0002
0000
0010
0000
0013
0000
0010
0000
0100
0000
1000
0000
1000
0100
1000
0000
0001
0100
0001
0100
0001
0100
0001
0000
0100
0010
1000
0000
0000
0001
,  // measure 73
0010
0000
0100
0000
1000
0000
0001
0000
0100
0000
0002
0000
2003
0000
3002
0000
0103
0000
0010
1000
0010
1000
0010
1000
0001
0010
0001
0000
0001
0000
0100
0000
,  // measure 74
0010
0000
0000
1000
0000
0000
0010
0000
0000
0100
0000
0000
0001
0000
0000
1000
0000
0000
0100
0000
0000
0000
0000
0000
2200
0000
0000
3300
0000
0000
0011
0000
0000
0000
0000
0000
1000
0000
0000
0000
0001
0000
0100
0000
0000
0000
0010
0000
,  // measure 75
1000
0000
0000
0000
0000
0000
0011
0000
0000
0000
0000
0000
1100
0000
0000
0000
0100
0000
0000
0000
0000
0000
0100
0000
1001
0000
0000
0100
0000
0000
0010
0000
0000
0100
0000
0000
1001
0000
0000
0010
0000
0000
0100
0000
0000
1000
0000
0000
,  // measure 76
0100
0011
0000
1000
0011
0010
0000
0000
0001
0001
0100
0010
1001
0000
0000
1000
,  // measure 77
0010
0100
0001
0010
0100
1000
0001
0100
0010
0010
0010
0010
0010
1000
0001
0010
,  // measure 78
0100
1000
0001
0100
0010
0100
0001
0000
1000
0100
0010
0001
1010
0100
0001
1000
,  // measure 79
0100
0000
0020
0000
0031
0000
1001
0000
0100
0000
0000
0010
0000
0000
0000
1000
0001
0000
0000
0000
0110
0000
0010
0000
0001
0000
1000
0010
1000
0000
1000
0001
,  // measure 80
0020
0000
0000
0000
0000
0000
0030
0000
1001
0000
1000
0000
0001
0000
1000
0100
1000
0000
0001
0100
0001
0000
1000
0100
1000
0000
0020
0000
0000
0000
0130
0000
,  // measure 81
0001
0000
1000
0000
1000
0000
0010
0000
0100
0000
0001
0000
0000
0000
0001
0000
0010
0000
0100
1000
0100
1000
0100
1000
0001
0010
0001
0000
1000
0000
0001
0000
,  // measure 82
0010
0000
0000
0000
0000
0000
0000
0000
0000
0000
0000
0000
0200
0000
0000
0000
0000
0000
0000
0000
0000
0000
0000
0000
2300
0000
0000
0000
0000
0000
0000
0000
0000
0000
0000
0000
3002
0000
0000
0000
0000
0000
0000
0000
0000
0000
0000
0000
0023
0000
0000
0000
0000
0000
0000
0000
0000
0000
0000
0000
0230
0000
0000
0000
0000
0000
0000
0000
0000
0000
0000
0000
0300
0000
0000
0000
0000
0000
0000
0000
0000
0000
0000
0000
0000
0000
0000
0000
0000
0000
2000
0000
0000
0000
0000
0000
0000
0000
0000
0000
0000
0000
0002
0000
0000
0000
0000
0000
3000
0000
0000
0000
0000
0000
0003
0000
0000
0000
0000
0000
1010
0000
0000
0000
0000
0000
0000
0000
0000
0000
0000
0000
0000
0000
0000
0000
0100
0000
0000
0000
0000
0000
0000
0000
0001
0000
0000
0000
0000
0000
0000
0000
0000
0000
0000
0000
0000
0000
0000
0000
1000
0000
0000
0000
0000
0000
0000
0000
0010
0000
0000
0000
0000
0000
0000
0000
0000
0000
0000
0000
0000
0000
0000
0000
1000
0000
0000
0000
0000
0000
0000
0000
,  // measure 83
0100
0010
0001
1000
0011
0100
0000
0010
1000
0001
0010
0100
1001
0010
0001
0100
,  // measure 84
0010
1000
0000
0010
1001
0001
0100
0010
1000
0100
0011
0100
1001
0000
0100
0010
,  // measure 85
2002
3003
0110
0000
1010
0000
0101
0000
,  // measure 86
0022
0033
1100
0000
0202
0303
1010
0000
,  // measure 87
2002
0000
3003
0000
;
