#TITLE:We Are Milkcan!!;
#SUBTITLE:UmJammer Lammy (1999);
#ARTIST:MilkCan;
#TITLETRANSLIT:;
#SUBTITLETRANSLIT:;
#ARTISTTRANSLIT:;
#CREDIT:;
#BANNER:We Are Milkcan!!.jpg;
#BACKGROUND:We Are Milkcan!!-bg.jpg;
#LYRICSPATH:;
#CDTITLE:vospi.png;
#MUSIC:We Are Milkcan!!.mp3;
#OFFSET:-0.489;
#SAMPLESTART:187.236;
#SAMPLELENGTH:15.820;
#SELECTABLE:YES;
#BPMS:0.000=200.000,140.000=250.000,144.000=98.000,148.000=122.500,188.000=120.000,228.000=122.600,288.000=163.466,292.000=96.800,296.000=219.600,304.000=220.500,312.000=294.000,316.000=219.600,336.000=225.000,340.000=220.000,344.000=216.500,356.000=225.000,360.000=219.000,364.000=220.000,380.000=203.000,384.000=197.000,388.000=201.000,400.000=191.000,404.000=138.000,408.000=242.000,416.000=240.000,420.000=246.000,424.000=240.000,432.000=218.000,440.000=193.000,448.000=251.000,456.000=240.000,464.000=290.000,472.000=463.000,476.000=245.000,488.000=275.000,496.000=237.000,504.000=168.500,508.000=243.000,516.000=375.000,520.000=364.000,524.000=181.000,540.000=180.000,548.000=182.500,564.000=181.000,580.000=175.000,584.000=186.000,588.000=106.000,592.000=140.000,596.000=160.000,616.000=200.000,760.000=190.000,763.000=1900.000,772.000=200.000;
#STOPS:;
#BGCHANGES:;
// cache tags:
#FIRSTBEAT:8.000;
#LASTBEAT:771.000;
#SONGFILENAME:Songs/VGMP 3/We Are Milkcan!! (Vospi)/We Are Milkcan!!.sm;
#HASMUSIC:1;
#HASBANNER:1;
#MUSICLENGTH:257.488;
// end cache tags

//---------------dance-single - ----------------
#NOTES:
     dance-single:
     :
     Hard:
     12:
     1.000,1.000,1.000,0.462,0.548,1275.000,467.000,119.000,0.000,8.000:

0000
0000
0000
0000
,
0000
0000
0000
0000
,
1010
0010
1100
0010
0101
0000
1010
0000
,
0110
0000
0000
0001
1100
0000
0100
0000
0110
0000
0000
0000
0110
0000
0000
0000
,
0010
0010
0101
0000
0010
0010
0101
0000
,
1000
0101
1000
0010
0101
0000
1100
0000
,
1010
0000
0101
0010
0011
0000
0110
0000
,
0101
0000
1010
0100
0011
0000
1010
0000
,
0110
0010
0101
0000
0110
0110
0101
0000
,
1010
0000
0100
0000
0011
0000
0010
0000
1001
0000
1000
0001
0100
0001
1000
0010
,
1100
0100
1001
0100
0110
1000
0100
0010
,
0011
0001
0110
0010
1100
0100
0002
0000
,
0113
0010
0101
1000
0011
1000
0100
0010
,
0011
0001
0110
0010
1100
0100
0002
0000
,
1013
0000
0101
0000
1010
0000
0100
0010
,
0002
0000
0000
0000
0023
0000
0000
0000
0230
0000
0000
0000
2300
0000
0000
3000
,
0010
1000
0010
0100
0001
0100
0001
1000
,
0110
0001
1010
0100
0011
1000
0110
0001
1010
0000
0000
0000
1001
0000
0000
0000
,
0110
0000
0000
0100
1010
0000
0100
0000
0011
0000
0000
0010
1100
0000
0100
0000
,
1010
0000
0010
0000
0110
0000
0010
0000
1001
0000
0000
0010
0101
0000
0000
0000
,
0010
0010
0101
0000
0010
0010
0101
0000
,
1010
0000
0010
0000
1100
0000
0010
0000
0101
0000
0001
0100
0010
0000
0001
1000
,
0110
0000
1010
0000
0101
0000
0110
0000
0011
0000
1010
0000
0220
0000
0000
0330
,
1001
0000
1010
0000
0101
0000
0110
0000
1010
0000
0101
0000
0220
0000
0000
0330
,
0001
1000
0001
1000
0001
1000
0001
1000
,
1100
0000
0100
0000
0110
0000
0010
0000
1001
0100
0000
0010
0001
1000
0010
0100
,
1001
0100
0010
0001
0220
0000
0000
0330
,
2002
0000
0000
0000
0000
3003
0000
0000
,
0001
1000
0001
1000
0010
0100
0010
0100
0001
1000
0001
1000
0010
0100
0010
0100
,
0001
1000
0001
1000
0010
0100
0010
0100
0001
1000
0001
1000
0010
0100
0010
0100
,
0001
1000
0001
1000
0010
0100
0010
0100
0001
1000
0010
0100
0001
0100
0010
1000
,
0001
0010
0100
1000
0010
0100
0001
0010
0100
1000
0010
0100
0001
1000
0100
0010
,
0001
0100
0010
0100
0001
1000
0010
0100
0001
1000
0100
0010
0001
0100
0010
1000
,
0001
0010
0100
1000
0001
0010
0100
1000
0010
0100
0010
1000
0100
0010
0001
0020
,
0000
0000
0000
0000
0000
0000
0000
0000
0000
0000
0000
0000
0000
0000
0000
0030
,
0110
0000
0000
0000
0110
0000
0000
0000
0110
0000
0000
0000
,
2002
0000
0000
0000
0000
0000
0000
0000
0000
0000
0000
0000
0000
0000
0000
3003
,
0110
0000
0000
0000
0000
0000
0001
0000
0000
0100
0000
0000
0000
0000
0000
0010
0000
0000
1000
0000
0000
0000
0001
0100
0010
0000
0000
0010
0000
0000
0100
0000
0000
0100
0000
0000
0001
0000
0000
0001
0000
0000
0010
0000
0000
0100
0000
0000
,
1001
0000
0001
1100
0001
0000
0100
0000
1010
0000
0000
0100
0011
0000
0100
0000
,
1001
0000
0000
0000
0000
0000
0000
0000
0000
0010
0000
0000
1001
0000
0000
0000
0000
0000
1001
0000
0000
0000
0000
0000
1001
0000
0000
0000
0000
0000
0100
0000
0000
0000
0000
0000
0001
0000
0100
0000
0010
0000
1000
0000
0001
0000
0100
0000
,
1001
0000
0001
1100
0010
0000
0010
0000
0101
0000
0000
1010
0001
0000
0110
0000
,
1001
0000
0000
0010
1001
0000
1001
0010
0101
0000
0100
0000
2002
0000
3003
0000
,
1001
0000
0001
1100
0010
0000
1000
0000
0101
0000
0000
1010
0101
0000
0110
0000
,
1001
0000
0100
0010
1001
0000
1001
0000
0011
0000
0100
0000
0010
1000
0100
0000
,
2002
0000
3003
0000
,
0000
0000
0000
0000
,
0000
0000
0000
0000
,
1000
0000
0010
0100
0010
0000
1000
0000
,
0020
0000
0000
0000
0000
0030
0010
0000
0010
0000
0000
0000
0100
0000
0000
0000
,
0002
0000
0000
0000
0000
0003
0001
0000
0002
0000
0000
0003
0002
0000
0000
0003
,
0002
0000
0000
0000
0000
0000
0000
0003
0100
0000
0000
0000
0000
0000
0000
0000
,
1000
0000
0001
0100
0001
0000
1000
0000
,
0001
0000
0000
0010
0001
0000
1000
0000
,
0002
0000
0003
0001
0002
0003
0002
0003
,
0002
0000
0000
0000
0000
0003
0000
0100
,
0002
0000
0003
0010
0100
0000
1000
0000
,
1010
0000
0000
0000
0000
0000
0110
0000
0000
0000
0000
0000
0101
0000
0000
0000
0000
0000
0010
0100
0001
1000
0000
0000
,
2002
3003
0001
1100
0010
0000
0100
0000
0101
0000
0000
1010
0001
0000
0110
0000
,
1010
0000
0000
0010
0101
0000
0101
0000
1001
0000
1000
1000
0000
0010
0010
0010
,
0000
0000
0000
0000
,
2002
3003
0010
1100
0001
0000
1100
0000
0101
0000
0000
1001
0010
0000
1100
0000
,
2002
3003
0000
0010
1001
0000
0110
0000
0011
0000
0100
0100
0000
0001
0001
0001
,
0010
0000
0100
0000
0001
0000
1000
0000
0100
0000
0010
0000
0001
0000
0000
0000
0000
0000
0100
0000
0000
0010
0000
0000
0001
0000
0010
0000
0100
0000
1000
0000
0010
0000
0100
0000
0001
0000
0000
0000
0000
0000
0000
0000
0000
0000
0000
0000
,
1001
0000
0010
1100
0001
0000
1000
0000
0011
0000
0000
1100
0010
0000
0110
0000
,
0000
0000
0000
0000
0000
0000
0000
0000
2002
0000
3003
1001
0010
0000
1100
0000
,
0110
0000
0010
1100
0001
0000
0100
0000
1001
0000
0000
1010
0001
0000
0110
0000
,
0000
0000
0000
0000
0000
0000
0000
0000
0202
0000
0303
0010
1001
0000
0011
0000
,
1010
0000
0010
1100
0001
0000
0100
0000
0000
0000
0000
0000
0101
0000
0000
0110
,
0001
0000
0010
1000
0100
0000
0010
1100
0001
0000
1000
0000
0000
0000
0000
0000
,
1001
0000
0000
0011
1000
0000
0010
0001
1000
0000
0010
1100
0001
0000
1010
0000
,
0101
0000
0000
0110
0001
0000
1100
0000
0101
0000
0000
1100
0011
0000
0011
0000
,
0022
0000
0000
0033
0220
0000
0000
0330
2020
0000
0000
0000
0000
0000
0000
0000
,
0000
0000
0000
0000
0000
3030
0000
0000
,
1001
0000
0000
0000
,
1001
0100
1100
0010
0101
0000
1100
0000
,
1001
0001
0110
0001
1010
0000
0101
0000
,
1010
1001
0000
0000
0000
0000
0000
0000
,
0000
0000
0000
0000
0000
0001
0010
0100
1000
0100
0010
0001
,
0000
0000
0000
0000
,
1010
1000
0101
0100
0101
0001
1010
0010
,
0101
0000
0010
0000
0001
0000
0220
0000
0000
0330
0010
0000
0100
0000
0010
0000
,
1001
0001
0110
0010
0110
0100
0101
0001
,
0110
0000
0010
0000
0010
0000
2002
0000
0000
3003
0100
0000
0011
0000
0000
0000
,
1010
1000
0110
1000
0101
1000
0011
0110
,
1010
0000
0100
0000
0010
0000
0202
0000
0000
0303
1000
0000
0011
0000
0000
0000
,
1100
0110
1001
0000
0011
0110
1001
0000
,
1001
0000
2020
0000
0000
0000
0000
3030
,
0010
1000
0010
1000
0001
1000
0010
1000
,
0001
0100
0010
1000
0001
0010
0100
1000
,
0100
1000
0010
1000
0001
1000
0100
1000
,
0001
1000
0010
1000
0001
0100
0001
0010
,
0100
1000
0010
1000
0001
1000
0100
1000
,
0010
0100
0001
0100
0010
1000
0100
1000
,
0001
0100
0001
0100
0010
1000
0010
1000
,
0200
0300
0020
0030
0002
0000
0003
0000
0020
0030
0200
0300
2000
0000
3000
0000
,
1100
0110
0011
0000
0011
0110
1100
0000
,
1001
0000
0010
0100
0010
0100
0010
1000
0010
1000
0001
0100
0001
0010
0100
1000
,
0101
0000
0101
0000
1010
0000
0001
0100
0011
0000
0100
0000
1100
0000
0001
0100
,
0011
0000
0011
0000
0110
0000
0001
0100
1001
0000
0100
0000
1010
0000
0100
0000
,
0010
0000
0010
0000
0202
0000
0000
0303
0010
0000
0010
0000
2002
0000
3003
0000
,
1100
0000
1100
0000
0110
0000
0101
0000
0011
0000
0010
0100
0010
0100
0010
0100
,
1001
0010
0100
0001
0100
0010
1000
0100
0010
0001
0100
0010
1000
0010
0100
0001
0010
0100
1000
0100
0010
0001
0010
0100
,
1001
0000
0000
0000
,
0110
0110
2002
3003
0110
0110
2002
3003
,
1010
1100
0110
0101
0022
0000
0000
0033
,
0001
0100
0001
0100
0001
0100
0001
0100
0001
0100
0001
0100
0001
0100
0001
0100
,
1010
1100
2020
3030
1010
1100
2020
3030
,
1010
0000
0010
0000
1100
0000
0010
0000
0001
1000
0001
1000
0220
0000
0000
0000
,
0000
0000
0000
0000
,
0000
0000
0000
0000
0000
0000
0000
0000
0000
0000
0000
0000
0000
0000
0000
0330
,
1001
0000
0000
0000
,
0000
0000
0000
0000
,
1001
0000
0000
0000
,
0000
0000
0000
0000
,
1001
0000
0000
0000
,
0000
0000
0000
0000
,
1001
0000
0000
0000
,
0000
0000
0000
0000
,
1001
0000
0000
0000
0000
0000
0000
0000
0000
0000
0000
0000
0000
0110
0000
0000
,
1010
0100
0011
0100
1010
0001
0110
1000
,
0110
0001
1010
0100
1011
0010
1101
0001
,
1110
0000
2222
0000
,
0000
0000
0000
0000
0000
0000
0000
0000
0000
0000
0000
0000
0000
0000
0000
3333
0000
0000
1000
0000
0100
0000
0001
0000
,
0000
0000
0000
0000
,
0010
1000
0010
0000
0010
1000
0010
0000
,
0010
1000
0100
0010
0002
0000
0000
0000
,
0000
0000
0000
0000
0000
0000
0003
0100
0010
0001
0000
0000
0000
0000
0000
0000
0000
0000
0000
0000
0000
0000
0000
0000
,
1001
0100
0011
0001
0022
0033
2200
3300
,
1100
0000
0000
0000
0000
0000
0000
0000
0000
0000
0000
0000
1010
0000
0000
0000
0000
0000
0000
0000
0000
0000
0000
0000
1001
0000
0000
0000
0000
0000
0000
0000
0000
0000
0000
0001
1000
0000
0000
0000
0000
0000
0000
0000
0000
0000
0000
0000
,
0000
0000
0000
0000
,
2002
0000
0000
0000
0000
0000
0000
0000
0000
0000
0000
0000
0000
0000
0000
3003
,
0110
0100
1100
0010
0101
0001
0110
0010
,
0100
0000
0010
0000
0100
0000
0010
0000
0100
0000
0010
0000
1001
0000
0000
0001
0000
0000
1100
0000
0000
0010
0000
0000
,
0110
0010
1100
0010
0101
0001
1100
0001
,
1010
0010
1010
1000
1001
0000
0011
0000
,
1001
0000
0001
0010
0001
0010
0001
0010
,
0001
0000
0010
0000
0100
0000
1000
0000
0100
0010
0001
0010
0100
1000
0100
0010
,
1001
0100
0011
0100
1000
0100
0011
0100
,
1002
0000
0000
0000
1003
0000
0001
0000
1020
0000
0000
0030
0100
1000
0100
0010
,
1001
0100
0011
0100
1000
0100
0011
0100
,
1002
0000
0000
0000
1000
0003
0001
0010
1200
0000
0000
0300
2002
0000
0000
3003
,
1000
0000
0010
0100
0011
0000
0100
0000
0010
0000
0100
0000
1001
0000
0100
0000
,
1002
0000
0000
0000
1000
0003
0001
0010
1200
0000
0000
0300
1001
0000
0100
0000
,
1010
0000
0100
0000
0011
0000
0010
0100
0001
0000
1000
0000
0110
0000
0001
0000
,
1001
0000
0001
0000
0100
0000
0010
0100
1001
0000
0000
0000
2200
0000
0000
0000
,
0000
0000
0000
0000
0000
0000
0000
0000
0000
0000
0000
0000
0000
0000
0000
3300
,
0011
1000
0100
0010
0100
0010
0001
1000
0100
0010
0100
0010
,
0001
0000
0010
1000
0100
0010
0001
0000
0010
0200
0000
0000
,
0000
0000
0000
0000
0000
0000
0000
0000
0000
0000
0000
0000
0000
0000
0000
0300
,
1001
0000
0010
1100
0010
0001
0110
0000
0001
0110
1000
0001
,
1010
0000
0010
0101
1000
0100
0010
0000
0010
1100
0001
0100
,
1001
0000
0100
1000
0010
0100
0011
0000
0010
0100
0010
0001
,
1010
0001
0100
1010
0001
1100
0101
1010
0001
1010
0001
0110
,
2002
0000
0000
0000
,
0000
0000
3003
0000
0000
0000
0001
0000
0000
0010
0000
0000
0100
0000
0000
1000
0000
0000
0010
0000
0000
0100
0000
0000
,
1010
0000
0010
0000
1100
0000
0010
0000
0101
0000
0000
0001
1010
0000
0000
0000
,
0110
0000
0000
0001
1100
0000
0100
0000
0110
0000
0000
0010
1100
0000
0000
0000
,
0010
0010
0101
0000
0010
0010
0101
0000
,
1000
0101
1000
0010
0101
0000
1100
0000
,
1010
0100
0001
0000
0101
0000
0010
0000
0011
0000
0000
1000
0110
0000
0000
0000
,
0101
0000
0001
0000
1010
0000
0100
0000
0011
0000
0000
0001
1010
0000
0000
0000
,
0110
0010
0101
0000
0110
0110
0101
0000
,
1010
0000
0100
0000
0011
0000
0010
0000
1001
0000
1000
0001
0100
0001
1000
0010
,
1100
0100
1001
0100
0110
1000
0100
0010
,
0011
0110
1100
0001
,
0110
0010
0101
1000
0011
1000
0100
0010
,
0011
0110
1100
0001
,
1001
0000
0101
0000
1010
0000
0100
0010
,
0002
0000
0000
0000
0023
0000
0000
0000
0230
0000
0000
0000
2300
0000
0000
3000
,
0010
1000
0010
0100
0001
0100
0001
1000
,
0110
0001
1010
0100
0011
1000
0110
0001
1010
0000
0000
0000
1001
0000
0000
0000
,
0110
0100
1010
0100
0011
0010
1100
0100
,
1010
0010
0110
0010
1001
0000
0101
0000
,
0010
0010
0101
0000
0010
0010
0101
0000
,
1010
0000
0010
0000
1100
0000
0010
0000
0101
0000
0001
0100
0010
0000
0001
1000
,
0110
0000
1010
0000
0101
0000
0110
0000
0011
0000
1010
0000
0220
0000
0000
0330
,
1001
1010
0101
0110
1010
0101
0110
1100
,
0110
0000
1010
0000
0101
0000
0110
0000
0011
0000
1010
0000
0220
0000
0000
0330
,
1001
0110
2002
3003
0110
1100
0011
0000
,
1010
0010
1100
0010
0101
0000
1010
0000
,
1010
0010
1100
0010
2002
0000
0000
3003
,
0101
0100
1010
0000
0101
0100
1010
0000
,
1010
0000
0010
0000
0110
0000
0010
0000
1001
0010
0001
0010
0100
1000
0010
0100
,
2002
0000
0000
0000
,
0000
0000
0000
0000
0000
0000
0000
0000
0000
0000
0000
0000
0000
0000
0000
3003
,
0110
1000
0010
0100
0001
0100
0010
1000
0101
0010
0001
0010
0100
1000
0100
0010
,
1001
0010
0100
0010
0001
0100
0010
0100
1001
0100
0010
0100
0001
0010
0100
1000
,
0110
1000
0001
0010
1100
0010
0001
1000
0011
1000
0001
0100
0011
1000
0001
0010
,
1100
0010
0100
1000
0110
1000
0100
0010
0101
1000
0010
0100
0011
0000
0000
0000
,
0011
1000
0101
0000
1010
0000
0110
0000
0101
0000
0100
0000
1010
0000
1001
0000
,
0111
0000
0000
0000
1000
0000
0100
0010
1001
0000
0000
0000
2222
0000
0000
0000
,
0000
0000
0000
0000
,
0000
0000
0000
3333
;

//---------------dance-single - Hard Edit----------------
#NOTES:
     dance-single:
     Hard Edit:
     Edit:
     12:
     0.000,0.000,0.000,0.000,0.000,0.000,0.000,0.000,0.000,0.000:
;
