#TITLE:OblivioN;
#SUBTITLE:;
#ARTIST:ESTi;
#TITLETRANSLIT:;
#SUBTITLETRANSLIT:;
#ARTISTTRANSLIT:;
#CREDIT:;
#BANNER:oblivion-banner.png;
#BACKGROUND:oblivion-bg.png;
#LYRICSPATH:;
#CDTITLE:timsilog-title.png;
#MUSIC:OBLIVION.mp3;
#OFFSET:0.080;
#SAMPLESTART:100.000;
#SAMPLELENGTH:12.000;
#SELECTABLE:YES;
#BPMS:0.000=141.040;
#STOPS:;
#BGCHANGES:176.500=oblivion2-bg.png=1.000=1=0=1,
99999=-nosongbg-=1.000=0=0=0 // don't automatically add -songbackground-
;
// cache tags:
#FIRSTBEAT:0.000;
#LASTBEAT:276.500;
#SONGFILENAME:Songs/toune 2/oblivion/oblivion.sm;
#HASMUSIC:1;
#HASBANNER:1;
#MUSICLENGTH:122.723;
// end cache tags

//---------------dance-single - ----------------
#NOTES:
     dance-single:
     :
     Hard:
     10:
     0.818,0.958,0.587,0.464,0.713,574.000,72.000,57.000,0.000,5.000:
2000
0000
0000
0001
0010
0001
3010
0200
,
0000
0302
0000
1000
0100
0010
0000
0010
,
0100
2003
0000
3002
0000
0023
0000
0230
,
0300
2000
0000
0001
0010
0100
0010
0001
,
3010
0200
0000
2300
0000
3020
0000
0032
,
0003
2000
0000
0100
3010
0020
0130
0020
,
0000
0032
0000
0100
1000
0010
0000
1003
,
0100
0020
0000
0000
0030
1100
0110
0101
,
0010
0000
0012
0000
0000
0000
0100
0000
0000
1000
0010
0000
1000
0000
0100
0003
,
0000
0002
0000
0023
0000
0230
0000
0302
,
0000
0000
0023
0000
0000
0000
0100
0000
0000
0001
1000
0030
0001
0000
1100
0000
,
0000
0200
0000
0320
0000
0032
0000
0023
,
0000
0000
0230
0000
0000
0000
0010
0000
0000
0001
1000
0000
0010
0300
1001
0000
,
0100
0000
2100
0000
0000
0000
0000
0000
0000
3000
0020
0000
0000
0000
0230
0000
,
0000
1302
0000
0000
0000
1000
0000
0000
,
0000
2103
0000
0100
0000
0100
0000
0100
,
0000
3000
1001
0100
0010
0100
0010
1000
0001
0010
0100
0010
0001
0010
0100
1000
,
0100
0010
0100
0010
1000
0001
1000
0001
0010
0001
0010
0100
1000
0001
0010
0100
,
0010
0100
1000
0100
0010
1000
0010
0100
0001
0010
0100
1000
0010
0100
0001
1000
,
0100
0010
0000
0101
1010
0101
0000
0010
0100
0010
0100
1000
0100
0010
0100
0001
,
0100
1000
0001
0010
0100
1000
0010
1000
0100
0010
0100
0010
0100
0001
1000
0001
,
1000
0010
1000
0010
0001
0100
0001
0100
0010
1000
0010
1000
0100
0010
0001
1000
,
0010
0100
0001
0010
0001
0100
1000
0100
0001
0100
0001
1000
0010
1000
0001
0100
,
0001
1000
0100
0010
0100
0010
0001
1000
0001
0010
0100
0010
0100
1000
0100
0010
,
0001
0010
2002
0000
3003
0000
0000
0000
0000
0000
0000
0000
0001
0000
1000
0000
,
0100
0000
0020
0000
0000
0000
0100
0000
0000
0000
0000
0000
0000
0000
0100
0030
,
0001
0000
1000
0000
0000
0001
0100
0000
0010
0000
0001
0000
0000
0010
0100
0000
,
0001
0000
1000
0000
0001
0000
0100
0000
0020
0000
0001
0000
0000
0000
1100
0030
,
0010
1000
0001
0100
0010
0001
1010
0101
,
0010
0000
0002
0000
0000
0000
0100
0000
0000
0000
0000
0003
1000
0000
0100
0000
,
1000
0000
0001
0000
0000
1000
0100
0000
0100
0000
0010
0000
0000
0001
0100
0000
,
0010
0000
0200
0000
0000
0010
0000
0000
0001
0000
0010
0300
1000
0001
0110
0000
,
2010
0000
0100
0000
0000
0001
0100
0000
0010
0000
0100
3000
0010
0010
0100
0001
,
0100
0020
0000
0100
0000
0000
0030
0100
,
1000
0000
0010
0000
0000
0000
1100
0000
0001
0000
0010
0000
0000
0001
0100
0000
,
1000
0000
0002
0000
0000
0000
0100
0000
0000
0000
0000
0003
1000
0001
0100
0000
,
1000
0020
0000
0100
0000
0000
0001
0130
,
1000
0000
0200
0000
0010
0000
0001
0000
0010
0000
0001
0300
0010
0000
0101
0000
,
0010
0000
0200
0000
0010
0000
0001
0000
0010
0300
2001
0000
0000
3000
0102
0000
,
0000
0000
0023
0000
0000
0000
0100
0000
1000
0100
0001
0100
1000
0001
0230
1000
,
0010
0000
0000
0300
0000
0000
2002
0000
0000
0000
0000
0000
0000
0000
0000
0000
0000
0000
0000
0000
0000
0000
0000
0000
0000
0000
0000
0000
0000
0000
3003
0000
0100
0000
0010
0000
0100
0000
0000
0000
0000
0000
0100
0000
0000
0000
0000
0000
,
0100
0000
1010
0100
1000
0100
0010
0100
0010
0001
1000
0010
0001
0010
1100
0000
,
0000
0000
1010
0100
0010
0001
0100
0010
1000
0100
0010
0001
0010
0100
1000
0010
,
0100
1000
0110
0000
0000
0000
0011
0000
0000
0000
0110
0000
0000
0000
1010
0000
,
0000
0000
0101
0010
0001
0010
0100
0001
0100
0010
1000
0100
1000
0001
1000
0100
,
0010
0100
1100
0000
0000
0000
0101
0000
0000
0000
0110
0000
0000
0000
1001
0000
,
0000
0000
1010
0100
0010
0001
0010
0001
0100
1000
0110
0000
0000
0000
0101
0000
,
0000
0000
1010
0100
0010
0100
0001
0010
0100
0010
0100
1000
0100
0010
0101
0000
,
0110
1100
0000
0000
0000
1001
1010
0110
,
0101
0000
0011
0001
0010
0001
1000
0010
1000
0100
0001
0100
0010
1000
0010
1000
,
0100
0010
1001
0000
0010
0000
0011
0000
1000
0000
0101
0000
0010
0000
1100
0000
,
0000
0000
0110
0001
0010
0100
0001
0100
0001
0010
0100
0010
1000
0010
0100
1000
,
0001
0010
0110
0000
0010
0000
0011
0000
0001
0000
0101
0000
0010
0000
1100
0000
,
0010
0000
0101
1000
0010
0100
0001
0100
0010
1000
0100
0010
0100
0001
0011
0000
,
0110
1100
0000
0000
0000
1010
0000
1100
,
0000
0000
0022
0000
0000
0000
0000
0000
0000
0000
0000
0000
0033
0000
0100
0001
,
0100
0001
0100
0000
1000
0100
0010
0100
1000
0001
0010
0100
0010
0001
0010
1000
,
0010
0001
1001
0000
0000
0000
0000
0000
0100
0000
0010
0000
0001
0000
0010
0000
,
0100
0000
1100
0010
0100
0010
0001
0010
1000
0010
0001
0000
0000
0000
0000
0000
,
0000
1000
0000
0000
0001
0010
0001
0010
,
1000
0000
0101
0010
0100
0001
0100
0010
1000
0100
0011
0000
0000
0000
0000
0000
,
0000
1010
0000
0000
0001
1000
0001
0010
,
1000
0000
0110
0010
0001
0010
1000
0010
0001
0100
0001
0000
0000
0000
0000
0000
,
0000
1000
0000
0100
0000
0010
0000
0001
,
0000
0000
0010
0000
0000
0000
0000
0000
0001
1000
0100
0000
0000
0000
0000
0000
,
0100
0000
0102
0000
0000
0000
0000
0000
0000
0000
0000
0000
0000
0000
0000
0003
,
0000
0000
2000
0000
0000
0000
0000
0000
0000
0100
0010
0001
0010
0001
0100
0010
,
0100
0001
0020
0100
3001
0100
1000
0100
1000
0001
0100
0001
1000
0100
0001
0100
,
1030
0100
1010
0000
0000
0000
0010
1000
0010
1000
0020
0000
0000
0000
0000
0000
,
0000
0030
0000
0000
0000
0000
0000
0000
;
