#TITLE:R.E.M. III;
#SUBTITLE:;
#ARTIST:Dimrain47;
#TITLETRANSLIT:;
#SUBTITLETRANSLIT:;
#ARTISTTRANSLIT:;
#CREDIT:;
#BANNER:../fallback-bn.png;
#BACKGROUND:../fallback-bg.png;
#LYRICSPATH:;
#CDTITLE:;
#MUSIC:Dimrain47 - REM III.ogg;
#OFFSET:0.038;
#SAMPLESTART:42.712;
#SAMPLELENGTH:12.000;
#SELECTABLE:YES;
#BPMS:0.000=170.000;
#STOPS:492.000=0.360
;
#BGCHANGES:;
// cache tags:
#FIRSTBEAT:24.000;
#LASTBEAT:663.000;
#SONGFILENAME:Songs/SSSC PACK/[Mad Matt] - R.E.M. III/REM III.sm;
#HASMUSIC:1;
#HASBANNER:1;
#MUSICLENGTH:235.765;
// end cache tags

//---------------dance-single - Blank----------------
#NOTES:
     dance-single:
     Blank:
     Challenge:
     12:
     0.956,1.000,0.314,0.534,0.689,1377.000,74.000,126.000,0.000,0.000:




0000
0000
0000
0000
,
0000
0000
0000
0000
,
0000
0000
0000
0000
,
0000
0000
0000
0000
,
0000
0000
0000
0000
,
0000
0000
0000
0000
,
1000
0100
1000
0000
0001
0010
0001
0000
1000
0010
1000
0000
0001
0100
0001
0000
,
1000
0010
0100
0000
0001
1000
0010
0000
0100
0001
1000
0000
0100
0010
0001
0000
,
1000
0100
1000
0000
0010
0100
0010
0000
0100
0001
0100
0000
0001
1000
0001
0000
,
1000
0010
0100
0000
0001
1000
0100
0000
0010
0001
1000
0000
0010
0100
0001
0000
,
1000
0100
1000
0000
0100
0010
0100
0000
1000
0100
1000
0000
0001
0010
0001
0000
,
1000
0100
1000
0100
0010
0001
0010
0000
0100
1000
0100
1000
0001
0100
0001
0000
,
1000
0010
1000
0000
0010
0100
0010
0000
1000
0010
1000
0000
0001
0100
0001
0000
,
1000
0010
1000
0010
0100
0001
0100
0000
0010
1000
0010
1000
0100
1000
0100
0000
,
0010
0001
1000
0000
0001
1000
0010
0000
1000
0001
0010
0000
0100
1000
0001
0000
,
1000
0100
0010
0001
0010
0100
1000
0000
0001
0010
0001
1000
0010
1000
0001
0000
,
1000
0010
0100
0000
0010
1000
0001
0000
1000
0100
0010
0000
0100
1000
0001
0000
,
1000
0010
0100
0010
0100
0001
1000
0000
0001
1000
0001
1000
0100
0010
0001
0000
,
2100
0010
3010
0200
0301
1000
0020
0130
,
0001
0010
0100
1000
0001
1000
0100
0010
0001
1000
0001
1000
0010
0100
0001
1000
,
0001
1000
0010
0100
0010
1000
0001
1000
0001
0010
0100
1000
0001
1000
0001
0010
,
0200
0000
0000
0000
0000
0000
0000
0300
,
1000
0010
0100
0000
1000
0010
0100
0000
,
0001
1000
1100
0000
1000
0001
0101
0000
,
1000
0100
0010
0001
0010
0100
1000
0010
,
1010
1000
0010
0100
0101
0001
1000
0100
,
0012
0100
0103
0020
1030
0001
0200
0310
,
1000
0001
0010
0100
1000
0100
0010
0001
1000
0010
0100
0010
0100
0001
1000
0010
,
0100
0001
1000
0001
1000
0100
0010
0001
0010
0100
0010
0100
1000
0001
1000
0010
,
0200
0000
0000
0000
0310
0100
0001
1000
,
0200
0010
0310
0200
0010
0300
0020
0000
,
0031
0010
0100
0010
0100
1000
0001
1000
0001
0100
0010
1000
0010
1000
0001
0010
,
0200
1000
1300
0200
1000
0300
2000
0000
,
3000
0000
0000
0000
0000
0000
0000
0000
0020
0000
0000
0000
0130
0001
0100
0001
,
2000
0010
3010
0200
0301
1000
0200
0310
,
0001
0000
0000
0000
0011
0000
0000
0000
1000
0010
0100
0010
0100
0000
0010
0100
,
0002
1000
1003
0002
1000
0003
2000
0000
,
3010
0000
0000
0000
1001
0000
0000
0000
0001
1000
0100
1000
0001
0000
0010
0000
,
0200
0010
0310
0002
0013
0100
2000
3010
,
0100
0000
0000
0000
1010
0000
0000
0000
1000
0010
0100
0001
0100
0000
0010
0000
,
2000
0100
3100
2000
0100
3000
0200
0000
,
0310
0000
0000
0000
0011
0000
0000
0000
2000
0000
0000
0000
0020
0000
0000
3030
,
0002
0100
0103
0020
1030
0001
2000
3100
,
0100
0000
0010
0000
0001
0000
1000
0000
0001
0100
0010
0100
0010
0000
1000
0001
,
0200
0010
0310
0200
0010
0300
2000
0000
,
3100
0000
0010
0000
0001
0000
0010
0000
0100
1000
0100
1000
0001
0000
0010
0000
,
0200
0010
0310
0002
0103
0010
2000
3100
,
0010
0000
0100
0000
1000
0000
0100
0000
0010
0001
0010
0001
0100
0000
0010
0000
,
2000
0100
3100
0020
0001
0030
0200
0000
,
0300
0000
0000
0000
0000
0000
0000
0000
0020
0000
0000
0000
2000
0000
0000
3030
,
0101
0000
0100
0110
0000
0010
1010
0000
,
1000
0000
0200
0000
0000
0000
0000
0000
0320
0000
0000
0000
0032
0000
0000
0003
,
0101
0000
0010
1010
0000
1000
1100
0000
,
0100
0020
0000
0000
0032
0000
0203
0000
,
0310
1000
0010
1000
0001
1000
0010
1000
0001
1000
0100
0010
0001
1000
0001
1000
,
0100
0000
0010
0000
0001
0000
1000
0000
0010
0000
0100
0000
,
0101
0000
0010
1010
0000
1000
1100
0000
,
0000
0200
0000
0000
0310
0001
0010
0100
,
1000
0000
0001
0100
0001
0000
1000
0010
1000
0000
0010
0000
0100
0000
0000
0000
,
0001
0000
0010
0100
0010
0000
0100
0000
1000
0010
0000
0000
0100
0000
0000
0000
,
0001
0000
1000
0010
1000
0000
0000
0001
0100
0000
0010
0000
0100
0000
0000
0000
,
0010
0000
1000
0010
0100
0000
0001
0000
1000
0100
0000
0000
0010
0000
0000
0000
,
0001
0000
1000
0100
1000
0000
0001
0010
0001
0000
1000
0000
0010
0000
0000
0000
,
0100
0000
0001
0100
0001
0000
0010
0000
0100
1000
0000
0000
0001
0000
0000
0000
,
0100
0000
0010
0100
0010
0000
0000
1000
0010
0000
0100
0000
0001
0000
0000
0000
,
1000
0000
0010
0100
0001
0000
1000
0000
0001
0010
0000
0000
0100
0000
0000
0000
,
1000
0100
1000
0010
1010
1000
0100
0000
,
0010
0001
0010
0100
1100
1000
0010
0000
,
1000
0010
0100
0001
1001
1000
0100
0010
,
1001
0010
0100
0001
1010
0100
0001
0000
,
1000
0100
0010
0001
1010
0100
0001
0000
,
1000
0001
0010
0001
0101
0100
0010
0000
,
0001
1000
0100
1000
0101
0010
1000
0100
,
0011
1000
0010
0100
1010
1000
0100
0010
,
0001
0010
0100
1000
0100
0000
0010
0000
0001
0000
1000
0000
0010
0000
0000
0000
,
1000
0001
0010
0001
0100
0000
0020
0000
2030
0000
3200
0000
0320
0000
0030
0000
,
0001
1000
0010
0100
0110
0001
0010
0100
,
1000
0100
0010
0100
1000
0001
0100
0001
0100
0010
1000
0001
1000
0001
0010
0100
,
1000
0001
0100
0010
0101
0001
1000
0000
,
0001
0100
0010
0100
0010
0000
2000
0000
3200
0000
0320
0000
0032
0000
0003
0000
,
1000
0010
0100
0001
0110
1000
0100
0010
,
0001
0010
0100
1000
0001
1000
0001
0100
0010
1000
0001
1000
0100
0010
0001
1000
,
0010
0100
0010
0100
0010
0100
0010
0000
0100
0001
1000
0001
1000
0000
0000
0000
,
0001
0010
0001
0010
0001
0010
0001
0000
0100
0010
1000
0010
1000
0001
0100
0010
,
1000
0100
1000
0100
0010
0001
0010
0001
1000
0010
1000
0010
0100
0001
0010
0100
,
1000
0001
1000
0001
0100
0010
0100
0010
1000
0100
1000
0100
0010
0001
1000
0010
,
0100
0001
0100
0001
1000
0100
1000
0100
0010
0001
0010
0001
0100
0010
0100
0010
,
1000
0100
0010
0001
1000
0001
0010
0100
1000
0001
0100
0010
1000
0100
0010
0001
,
1000
0010
1000
0001
1000
0100
1000
0001
1000
0010
1000
0001
1000
0100
0010
0001
,
0100
0001
1000
0001
0010
0001
1000
0001
0100
0001
1000
0001
0010
0100
1000
0010
,
0100
0001
0010
0100
1000
0001
1000
0100
0010
0001
1000
0001
0010
0100
1000
0001
,
1000
0010
0100
0001
0100
0010
1000
0001
0100
0001
0010
0100
1000
0010
0100
0001
,
0100
0000
0010
1000
0010
0000
0100
0000
0001
1000
0001
1000
0100
0000
0010
0001
,
0010
0000
0200
0300
2000
3000
0020
0030
0200
0300
0000
0001
0100
0000
0010
0000
,
1000
0010
1001
0100
0100
0100
0010
1000
,
0001
0001
1010
1000
0010
0100
0001
0010
,
0100
0000
1000
0100
1000
0000
0100
0000
1000
0010
1000
0001
0100
0000
0010
1000
,
0010
0000
0200
0300
0002
0003
2000
3000
0200
0300
0010
0000
0001
0000
0010
0000
,
0101
1000
1000
1000
0001
0010
0100
0100
,
0011
0000
1000
0000
0010
0000
1000
0000
0200
0000
0000
0000
0310
0001
0010
0100
,
1000
0020
0130
0002
1003
0000
1000
0200
,
0301
0010
0100
1000
0100
0010
0001
1000
,
0101
0001
1000
0010
0100
1000
0010
0100
,
0001
0010
1000
0001
0100
0010
0100
0001
,
1000
0200
1300
0020
0130
0000
0100
2000
,
3100
0010
0100
0001
1000
0100
0010
0001
,
0101
1000
0100
0001
1000
0010
0100
0001
,
1000
0100
0010
1000
0100
0010
0001
1000
,
0010
0200
0301
0020
0031
0000
0010
0200
,
1300
0010
0100
0001
0100
0010
1000
0001
,
0101
0010
1000
1010
0001
1000
1100
0001
,
1000
0100
0001
1000
0101
0100
0001
1000
,
0100
0020
0031
0200
0301
0000
0100
0020
,
0031
0010
0100
0010
1000
0010
0100
0001
,
1010
0100
0001
0101
1000
0001
0011
1000
,
0001
0000
1000
0100
1000
0100
1000
0000
0001
0010
0100
0010
0100
1000
0001
0100
,
0010
0000
0010
0110
0000
0100
0101
0000
,
0001
0000
0020
0000
0000
0000
0000
0000
0230
0000
0000
0000
2300
0000
0000
3000
,
1010
0000
0100
0101
0000
0001
0011
0000
,
0010
0200
0000
0000
2300
0000
3020
0000
,
0130
0001
0100
0001
1000
0001
0100
0001
1000
0001
0010
0100
1000
0001
1000
0001
,
0100
0000
0010
0000
1000
0000
0001
0000
0010
0000
0100
0000
,
1100
0000
0001
0101
0000
0010
0011
0000
,
0000
0100
0100
0010
,
1000
1100
0000
0001
0011
0000
1000
0200
,
0000
0000
0000
0000
2300
0000
0000
0000
3002
0000
0000
0003
0202
0000
0000
0000
,
0303
2020
0000
3030
2200
0000
3300
0020
,
0000
0000
0000
0000
0032
0000
0000
0000
2003
0000
0000
0000
3100
0010
0100
0010
,
0001
0000
0000
0010
0000
0000
0100
0000
0000
1000
0000
0000
0001
0000
0000
1000
0000
0000
0001
0000
0000
0100
0000
0000
0010
0000
0000
1000
0000
0000
0001
0000
0000
0100
0000
0000
0010
0000
0000
0000
0000
0000
0000
0000
1000
0000
0000
0000
,
0000
0100
0000
0001
0000
0100
0000
1000
0000
0011
0000
0000
,
0100
0110
0000
0001
1001
0000
0000
0200
,
0000
0302
2003
3200
,
0000
0320
0000
0000
2030
0000
0000
3010
,
0200
0302
2003
3020
,
0000
0230
0000
0000
0302
0000
0103
0020
,
0000
0000
0000
0000
0031
0000
1000
0000
0010
0000
0100
0000
0001
0000
1000
0100
,
0010
0000
0001
0100
0010
0000
1000
0100
0010
0000
0001
1000
0020
0000
0000
0000
,
0000
2030
3200
2300
,
3001
0200
0000
0301
0020
0000
0000
0230
,
0000
0000
0000
0000
1300
0100
1000
0001
1000
0100
1000
0010
0100
0000
0010
1000
,
0001
0000
0010
0100
1000
0000
0001
0000
0100
0000
0000
0000
0010
0000
1000
0001
,
0010
0000
0100
0000
1000
0100
0000
0000
1000
0000
0000
0000
0010
0000
0100
0001
,
1000
0000
0000
0010
1000
0000
0100
0000
0010
0000
0000
0000
0001
0000
1000
0100
,
0010
0000
0001
0000
1000
0010
0000
0000
0100
0000
0000
0000
0001
0000
1000
0010
,
0100
0000
0001
1000
0100
0000
0010
0000
0001
0000
0000
0000
0100
0000
0001
0010
,
0100
0000
0010
0000
0100
1000
0000
0000
0001
0000
0000
0000
0100
0000
0001
0100
,
0010
0000
0000
1000
0010
0000
0100
0000
0001
0000
0000
0000
1000
0000
0010
0100
,
0001
0000
1000
0000
0100
0010
0000
0000
0001
0000
0000
0000
1000
0000
0001
0000
,
0010
0100
1010
0001
0100
0000
0010
1000
,
0001
0010
1100
0001
0100
0000
0010
0100
,
0001
0100
1010
0001
0100
1000
1001
0010
,
0100
0001
0011
0100
1000
0000
0001
0100
,
0010
1000
0011
0100
1000
0000
0001
1000
,
0010
1000
0101
0010
1000
0000
0001
1000
,
0100
1000
0101
0010
1000
0100
0011
1000
,
0010
0000
0100
0000
1010
0000
0001
0000
0100
0000
0010
0000
1000
0010
0100
0001
,
0100
0000
0010
0000
1000
0000
0100
0000
0010
0000
0000
0000
0001
1000
0010
1000
,
0100
0020
0032
0023
0230
0300
1000
0001
,
0010
0000
0100
0000
1010
0000
1000
0000
0010
0000
0100
0000
0001
0100
0010
0100
,
0001
1000
0100
1000
0100
0010
0001
1000
0001
1000
0010
0100
0001
0000
1000
0000
,
0100
0000
0010
0000
0011
0000
1000
0000
0100
0000
0000
0000
0010
0001
1000
0100
,
0010
0002
0203
0320
2030
3000
0100
0010
,
0001
0000
1000
0000
1001
0000
0010
0000
0100
0000
1000
0000
0001
0100
0010
1000
,
0001
1000
0001
0010
0100
1000
0001
1000
0010
0100
0001
1000
0002
0000
0000
0000
,
0000
0000
0000
0000
,
0000
0000
0000
0003
;
