#TITLE:Storm Eagle;
#SUBTITLE:;
#ARTIST:Capcom;
#TITLETRANSLIT:;
#SUBTITLETRANSLIT:;
#ARTISTTRANSLIT:;
#CREDIT:;
#BANNER:Storm Eagle.png;
#BACKGROUND:Storm Eagle BG.png;
#LYRICSPATH:;
#CDTITLE:!XMaxX.png;
#MUSIC:Storm Eagle.mp3;
#OFFSET:-0.040;
#SAMPLESTART:35.211;
#SAMPLELENGTH:12.000;
#SELECTABLE:YES;
#BPMS:0.000=170.400;
#STOPS:;
#BGCHANGES:;
// cache tags:
#FIRSTBEAT:1.000;
#LASTBEAT:201.000;
#SONGFILENAME:Songs/keyboard/Storm Eagle (Megaman X)/Storm Eagle.sm;
#HASMUSIC:1;
#HASBANNER:1;
#MUSICLENGTH:75.528;
// end cache tags

//---------------dance-single - ----------------
#NOTES:
     dance-single:
     :
     Hard:
     9:
     0.770,0.732,0.688,0.530,0.199,315.000,52.000,40.000,0.000,0.000:
0000
0000
1000
0100
1000
0100
1000
0100
,
0000
2002
0000
0000
0000
3003
0000
0100
,
0001
0100
0001
0100
0001
0100
0001
0100
,
0000
2002
0000
3003
0101
0000
1001
0000
,
1100
0000
2000
0000
0100
0000
0100
0100
,
3010
0000
0001
0000
1000
0100
1000
0000
0200
0000
0000
0000
0010
0000
0010
0000
,
0310
0000
0000
0000
2002
0000
3003
0000
1100
0000
1000
0100
1000
0000
0000
0000
,
1010
0000
0010
0100
0010
0000
0000
0000
0110
0000
0100
0010
0100
0000
0000
0000
,
0101
0000
0002
0000
0010
0000
0010
0010
,
0103
0000
1000
0000
0001
0010
0001
0000
0020
0000
0000
0000
0100
0000
0100
0000
,
0130
0000
0000
0000
2002
0000
3003
0000
0011
0000
0001
0010
0001
0000
0000
0000
,
0101
0000
0100
0010
0100
0000
0000
0000
0110
0000
0000
0000
0220
0000
0030
0000
,
0010
0300
0010
0001
0100
0010
1000
1000
,
0000
1000
0100
1000
0100
0010
0100
0010
,
0001
0010
0002
0100
0100
0003
0200
0010
,
0010
0000
0320
0000
0100
0100
0030
0100
,
0110
0000
1000
0100
1000
0100
1000
0100
,
0000
0000
0001
0100
0001
0100
0001
0100
,
0010
0000
0001
0100
0001
0000
0000
0000
1001
0000
1000
0100
1000
0000
0000
0000
,
1100
0000
0100
0010
0100
0000
0000
0000
0101
0000
0001
0010
0001
0000
0000
0000
,
0101
0000
0100
0010
0100
0000
0000
0000
1100
0000
1000
0100
1000
0000
0000
0000
,
1100
0000
0100
0010
0100
0000
0000
0000
1001
0000
0001
1000
0001
0000
0000
0000
,
0001
0100
0010
1000
0010
1000
0010
1000
,
0000
2200
0000
3300
1010
0000
1001
0000
,
0100
0010
0001
0010
0001
0010
0001
0010
,
0000
0022
0000
0033
0110
0000
0010
1000
,
0100
0010
0002
0000
0010
0000
0010
0010
,
0103
0000
1000
0000
0001
0010
0001
0000
0020
0000
0000
0000
0100
0000
0100
0000
,
0130
0000
0000
0000
2002
0000
3003
0000
0011
0000
0001
0010
0001
0000
0000
0000
,
0101
0000
0100
0010
0100
0000
0000
0000
0110
0000
0010
0100
0010
0000
0000
0000
,
1010
0000
2000
0000
0100
0000
0100
0100
,
3010
0000
0001
0000
1000
0100
1000
0000
0200
0000
0000
0000
0010
0000
0010
0000
,
0310
0000
0000
0000
2002
0000
3003
0000
1100
0000
1000
0100
1000
0000
0000
0000
,
1010
0000
0010
0100
0010
0000
0000
0000
0110
0000
0000
0000
0220
0000
0300
0000
,
0100
0030
0100
1000
0010
0100
0001
0001
,
0000
0001
0010
0001
0010
0100
0010
0100
,
1000
0100
2000
0010
0010
3000
0020
0100
,
0100
0000
0230
0000
0010
0010
0300
0010
,
0110
0000
0001
0010
0001
0010
0001
0010
,
0000
0000
1000
0010
1000
0010
1000
0010
,
0100
0000
1000
0010
1000
0000
0000
0000
1001
0000
0001
0010
0001
0000
0000
0000
,
0011
0000
0010
0100
0010
0000
0000
0000
1010
0000
1000
0100
1000
0000
0000
0000
,
1010
0000
0010
0100
0010
0000
0000
0000
0011
0000
0001
0010
0001
0000
0000
0000
,
0011
0000
0010
0100
0010
0000
0000
0000
1001
0000
1000
0001
1000
0000
0000
0000
,
1000
0010
0100
0001
0100
0001
0100
0001
,
0000
0022
0000
0033
0101
0000
1001
0000
,
0010
0100
1000
0100
1000
0100
1000
0100
,
0000
2200
0000
3300
0110
0000
0100
1000
,
0010
0100
2002
0000
0000
0000
0000
0000
,
0000
0000
0000
0000
,
0000
3003
0000
0000
;

//---------------dance-single - ----------------
#NOTES:
     dance-single:
     :
     Medium:
     6:
     0.431,0.366,0.172,0.874,0.000,149.000,13.000,66.000,0.000,0.000:
0000
0000
1000
0100
1000
0000
0010
0100
,
0000
2002
0000
0000
0000
0000
0000
0000
,
3003
0000
0001
0100
0001
0000
0100
0010
,
0000
2002
0000
0000
0000
0000
0000
0000
,
3003
0000
2000
0000
0000
0000
0000
3100
,
0010
0001
1000
0010
0200
0000
0000
0000
,
0300
2002
3003
0002
,
0000
0203
0000
0320
,
0000
0030
2000
0000
0000
0000
0000
0100
,
3010
0001
1000
0010
0200
0000
0000
0000
,
0300
2002
3003
2000
,
0000
3020
0030
0220
,
0030
0300
0010
0100
0010
0000
1000
1000
,
0000
0000
0100
0010
0100
0000
0010
0001
,
0000
0010
0002
0000
0000
0003
0200
0000
,
0000
0000
0320
0000
0100
0100
0030
0000
,
0000
0000
1000
0100
1000
0000
0100
0010
,
0000
0000
0001
0100
0001
0000
0100
0010
,
0000
0002
0000
2003
,
0000
3200
0000
0320
,
0000
0032
0000
2003
,
0000
3020
0000
0230
,
0300
0000
0010
1000
0010
0000
1000
0100
,
0000
0220
0000
0000
0000
0330
0000
0000
,
0000
0000
0001
0010
0001
0000
0010
0001
,
0000
2002
0000
0000
0000
0000
0000
0000
,
3003
0000
2000
0000
0000
0000
0000
3100
,
0010
0001
1000
0010
0200
0000
0000
0000
,
0300
2002
3003
0002
,
0000
0203
0000
0320
,
0000
0030
2000
0000
0000
0000
0000
0100
,
3010
0001
1000
0010
0200
0000
0000
0000
,
0300
2002
3003
2000
,
0000
3020
0030
0220
,
0030
0300
0010
0100
0010
0000
1000
1000
,
0000
0000
0100
0010
0100
0000
0010
0001
,
0000
0010
0002
0000
0000
0003
0200
0000
,
0000
0000
0320
0000
0100
0100
0030
0000
,
0000
0000
1000
0100
1000
0000
0100
0010
,
0000
0000
0001
0100
0001
0000
0100
0010
,
0000
0002
0000
2003
,
0000
3200
0000
0320
,
0000
0032
0000
2003
,
0000
3020
0000
0230
,
0300
0000
0010
1000
0010
0000
1000
0100
,
0000
0220
0000
0000
0000
0330
0000
0000
,
0000
0000
0001
0010
0001
0000
0010
0001
,
0000
2002
0000
0000
0000
0000
0000
0000
,
3003
2002
0000
0000
,
0000
0000
0000
0000
,
0000
3003
0000
0000
;

//---------------dance-single - ----------------
#NOTES:
     dance-single:
     :
     Easy:
     4:
     0.412,0.366,0.410,0.953,0.000,115.000,31.000,72.000,0.000,0.000:
0000
0000
1000
0000
0001
0000
0001
1000
,
0000
2002
0000
0000
0000
0000
0000
0000
,
3003
0000
0001
0000
1000
0000
1000
0001
,
0000
2002
0000
0000
0000
0000
0000
0000
,
3003
0000
2002
0000
0000
0000
0000
3003
,
0000
0110
0220
0000
,
0330
2002
3003
0002
,
0000
0203
0000
0320
,
0000
0030
2000
0000
0000
0000
0000
0000
,
3000
0110
0220
0000
,
0330
2002
3003
2000
,
0000
3020
0030
0220
,
0030
0300
0010
0000
1000
0000
0001
0000
,
0100
0010
1000
0001
,
0100
0020
0000
0230
,
0000
0320
0000
0130
,
0000
1000
0010
0100
,
0001
0001
0100
0010
,
1000
0002
0000
2003
,
0000
3200
0000
0320
,
0000
0032
0000
2003
,
0000
3020
0000
0230
,
0300
0000
1010
0000
0101
0000
0001
1000
,
0000
2002
0000
0000
0000
3003
0000
0000
,
0000
0000
0011
0000
1001
0000
0001
1000
,
0000
2002
0000
0000
0000
0000
0000
0000
,
3003
0000
2002
0000
0000
0000
0000
3003
,
0000
0110
0220
0000
,
0330
2002
3003
0002
,
0000
0203
0000
0320
,
0000
0030
2000
0000
0000
0000
0000
0000
,
3000
0110
0220
0000
,
0330
2002
3003
2000
,
0000
3020
0030
0220
,
0030
0300
0010
0000
1000
0000
0001
0000
,
0100
0010
1000
0001
,
0100
0020
0000
0230
,
0000
0320
0000
0130
,
0000
1000
0010
0100
,
0001
0001
0100
0010
,
1000
0002
0000
2003
,
0000
3200
0000
0320
,
0000
0032
0000
2003
,
0000
3020
0000
0230
,
0300
0000
1010
0000
0101
0000
0001
1000
,
0000
2002
0000
0000
0000
3003
0000
0000
,
0000
0000
0011
0000
1001
0000
0001
1000
,
0000
2002
0000
0000
0000
0000
0000
0000
,
3003
2002
0000
0000
,
0000
0000
0000
0000
,
0000
3003
0000
0000
;

//---------------dance-single - ----------------
#NOTES:
     dance-single:
     :
     Beginner:
     2:
     0.216,0.256,0.490,0.000,0.000,77.000,37.000,0.000,0.000,0.000:
0000
1000
0000
0001
,
0000
0000
0000
0000
,
0000
0001
0000
1000
,
0000
0000
0000
0000
,
0000
1001
0000
0000
,
0000
0000
0110
0000
,
0000
1001
0000
0001
,
0000
1000
0000
0001
,
0000
1001
0000
0000
,
0000
0000
0110
0000
,
0000
1001
0000
1000
,
0000
0001
0000
1000
,
0000
1001
0000
0100
,
0000
1001
0000
0010
,
0000
0110
0000
0110
,
0000
0110
0000
1001
,
0000
1001
0000
0010
,
0000
1001
0000
0100
,
0000
0010
0000
1000
,
0000
0001
0000
0100
,
0000
0010
0000
1000
,
0000
0001
0000
0100
,
0000
1001
0000
1001
,
0000
0000
0000
0000
,
0000
1001
0000
1001
,
0000
0000
0000
0000
,
0000
1001
0000
0000
,
0000
0000
0110
0000
,
0000
1001
0000
0001
,
0000
1000
0000
0001
,
0000
1001
0000
0000
,
0000
0000
0110
0000
,
0000
1001
0000
1000
,
0000
0001
0000
1000
,
0000
1001
0000
0100
,
0000
1001
0000
0010
,
0000
0110
0000
0110
,
0000
0110
0000
1001
,
0000
1001
0000
0010
,
0000
1001
0000
0100
,
0000
0010
0000
1000
,
0000
0001
0000
0100
,
0000
0010
0000
1000
,
0000
0001
0000
0100
,
0000
1001
0000
1001
,
0000
0000
0000
0000
,
0000
1001
0000
1001
,
0000
0000
0000
0000
,
0000
1001
0000
0000
;
