#TITLE:fizzy pop;
#SUBTITLE:;
#ARTIST:nanobii;
#TITLETRANSLIT:;
#SUBTITLETRANSLIT:;
#ARTISTTRANSLIT:;
#CREDIT:owenviau1;
#BANNER:../Banner.png;
#BACKGROUND:../BG.png;
#LYRICSPATH:;
#CDTITLE:../CdTitleBRAEDEN.png;
#MUSIC:nanobii - fizzy pop.ogg;
#OFFSET:-0.053;
#SAMPLESTART:43.443;
#SAMPLELENGTH:29.999;
#SELECTABLE:YES;
#BPMS:0.000=44.250,8.000=88.501,11.000=88.498,12.000=88.501,14.000=88.498,15.000=88.501,17.000=88.498,18.000=88.501,20.000=88.498,21.000=88.501,24.000=177.002,30.000=176.990,31.000=177.002,36.000=176.990,37.000=177.002,43.000=176.990,44.000=177.002,49.000=176.990,50.000=177.002,56.000=176.990,57.000=177.002,62.000=176.990,63.000=177.002,69.000=176.990,70.000=177.002,75.000=176.990,76.000=177.002,82.000=176.990,83.000=177.002,89.000=176.990,90.000=177.002,95.000=176.990,96.000=177.002,101.000=176.990,102.000=177.002,107.000=176.990,108.000=177.002,114.000=176.990,115.000=177.002,121.000=176.990,122.000=177.002,127.000=176.990,128.000=177.002,134.000=176.990,135.000=177.002,140.000=176.990,141.000=177.002,146.000=176.990,147.000=177.002,154.000=176.990,155.000=177.002,160.000=176.990,161.000=177.002,167.000=176.990,168.000=177.002,173.000=176.990,174.000=177.002,180.000=176.990,181.000=177.002,187.000=176.990,188.000=177.002,192.000=176.990,193.000=177.002,200.000=176.990,201.000=177.002,207.000=176.990,208.000=177.002,212.000=176.990,213.000=177.002,219.000=176.990,220.000=177.002,226.000=176.990,227.000=177.002,232.000=176.990,233.000=177.002,239.000=176.990,240.000=177.002,244.000=176.990,245.000=177.002,250.000=176.990,251.000=177.002,257.000=176.990,258.000=177.002,264.000=176.990,265.000=177.002,269.000=176.990,270.000=177.002;
#STOPS:;
#BGCHANGES:;
// cache tags:
#FIRSTBEAT:8.000;
#LASTBEAT:515.000;
#SONGFILENAME:Songs/Index Fusion - Part 2/fizzy pop - [Braeden]/fizzy pop.sm;
#HASMUSIC:1;
#HASBANNER:1;
#MUSICLENGTH:193.802;
// end cache tags

//---------------dance-single - owenviau1----------------
#NOTES:
     dance-single:
     owenviau1:
     Challenge:
     16:
     1.000,1.000,0.098,0.423,1.000,1351.000,19.000,82.000,10.000,0.000:

0000
0000
0000
0000
,
0000
0000
0000
0000
,
1001
0000
0000
0001
0010
0000
0100
1000
0000
0010
0100
0010
0000
0000
1000
0100
,
0000
0000
0010
0001
0000
0010
0000
0100
0000
1000
0001
0000
0200
0000
0320
0000
,
1030
0000
0100
0010
0100
0000
0001
0010
0000
0100
1000
0100
1000
0000
0001
0100
,
0010
0000
0000
1000
0010
0000
0100
0020
0000
0000
1030
0000
0100
0000
0010
0000
,
2001
0000
3001
2000
0000
3100
0020
0000
,
0031
0020
0000
1030
0020
0000
0230
0000
,
0302
0000
0013
0200
0000
1300
0200
0000
,
0310
0002
0000
0103
0010
0000
1010
0000
,
2001
0000
3010
0200
0000
0301
0200
0000
,
0310
2000
0000
3100
0010
0000
0011
0000
,
1001
2000
3200
0320
,
0030
0000
0000
0000
0000
0000
0000
0001
1000
0000
0000
0000
0000
0000
0000
0000
0010
0000
0000
0000
0000
0000
0000
0000
0100
0000
0000
0000
0000
0000
0000
0000
,
1001
0000
2000
3200
1300
0002
2003
3100
,
2000
3002
1003
0200
0320
0031
0020
0130
,
1000
0100
0010
0001
0010
0100
1000
0001
0100
0010
0100
0001
1000
0100
0010
0001
,
0010
0000
0100
0000
1000
0000
0001
0000
0100
0000
0010
0000
0100
0000
0001
0000
1000
0000
0100
0000
0010
0000
0001
0000
0010
0000
0000
0001
1000
0000
0000
0000
,
2001
0000
3010
0100
0001
1000
0100
0010
,
0001
1000
0100
0010
0100
1000
0001
0100
0010
0100
0001
1000
0100
0010
0100
1000
,
0001
0100
0010
0100
0001
1000
0100
0010
0100
1000
0001
0010
0001
1000
0100
0010
,
0100
0001
1000
0010
2000
0000
0000
0000
3020
0000
0000
0000
0230
0000
0000
0000
,
0301
0100
0010
1000
0100
0010
0100
1000
0001
0100
0010
0100
0001
1000
0100
1000
,
0001
0010
0100
1000
0001
0100
0010
0100
0001
1000
0100
0010
0001
0010
0100
1000
,
0001
0100
0010
1000
0100
0010
0001
0010
0100
1000
0001
0100
0010
1000
0004
0403
,
0310
1000
0100
0010
0100
1000
0001
0010
0001
0100
0010
0100
0001
0010
0001
1000
,
0100
0010
0001
0010
0100
1000
0001
0100
0010
0100
0001
0010
0001
1000
0004
0403
,
0310
1000
0100
0010
0100
1000
0001
0100
0010
0100
0001
1000
0100
0010
0001
0010
,
0100
1000
0001
0100
0010
0100
0001
1000
0100
0010
0100
1000
0001
0010
0001
0100
,
0010
0100
0001
0010
0001
1000
0100
1000
0001
0100
0010
1000
0200
0000
0000
0300
,
1000
0100
0010
0001
0010
0100
1000
0001
0100
0010
0100
0001
1000
0001
4000
3040
,
0130
0001
0100
0010
1000
0100
0010
0001
0010
0100
1000
0001
0100
0010
1000
0100
,
1000
0001
0010
0100
1000
0001
0100
0010
1000
0001
0010
0100
1000
0001
4000
3004
,
0103
0010
1000
0100
1000
0001
0010
0100
1000
0001
0100
0010
0100
0001
0010
0001
,
1000
0100
0010
0001
1000
0010
0100
0001
0010
0001
0010
0100
1000
0001
0100
0010
,
0100
0010
1000
0001
0100
0010
0100
0010
1000
0100
1000
0100
0010
0000
0000
0000
,
0002
0000
0000
0000
0203
0000
0000
0000
0320
0000
0000
0000
0130
0001
1000
0100
,
0010
0000
0000
0001
0000
0000
0010
0000
0000
0100
0000
0000
1000
0000
0000
0001
0000
0000
0010
0000
0000
0001
0000
0000
0100
0000
0010
0000
1000
0000
0001
0000
0010
0000
0100
0000
1000
0000
0001
0000
0100
0000
0010
0000
1000
0000
0001
0000
,
0100
0010
1000
0100
1000
0001
0010
0100
1000
0001
0100
0010
0100
0001
0010
0100
,
1000
0001
0100
0010
0100
0001
1000
0100
0010
0001
0010
0100
1000
0001
0100
0010
,
1000
0001
0010
0001
1000
0100
0010
0001
0010
0100
1000
0001
0100
0010
1000
0100
,
0010
0100
1000
0001
0100
0010
0100
0001
1000
0010
0100
0010
1000
0010
0100
0010
,
1000
0001
0010
0100
1000
0001
0010
0001
0100
0010
0100
0001
1000
0100
0010
0100
,
1000
0001
0100
0010
1000
0100
0010
0100
1000
0001
0100
0010
0100
0001
1000
0100
,
0010
0100
1000
0001
0100
0010
0100
0001
1000
0100
1000
0001
0100
0010
0100
0001
,
1000
0000
0000
0100
0000
0000
1000
0000
0000
0001
0000
0000
0100
0000
0000
0010
0000
0000
0100
0000
0000
0001
0000
0000
1000
0000
0000
0100
0000
0000
0010
0000
0000
0001
0000
0000
0010
0000
0100
0000
1000
0000
0001
0000
0010
0000
0001
0000
,
0100
0010
1000
0001
0010
0100
1000
0001
0100
0010
0100
0001
1000
0100
0010
0100
,
1000
0001
0010
0001
0100
0010
0100
0001
1000
0100
1000
0001
0100
0010
0100
0001
,
1000
0100
0010
0100
1000
0001
0010
0001
0100
0010
0100
0001
1000
0100
0010
0100
,
1000
0000
0000
0001
0000
0000
0100
0000
0000
0010
0000
0000
0100
0000
0000
0001
0000
0000
0010
0000
0000
0001
0000
0000
1000
0000
0000
0100
0000
0000
0010
0000
0000
0001
0000
0000
1000
0000
0100
0000
0010
0000
0001
0000
1000
0000
0010
0000
,
0100
0000
0000
0000
0000
0000
0000
0000
0001
0010
0100
1000
0001
0100
0010
0100
,
0001
1000
0100
0010
0100
1000
0001
0100
0010
0100
0001
1000
0100
0010
0001
1000
,
0002
0000
0203
0000
,
0320
0000
2030
0000
,
3200
0000
03M0
000M
,
0M00
00M0
0001
1000
,
0002
0000
0000
0203
0000
0000
0310
0000
,
M000
000M
2000
3002
,
0203
0000
0000
0320
0000
0000
1030
0000
,
000M
M000
0001
0100
,
0020
0000
0000
2030
0000
0000
3001
0000
,
M000
000M
0100
0010
,
2000
0000
0000
3020
0000
0000
0130
0001
,
0000
0100
0010
0100
0010
0000
1000
0100
,
0010
0000
0001
0100
0000
0010
1000
0000
,
0100
0010
0002
2003
,
3010
0000
0100
0001
2000
0000
3010
1000
,
0000
0000
0000
0001
0000
0000
0100
0000
0000
0010
0000
0000
0000
0000
0000
1000
0100
0010
0100
0000
0000
1000
0001
0100
,
0010
0000
0000
1000
0004
0003
0010
0400
,
0000
0000
0000
0300
0000
0000
1000
0000
0001
1000
0000
0000
,
1001
0000
0000
0000
0000
0000
1000
0000
0001
0010
0001
0010
0001
0000
0100
0000
,
0010
0000
1000
0000
0100
0000
0010
0000
0001
1000
0001
1000
0001
0000
0100
0000
,
0010
0000
0100
0000
0001
0000
1000
0000
0100
0010
0100
0010
0100
0000
1000
0000
,
0001
0000
0100
0000
0010
0000
1000
0000
0100
0010
0100
0010
0100
0000
0010
0000
,
0001
0000
0100
0000
0010
0000
1000
0000
0100
0010
0100
0010
0100
0000
1000
0000
,
0001
0000
0100
0000
0010
0000
1000
0000
0001
0010
0001
0010
0001
0000
0000
0000
,
1001
0000
0001
0100
0000
0100
0020
0000
,
0030
0000
1000
0000
0000
0000
0001
0000
0100
0000
0010
1000
0010
0000
0000
0000
,
0101
0000
0001
0200
0000
0310
2000
0000
,
3010
0200
0000
0301
0100
0000
0010
0000
,
1010
0000
1000
0200
0000
0310
0002
0000
,
0103
0020
0000
1030
0200
0000
0320
0000
,
0031
0000
1000
0020
0000
0130
0002
0000
,
1003
0200
0000
0310
0002
0000
2003
0000
,
3001
0000
0100
0010
0000
1000
0200
0000
,
0300
0010
0000
0001
1000
0000
0001
0000
,
1001
1000
0001
0100
,
0010
1000
0100
0010
,
0001
0100
0001
1000
0100
0010
0100
1000
0001
0100
0010
1000
0100
0010
0100
1000
,
0001
0010
0001
0100
0010
0100
0001
0010
0001
1000
0100
0010
0001
1000
0010
0100
,
0001
1000
0100
0010
0100
1000
0001
0010
0001
0100
0010
0100
0001
0010
0001
1000
,
0100
0010
0100
1000
0001
0100
0010
0100
0001
0010
0001
1000
0100
0010
0100
1000
,
0001
0010
0001
0100
0010
1000
0100
0010
0001
1000
0100
0010
0100
1000
0001
0010
,
0100
1000
0001
0010
0001
1000
0100
0010
0001
0000
0000
0000
1001
0000
0000
0000
,
1000
0100
0010
0001
0010
0100
1000
0001
0100
0010
1000
0100
0010
0001
0200
0320
,
1030
0100
0010
0001
0010
0100
1000
0001
0100
0010
0100
0001
1000
0100
0010
0001
,
1000
0100
0010
0001
0010
0100
1000
0001
0010
0001
0100
0010
1000
0001
2000
3200
,
0310
0001
0100
0010
0100
0001
0010
0100
1000
0001
0100
0001
0010
0001
1000
0100
,
0010
0100
1000
0001
0010
0100
1000
0001
0010
0001
0100
0010
0100
0001
2000
3020
,
0130
0001
0010
0100
1000
0001
0010
0001
0100
0010
0100
0001
1000
0100
0010
0100
,
1000
0001
0100
0010
0100
0001
1000
0100
0010
0001
0010
0100
1000
0001
0100
0010
,
0100
0001
1000
0100
0010
0100
1000
0001
0010
0100
1000
0001
1000
0000
0000
0000
,
0010
0000
0000
0001
0000
0000
0100
0000
0000
0010
0000
0000
1000
0000
0000
0100
0000
0000
0010
0000
0000
0100
0000
0000
1000
0000
0000
0001
0000
0000
0010
0000
0000
0100
0000
0000
1000
0000
0000
0001
0000
0000
0100
0000
0010
0000
1000
0000
,
0001
0100
0001
1000
0100
0010
0100
1000
0001
0010
0001
0100
0010
0100
0001
1000
,
0100
0000
0000
0010
0000
0000
0001
0000
0000
0010
0000
0000
0100
0000
0000
1000
0000
0000
0001
0000
0000
0100
0000
0000
0010
0000
0000
0100
0000
0000
0001
0000
0000
1000
0000
0000
0100
0000
0000
0010
0000
0000
0001
0000
1000
0000
0001
0000
,
0010
0001
0100
0010
0100
0001
1000
0100
0010
0001
0010
0100
1000
0001
0100
0010
,
0100
0001
0010
0001
1000
0100
0010
0001
0010
0100
1000
0001
0010
0001
0100
0010
,
0100
0001
1000
0100
0010
0100
1000
0001
0100
0010
1000
0100
0010
0001
0010
0100
,
1000
0002
0203
0310
,
1000
0100
0010
0001
0010
0100
1000
0001
0100
0010
0100
0010
2000
0000
0000
0000
,
3010
1000
0010
0100
0001
0010
0100
1000
0100
0010
0001
1000
0010
0100
0010
1000
,
0001
0010
0100
0010
0001
1000
0100
0010
0001
1000
0010
0100
0001
0100
0010
1000
,
0001
0010
0001
0010
0100
1000
0010
0100
0010
1000
0100
0010
0001
1000
0010
0100
,
0001
0010
0001
0010
0100
1000
0010
0100
0001
1000
0100
1000
0001
0010
0001
1000
,
0010
1000
0001
0100
0001
1000
0100
1000
0010
0100
0010
1000
0001
0010
0100
0010
,
0001
1000
0010
0100
0010
1000
0001
0010
0100
1000
0100
0010
0001
1000
0010
0100
,
0001
0100
0010
1000
0200
0000
0310
0002
,
0000
0000
0000
1003
0000
0000
0100
0000
0000
0020
0000
0000
0000
0000
0000
0031
0000
0000
0000
0000
0000
1000
0100
0010
,
0001
0100
0010
1000
0001
0010
0100
1000
0001
0100
0010
0100
0001
1000
0100
0010
,
0001
1000
0010
0100
0001
0010
0001
1000
0010
0100
0001
0010
0001
1000
0100
0010
,
0100
1000
0001
0100
0010
0100
0001
1000
0100
0010
0100
1000
0001
0010
0001
1000
,
0010
0100
0001
0010
0001
1000
0100
0010
0100
1000
0001
0100
0010
0100
0001
0100
,
0010
1000
0100
1000
0001
0010
0100
1000
0001
0010
0001
1000
0100
0010
0100
1000
,
0001
0000
0000
0100
0000
0000
0010
0000
0000
0100
0000
0000
0001
0000
0000
1000
0000
0000
0100
0000
0000
0010
0000
0000
0100
0000
0000
1000
0000
0000
0001
0000
0000
0100
0000
0000
0010
0000
0000
1000
0000
0000
0001
0000
0100
0000
0010
0000
,
1000
0000
0001
0000
,
1001
0000
0010
0000
,
0100
0000
0000
0000
,
0000
0000
0001
0100
,
0010
0000
0000
1000
0000
0000
0001
0000
;
