#TITLE:Put Giraffes Up In The Air;
#SUBTITLE:;
#ARTIST:lolGiraffes;
#TITLETRANSLIT:;
#SUBTITLETRANSLIT:;
#ARTISTTRANSLIT:;
#CREDIT:;
#BANNER:giraffes.png;
#BACKGROUND:giraffes-bg.png;
#LYRICSPATH:;
#CDTITLE:;
#MUSIC:lolGiraffes.ogg;
#OFFSET:0.904;
#SAMPLESTART:45.931;
#SAMPLELENGTH:12.000;
#SELECTABLE:YES;
#DISPLAYBPM:130.000;
#BPMS:0.000=130.000,66.500=65.000,67.500=130.000,129.000=65.000,130.000=130.000,195.000=65.000,218.000=130.000,249.000=65.000,249.250=130.000,249.750=65.000,250.000=130.000,278.500=65.000,280.000=130.000;
#STOPS:67.500=0.220
,130.000=0.230
,130.500=0.230
,218.000=0.230
,218.500=0.230
,278.500=0.460
;
#BGCHANGES:;
// cache tags:
#FIRSTBEAT:2.000;
#LASTBEAT:345.500;
#SONGFILENAME:Songs/Rodd's Rad Christmas Pack/LOLgiraffes (Rodd Steps)/Put Giraffes Up In The Air (Rodd Steps).sm;
#HASMUSIC:1;
#HASBANNER:1;
#MUSICLENGTH:105.000;
// end cache tags

//---------------dance-single - R. Farias----------------
#NOTES:
     dance-single:
     R. Farias:
     Challenge:
     9:
     1.000,1.000,0.210,0.600,0.671,772.000,22.000,63.000,44.000,0.000:

0000
0000
0000
0000
0001
0100
0010
1000
,
0001
0000
1000
0000
0100
1000
0100
0000
0010
0000
0001
0000
0100
0000
0010
0000
,
0100
0001
1000
0100
0010
0001
0100
0010
,
0100
0000
0001
0000
1000
0100
0000
0100
1000
0000
0100
0000
0010
0000
0001
0000
,
0100
0010
1000
0100
1000
0010
1000
0001
,
0010
0000
0001
0000
1000
0001
0100
0000
0010
0000
1000
0000
0100
0010
0001
0000
,
0100
0000
0110
0000
0010
1000
0001
0000
1000
0000
1001
0000
1000
0100
0010
0000
,
0001
0000
0011
0000
0001
0100
0010
0000
1000
0000
1010
0000
1000
0100
0010
0000
,
0001
0000
0101
0000
0100
0010
1000
0000
0001
0000
1100
0000
0100
0010
0001
0000
,
0100
0000
0010
0000
1000
0001
0000
0001
1000
0000
0200
0000
0000
0000
0302
0000
,
0000
0000
2003
0000
0000
0000
3020
0000
0000
0030
0022
0000
0033
0000
0202
0000
,
0303
0000
1020
0000
1030
0010
0000
0010
0100
0000
0001
0000
1000
0000
0100
0000
,
0010
0001
0100
0000
0010
0000
1000
0000
0001
1000
0001
0000
1000
0000
0100
0000
,
0010
0001
0010
0000
0001
0000
0100
0000
0010
1000
0010
0000
1000
0000
0100
0000
,
0010
0001
0100
1000
0100
0010
1000
0100
,
0001
0100
0010
0001
1000
0001
0100
0010
,
1000
0100
0010
0000
0001
0100
0010
0000
1000
0000
2MM2
0000
3003
0000
10M1
0000
,
M1M1
0000
0100
0000
0010
0000
1000
0001
1000
0000
0100
0000
0010
0000
0001
0010
,
0001
0000
0100
0000
0010
0000
1000
0010
1000
0000
0001
0000
1000
0000
0001
1000
,
0000
1000
0100
0000
0010
0000
0001
0100
0010
0000
1000
0000
0100
0000
0010
0001
,
1000
0000
0001
0000
0100
0000
0010
1000
0010
0000
0100
0000
0001
0000
1000
0100
,
0000
0100
0010
0000
0001
0000
0100
0010
1000
0000
0001
0000
1000
0000
0100
0010
,
0001
0000
0100
0000
0010
0000
1000
0010
1000
0000
0100
0000
0010
0000
0100
1000
,
0000
0001
0100
0000
0010
0000
1000
0100
0010
0000
0001
0000
1000
0000
0100
0010
,
0001
0000
0100
0000
0010
0000
1000
0100
0010
0000
0001
0100
0010
0000
1000
0010
,
1000
0000
0001
1000
0001
0000
1000
0000
0100
0000
0010
0000
0001
0000
0100
0000
,
1000
0100
0010
1000
0001
1000
0100
0001
,
0100
0010
0001
1000
0001
0100
0010
0001
,
0010
0000
1000
0000
0100
0000
0001
0000
0100
0000
0010
0000
0001
0000
1000
0001
,
0100
0000
0010
1000
0001
0000
1000
0000
0001
0000
1000
0000
0100
0000
0010
0000
,
0001
0000
0100
0000
0001
0000
0010
0000
0001
0000
1000
0000
0001
0000
0100
0010
,
0000
0010
1000
0000
0100
0000
1000
0000
0010
0000
1000
0000
0001
0000
1000
0000
,
0100
0000
0010
0001
2000
0000
3000
0000
1MM1
0000
11MM
0000
MM11
0000
0001
0100
,
0010
0000
1000
0000
0001
0000
0100
0010
1000
0000
0001
0000
1000
0000
0100
0010
,
0001
0000
0100
0000
0010
0000
1000
0010
1000
0000
0001
0000
1000
0000
0100
0010
,
0001
0000
0100
0000
0010
0000
1000
0100
0010
0000
0100
0000
1000
0000
0001
0100
,
0010
0000
1000
0000
0001
0000
1MM0
0000
1M00
0000
10M0
0000
0100
0000
0010
0001
,
1000
0000
0001
0000
0100
0000
0010
1000
0010
0000
1000
0000
0001
0000
1000
0001
,
1000
0000
0100
0000
0010
0000
0100
0010
0100
0000
0010
0000
0001
0000
0010
0001
,
0010
0000
0001
0100
0001
0000
0100
0010
0100
0000
0010
1000
0010
0000
1000
0001
,
1000
0000
0100
0010
0001
0000
0100
0010
1000
0000
0001
0000
2000
0000
0000
0000
,
3200
0000
0302
0000
2003
3000
2002
3003
,
0220
0330
0021
0031
0100
0010
2000
0000
,
3001
1000
0200
0000
0310
0001
0100
0001
,
0100
0010
1000
0001
1000
0001
2000
0000
,
0100
3200
0010
0320
,
0001
0000
0032
0000
0203
0320
2030
3200
,
0320
0001
0100
1000
,
0100
0000
0001
0000
0100
0000
0032
M000
,
0203
M000
0320
000M
2M30
0000
3200
00M0
,
0302
0000
M000
0000
2003
0000
00M0
0000
3020
0000
0031
M100
0020
0030
100M
0100
,
0020
0030
M001
0100
0010
0100
0001
10M0
0200
0300
M010
0001
0020
0M30
0001
1000
,
0002
0003
M1M0
0001
0100
0010
1000
0001
20M0
3000
0100
0010
0002
M003
0100
0010
,
2000
300M
0100
1000
0010
0M01
0010
1M00
0002
00M3
1000
0100
0020
0030
M001
0100
,
0020
003M
1000
0001
0220
0000
0330
0000
1M1M
0000
11MM
0000
1MM1
0000
0001
0100
,
0010
0000
1000
0000
0001
0000
1000
0100
0010
0000
0001
0000
0100
0000
0010
1000
,
0010
0000
1000
0000
0100
0000
0010
0001
1000
0000
0001
0000
0100
0000
0010
0100
,
0010
0000
0100
0000
0001
0000
1000
0100
0010
0000
0100
0000
1000
0000
0001
0100
,
0001
0000
0100
0000
0010
0000
1000
0100
0010
0000
0001
0000
0100
0000
0010
1000
,
0010
0000
1000
0000
0100
0000
0010
0001
0100
0000
1000
0000
0100
0000
0010
1000
,
0100
0000
0001
0000
0100
0000
0010
0001
1000
0000
0001
0000
0100
0000
0010
1000
,
0010
0000
1000
0000
0100
0000
0010
0001
0010
0000
0001
0000
0100
0000
0010
0000
,
1000
0000
0100
0000
0002
2003
0000
3020
0032
0000
0103
0000
0010
1000
0010
0000
,
1000
0000
0100
0000
0010
0001
0010
0000
0001
0000
0100
0000
0010
1000
0010
0000
,
1000
0000
0100
0000
0010
0100
0010
0000
0100
0000
0010
0000
0001
0100
0010
0000
,
1000
0000
0001
0000
1000
0100
0010
0000
0001
0000
0100
0000
0010
1000
0001
0000
,
0100
0000
0010
0000
1000
0001
0100
0000
0010
0000
1000
0000
0100
0010
0001
0000
,
1000
0000
0100
0000
0010
0001
0100
0000
0010
0000
1000
0000
0100
0010
0100
0000
,
1000
0000
0100
0000
0010
0001
0010
0000
0100
0000
1000
0000
0001
0100
0001
0000
,
0100
0000
0010
0000
1000
0010
1000
0000
0001
0000
2000
0000
0000
0000
3001
0100
,
0010
0000
1000
0100
0010
0000
0001
0000
0100
0000
0010
1000
0010
0000
1000
0000
,
0100
0000
0010
0001
0010
0000
0001
0000
0100
0000
0010
1000
0001
0000
1000
0000
,
0100
0000
0010
0001
0100
0000
0010
0000
1000
0000
0100
0010
0100
0000
0010
0000
,
0001
0000
0100
0001
0100
0000
0010
0000
1000
0000
0001
1000
0001
0000
1000
0000
,
0100
0000
0010
0001
0100
0000
0010
0000
1000
0000
0100
0010
0001
0000
0100
0000
,
0010
0000
1000
0100
1000
0000
0100
0000
0010
0000
0100
1000
0100
0000
0010
0000
,
0001
0000
0100
0001
0100
0000
0010
0000
0100
0000
0001
0100
0001
0000
0100
0000
,
0010
1000
0100
0001
2000
0000
3020
0000
,
0032
0000
0103
0010
1000
0000
0001
0000
1000
0000
0100
0010
0001
0000
0010
0000
,
0100
0000
1000
0001
0100
0000
0010
0000
1000
0000
0100
1000
0100
0000
0010
0000
,
0001
0000
0100
0010
1000
0000
0100
0000
1000
0000
0010
0100
0001
0000
1000
0000
,
0010
0000
0100
0010
0100
0000
0010
0000
1000
0000
0001
1000
0001
0000
1000
0000
,
0100
0010
0100
0010
0001
0010
0001
0010
,
0001
0100
0001
0100
0010
1000
0010
1000
,
0001
1000
0001
1000
0100
0010
0100
1000
,
0001
0100
0010
1000
0100
0010
0001
0200
,
0320
0000
0000
0030
0000
0000
0000
0000
;
