#TITLE:HERE WE GO AGAIN;
#SUBTITLE:;
#ARTIST:$UICIDEBOY$ x GERM;
#TITLETRANSLIT:;
#SUBTITLETRANSLIT:;
#ARTISTTRANSLIT:;
#CREDIT:owenviau1;
#BANNER:../BN.png;
#BACKGROUND:../BG.png;
#LYRICSPATH:;
#CDTITLE:../CDTitleOV1.png;
#MUSIC:$UICIDEBOY$ x GERM - HERE WE GO AGAIN.ogg;
#OFFSET:-0.119;
#SAMPLESTART:52.747;
#SAMPLELENGTH:12.000;
#SELECTABLE:YES;
#BPMS:0.000=114.008;
#STOPS:;
#BGCHANGES:;
// cache tags:
#FIRSTBEAT:0.000;
#LASTBEAT:300.500;
#SONGFILENAME:Songs/Index Gradation/$UICIDEBOY$ x GERM - HERE WE GO AGAIN -[Owen71]/$UICIDEBOY$ x GERM - HERE WE GO AGAIN.sm;
#HASMUSIC:1;
#HASBANNER:1;
#MUSICLENGTH:159.503;
// end cache tags

//---------------dance-single - ----------------
#NOTES:
     dance-single:
     :
     Challenge:
     19:
     1.000,1.000,0.132,0.232,1.000,1548.000,21.000,37.000,3.000,0.000:
1000
0000
0100
0000
0010
0000
0001
1000
0001
0100
0010
1000
0010
0000
0100
0000
,
0001
0000
0000
1000
0000
0000
0100
0000
0000
0010
0000
0000
0001
1000
0010
0100
0001
0100
0010
0000
1000
0000
0001
0000
,
1000
0000
0100
0000
0010
0001
1000
0000
0001
0000
0100
0000
0010
0000
1000
0001
,
1000
0100
0010
0000
0001
0000
1000
0010
0100
0000
0001
0000
2000
0000
3400
0000
,
0310
0000
0001
0000
1000
0000
0010
0100
0010
1000
0001
0010
0100
0000
1000
0000
,
0004
0000
0000
1003
0000
0000
0010
0000
0000
0100
0000
0000
0001
1000
0001
1000
0001
1000
0001
0000
0100
0000
0010
0000
,
1000
0000
0001
0000
1000
0100
0010
0000
0001
0000
1000
0000
0010
0000
0100
0001
,
1000
0001
0010
0000
0100
0000
1000
0010
2000
0000
0001
0000
0000
0000
00M0
0000
,
3001
0100
0001
1000
0010
0100
0010
1000
0001
0100
0001
0010
0100
1000
0001
1000
0010
0100
0001
0100
0010
1000
0001
1000
0010
0100
0010
1000
0001
0100
0001
1000
,
0010
1000
0100
0010
0001
1000
0100
0010
0100
1000
0001
0100
0001
0010
0100
1000
0001
1000
0010
0100
0010
1000
0001
0100
0010
0100
0001
1000
0010
1000
0001
0100
,
0010
1000
0010
0100
0001
1000
0100
1000
0001
0010
0001
0100
0010
1000
0010
0100
0001
1000
0001
0100
0010
1000
0010
0100
0001
1000
0010
1000
0100
0010
0001
1000
,
0100
1000
0001
0010
0001
0100
0010
1000
0010
0100
0001
1000
0010
1000
0001
0100
0010
1000
0010
0100
0001
1000
0010
0100
0020
0000
0000
0000
4030
0000
0000
0000
,
3001
0100
0010
1000
0010
0100
0001
1000
0010
1000
0100
0010
0001
1000
0100
1000
0010
0100
0010
1000
0001
0100
0001
0010
0100
1000
0001
1000
0010
0100
0001
0100
,
0010
1000
0010
0100
0001
1000
0001
0100
0010
0100
0001
1000
0010
1000
0100
0010
0001
1000
0100
1000
0001
0010
0001
0100
0010
1000
0010
0100
0001
1000
0010
1000
,
0001
0100
0010
1000
0010
0100
0001
1000
0100
1000
0010
0100
0010
1000
0001
0100
0001
0010
0100
1000
0001
0010
0001
0100
0010
1000
0010
0100
0001
1000
0010
1000
,
0100
0010
0001
1000
0100
1000
0001
0100
0001
1000
0010
0100
0001
0100
0010
1000
0001
1000
0100
0010
0001
0100
0001
1000
0020
0000
0000
0000
0430
0000
0000
0000
,
0301
1000
0001
0100
0010
1000
0010
0100
0001
1000
0100
1000
0010
0100
0010
1000
0001
0100
0001
0010
0100
1000
0100
0010
0001
1000
0010
1000
0001
0100
0010
1000
,
0010
0100
0001
1000
0100
0010
0100
1000
0001
0010
0001
0100
0010
1000
0010
0100
0001
1000
0010
1000
0100
0010
0001
0100
0001
1000
0010
0100
0001
0100
0010
1000
,
0001
1000
0100
0010
0001
1000
0010
1000
0100
0010
0001
1000
0100
1000
0010
0100
0001
0100
0010
1000
0001
0100
0001
0010
0100
1000
0001
0010
0001
0100
0010
0100
,
0001
1000
0100
1000
0001
0100
0010
1000
0010
0100
0001
1000
0010
1000
0100
0010
0001
1000
0001
1000
0040
0000
0000
0000
0000
0000
0M00
0000
0030
0000
0000
0000
,
1010
0000
0000
0000
1000
0000
0000
0000
0001
0000
0000
0000
0101
0000
0000
0000
0100
0000
0000
0000
0010
0000
0000
0000
1000
0000
0000
0001
0000
0000
2000
0000
0000
0000
0000
0000
3000
0000
0000
0000
0000
0000
0000
0000
0000
0000
0000
0000
,
0001
0000
0100
0000
0010
0000
1000
0000
0000
1010
0000
0000
0100
0000
0001
0000
1000
0000
0100
0000
0010
0000
0001
0000
,
1000
0000
0000
1100
0000
0000
0100
0000
0010
0000
0001
0000
1000
0000
0010
0000
0100
0000
0020
0000
0000
0030
0000
0000
,
2020
0000
0000
3030
0000
0000
0001
0000
0100
0000
0010
0000
1000
0000
0001
0000
1000
0000
0100
0000
0000
0000
0000
0000
,
0010
0000
0001
1000
0001
0100
0010
2000
3000
0010
0100
0001
,
1000
0000
0000
0000
0010
0000
0000
0000
1000
0000
0000
0000
0100
0000
0000
0000
0010
0000
0000
0000
0001
0000
0000
0000
2000
0000
0000
0000
3000
0000
0000
0000
0000
0000
0000
0000
0001
0000
0000
0000
0000
0000
0100
0000
0000
0010
0000
0000
,
0200
0000
0000
0301
1000
0001
0100
0000
0000
0010
1000
0010
,
0100
0000
0001
0000
1000
0000
0001
0000
0010
0000
0100
0000
1000
0000
0002
0000
0003
0000
2000
0000
0000
3040
0000
0000
,
0130
0001
0100
0000
0020
0000
1030
0000
0002
0000
1003
0000
0200
0000
0310
0000
,
0002
1003
0020
0130
0004
0000
0000
0000
,
1003
0100
1000
0010
0100
0001
0100
0010
1000
0001
1000
0100
0010
0001
1000
0010
1000
0100
0010
0001
1000
0001
0100
0010
1000
0010
0100
0001
1000
0100
1000
0001
,
0010
0001
0100
0010
1000
0010
0100
0001
1000
0100
0010
0001
0100
0010
1000
0010
0100
0001
1000
0001
0100
0010
1000
0010
0200
0000
0000
0000
0000
0000
0000
0000
,
0301
1000
0001
0100
0010
1000
0010
0100
0001
1000
0100
1000
0010
0100
0001
0100
0010
1000
0001
1000
0100
0010
0001
1000
0100
0010
0100
1000
0001
0010
0001
0100
,
0010
1000
0010
0100
0001
1000
0001
0100
0010
1000
0010
0100
0001
1000
0001
0100
0010
1000
0010
0100
0001
1000
0100
0010
0002
0000
0000
0000
4003
0000
0000
0000
,
3010
0100
0001
0100
0010
1000
0001
1000
0100
0010
0001
1000
0010
1000
0001
0100
0010
1000
0010
0100
0001
1000
0100
1000
0010
0100
0001
0100
0010
1000
0001
1000
,
0100
0010
0001
1000
0010
1000
0100
0010
0001
1000
0100
1000
0001
0100
0010
1000
0010
0100
0001
1000
0001
0100
0010
1000
0040
0000
0000
0000
0000
0000
0000
0000
,
0130
0001
1000
0001
0100
0010
1000
0010
0100
0001
0100
0010
1000
0001
1000
0100
0010
0001
1000
0100
1000
0010
0100
0001
0100
0010
1000
0001
1000
0010
0100
0010
,
1000
0001
0100
0001
0010
0100
1000
0001
0010
0001
0100
0010
1000
0010
0100
0001
1000
0100
1000
0001
0100
0000
0010
0000
1000
0000
0001
0000
2000
0000
0000
0000
,
0000
0000
0000
0000
0000
0000
0000
0000
0000
0000
0000
0000
0000
0000
0000
0000
3001
0100
0010
1000
0010
0100
0001
1000
0010
1000
0100
0010
0001
1000
0100
1000
,
0001
0010
0001
0100
0010
1000
0010
0100
0001
1000
0100
1000
0010
0100
0010
1000
0001
0100
0001
0010
0100
1000
0001
0100
0001
1000
0010
0100
0001
0100
0010
1000
,
0001
1000
0010
0100
0010
1000
0001
0100
0001
0010
0100
1000
0001
1000
0010
0100
0001
0100
0010
1000
0001
1000
0100
0010
0001
1000
0100
1000
0010
0100
0010
1000
,
0001
0100
0001
0010
0100
1000
0001
0100
0001
1000
0010
1000
0001
0100
0010
1000
0010
0100
0001
1000
0100
0010
0001
1000
0020
0000
0000
0000
0430
0000
0000
0000
,
0301
1000
0010
1000
0100
0010
0001
1000
0100
1000
0010
0100
0001
0100
0010
1000
0001
1000
0100
0010
0001
1000
0010
0100
0010
1000
0001
0000
0100
0000
0010
0000
,
0100
0000
0001
0000
1000
0000
0010
0000
0100
0000
0000
0000
0001
0000
0000
0000
1000
0100
0010
0001
1000
0001
0100
0010
1000
0010
0100
0001
0100
0010
1000
0001
,
0100
0010
0100
0001
1000
0100
0010
0100
1000
0001
0010
0001
0100
0010
1000
0010
0100
0001
1000
0100
1000
0010
0100
0001
0100
0010
1000
0001
1000
0100
0010
0001
,
1000
0100
1000
0010
0100
0010
1000
0001
0010
0001
0100
0010
1000
0010
0100
0001
1000
0100
1000
0001
0100
0010
1000
0010
0200
0000
0000
0000
0304
0000
0000
0000
,
2003
3010
0200
0301
2000
3100
2000
3010
,
0200
0301
2000
3001
0200
0320
0000
0000
,
1030
0100
1000
0010
0100
0001
0100
0010
1000
0001
1000
0100
0010
0001
1000
0010
1000
0100
0010
0001
1000
0001
0100
0010
1000
0010
0100
0001
1000
0100
1000
0001
,
0010
0001
0100
0010
1000
0010
0100
0001
1000
0100
0010
0001
0100
0010
1000
0010
0100
0001
1000
0001
0100
0010
1000
0010
0200
0000
0000
0000
0000
0000
0000
0000
,
0301
1000
0001
0100
0010
1000
0010
0100
0001
1000
0100
1000
0010
0100
0001
0100
0010
1000
0001
1000
0100
0010
0001
1000
0100
0010
0100
1000
0001
0010
0001
0100
,
0010
1000
0010
0100
0001
1000
0001
0100
0010
1000
0010
0100
0001
1000
0001
0100
0010
1000
0010
0100
0001
1000
0100
0010
0002
0000
0000
0000
4003
0000
0000
0000
,
3010
0100
0001
0100
0010
1000
0001
1000
0100
0010
0001
1000
0010
1000
0001
0100
0010
1000
0010
0100
0001
1000
0100
1000
0010
0100
0001
0100
0010
1000
0001
1000
,
0010
0000
0000
0000
0100
0001
1000
0010
1000
0100
0010
0001
1000
0100
1000
0010
0100
0001
0100
0010
1000
0001
1000
0100
0010
0001
1000
0100
1000
0010
0100
0001
,
0100
0010
1000
0001
1000
0100
0010
0001
1000
0001
0100
0010
1000
0010
0100
0001
0100
0010
1000
0001
1000
0100
0010
0001
1000
0100
1000
0010
0100
0010
1000
0001
,
0100
0001
0010
0100
1000
0001
0010
0001
0100
0010
1000
0010
0100
0001
1000
0100
1000
0001
0100
0010
0100
0001
1000
0010
0100
0001
1000
0001
0040
0000
0000
0000
,
0130
1000
0001
1000
0010
0100
0001
0100
0010
1000
0100
1000
0001
0100
0010
1000
0010
0100
0001
1000
0100
0010
0100
1000
0001
0010
0001
0100
0010
1000
0001
1000
,
0100
0010
0001
0010
0100
1000
0001
1000
0010
0100
0010
1000
0001
0100
0001
0010
0100
1000
0001
1000
0010
0100
0010
1000
0001
0100
0001
1000
0010
0100
0001
0100
,
0010
1000
0001
1000
0100
0010
0001
1000
0010
0100
0010
1000
0001
0100
0001
0010
0100
1000
0001
0010
0001
0100
0010
1000
0010
0100
0001
1000
0100
1000
0010
0100
,
0010
1000
0001
0010
0001
0100
0010
1000
0010
0100
0001
1000
0100
0010
0001
0010
0100
1000
0001
1000
0010
0100
0001
1000
0020
0000
0000
0000
0430
0000
0000
0000
,
0301
1000
0001
0010
0100
1000
0001
0010
0001
0100
0010
1000
0010
0100
0001
1000
0100
1000
0010
0100
0010
1000
0001
0100
0001
1000
0010
1000
0001
0100
0010
1000
,
0010
0100
0001
1000
0100
1000
0001
0010
0001
0100
0010
1000
0010
0100
0001
1000
0100
1000
0001
0010
0001
0100
0010
1000
0010
0100
0001
1000
0001
0100
0010
1000
,
0010
0100
0001
1000
0100
1000
0010
0100
0001
1000
0001
0010
0100
1000
0100
0010
0001
1000
0100
1000
0001
0010
0100
0010
0001
1000
0010
1000
0001
0100
0010
1000
,
0010
0100
0001
1000
0100
1000
0001
0100
0010
1000
0010
0100
0001
1000
0001
0100
0010
1000
0010
0100
0001
1000
0100
0010
0002
0000
0000
0000
4003
0000
0000
0000
,
3010
0000
0100
0000
0010
0000
1000
0001
1000
0100
0010
0001
1000
0000
0010
0000
,
1000
0000
0000
0001
0000
0000
0100
0000
0000
0010
0000
0000
1000
0001
1000
0001
1000
0001
1000
0000
0100
0000
0010
0000
,
0001
0000
1000
0000
0001
0100
0001
0000
1000
0000
0100
0000
0010
0000
0001
1000
,
0001
0100
0010
0000
1000
0000
0010
0100
0010
0000
1000
0000
0002
0000
0403
0000
,
0310
0000
1000
0000
0001
0000
0100
0010
0100
0001
1000
0010
1000
0000
0100
0000
,
0010
0000
0000
0001
0000
0000
1000
0000
0000
0000
0000
0000
0001
0000
0000
0000
0000
0000
0100
0000
0000
0000
0000
0000
0010
0000
1000
0000
0010
0000
1000
0000
0001
0000
1000
0000
0100
0000
0000
0000
0010
0000
0000
0000
0001
0000
0000
0000
,
1000
0000
0010
0000
0100
0001
0100
0000
0010
0000
1000
0000
0001
0000
1000
0100
,
0010
0001
1000
0000
0010
0000
0100
0001
0100
0000
0010
0000
2000
0000
3004
0000
,
0103
0000
0000
0000
,
0000
0000
0000
0000
,
0000
0000
0000
0000
,
0000
0M00
0000
0000
0000
0000
0000
0000
;
