#TITLE:Brain 30;
#SUBTITLE:(Train Psycho 303 Mix);
#ARTIST:D-Noiser;
#TITLETRANSLIT:;
#SUBTITLETRANSLIT:;
#ARTISTTRANSLIT:;
#CREDIT:owenviau1;
#BANNER:../owenviau1 Simfiles 5-bn.png;
#BACKGROUND:../owenviau1 Simfiles 5-bg.png;
#LYRICSPATH:;
#CDTITLE:../ov1_title.png;
#MUSIC:D-Noiser - Brain 30 (Train Psycho 303 Mix).mp3;
#OFFSET:-0.171;
#SAMPLESTART:309.695;
#SAMPLELENGTH:29.999;
#SELECTABLE:YES;
#DISPLAYBPM:136.000;
#BPMS:0.000=144.330,1.000=135.992,3.000=135.985,4.000=135.992,6.000=135.985,7.000=135.992,9.000=135.985,10.000=135.992,13.000=135.985,14.000=135.992,16.000=135.985,17.000=135.992,19.000=135.985,20.000=135.992,22.000=135.985,23.000=135.992,25.000=135.985,26.000=135.992,28.000=135.985,29.000=135.992,32.000=135.985,33.000=135.992,35.000=135.985,36.000=135.992,38.000=135.985,39.000=135.992,41.000=135.985,42.000=135.992,44.000=135.985,45.000=135.992,48.000=135.985,49.000=135.992,51.000=135.985,52.000=135.992,54.000=135.985,55.000=135.992,58.000=135.985,59.000=135.992,62.000=135.985,63.000=135.992,66.000=135.985,67.000=135.992,70.000=135.985,71.000=135.992,74.000=135.985,75.000=135.992,78.000=135.985,79.000=135.992,82.000=135.985,83.000=135.992,86.000=135.985,87.000=135.992,90.000=135.985,91.000=135.992,94.000=135.985,95.000=135.992,98.000=135.985,99.000=135.992,102.000=135.985,103.000=135.992,106.000=135.985,107.000=135.992,110.000=135.985,111.000=135.992,114.000=135.985,115.000=135.992,118.000=135.985,119.000=135.992,122.000=135.985,123.000=135.992,126.000=135.985,127.000=135.992,130.000=135.985,131.000=135.992,134.000=135.985,135.000=135.992,138.000=135.985,139.000=135.992,142.000=135.985,143.000=135.992,146.000=135.985,147.000=135.992,150.000=135.985,151.000=135.992,154.000=135.985,155.000=135.992,158.000=135.985,159.000=135.992,162.000=135.985,163.000=135.992,166.000=135.985,167.000=135.992,170.000=135.985,171.000=135.992,174.000=135.985,175.000=135.992,178.000=135.985,179.000=135.992,182.000=135.985,183.000=135.992,186.000=135.985,187.000=135.992,190.000=135.985,191.000=135.992,194.000=135.985,195.000=135.992,198.000=135.985,199.000=135.992,202.000=135.985,203.000=135.992,206.000=135.985,207.000=135.992,210.000=135.985,211.000=135.992,214.000=135.985,215.000=135.992,216.000=135.985,217.000=135.992,218.000=135.985,219.000=135.992,220.000=135.985,221.000=135.992,222.000=135.985,223.000=135.992,224.000=135.985,225.000=135.992,226.000=135.985,227.000=135.992,228.000=135.985,229.000=135.992,230.000=135.985,231.000=135.992,232.000=135.985,233.000=135.992,234.000=135.985,235.000=135.992,236.000=135.985,237.000=135.992,238.000=135.985,239.000=135.992,240.000=135.985,241.000=135.992,242.000=135.985,243.000=135.992,244.000=135.985,245.000=135.992,246.000=135.985,247.000=135.992,248.000=135.985,249.000=135.992,250.000=135.985,251.000=135.992,252.000=135.985,253.000=135.992,254.000=135.985,255.000=135.992,256.000=135.985,257.000=135.992,258.000=135.985,259.000=135.992,260.000=135.985,261.000=135.992,262.000=135.985,263.000=135.992,264.000=135.985,265.000=135.992,266.000=135.985,267.000=135.992,268.000=135.985,269.000=135.992,270.000=135.985,271.000=135.992,272.000=135.985,273.000=135.992,274.000=135.985,275.000=135.992,276.000=135.985,277.000=135.992,278.000=135.985,279.000=135.992,280.000=135.985,281.000=135.992,282.000=135.985,283.000=135.992,284.000=135.985,285.000=135.992,286.000=135.985,287.000=135.992,288.000=135.985,289.000=135.992,290.000=135.985,291.000=135.992,292.000=135.985,293.000=135.992,294.000=135.985,295.000=135.992,296.000=135.985,297.000=135.992,298.000=135.985,299.000=135.992,300.000=135.985,301.000=135.992,302.000=135.985,303.000=135.992,304.000=135.985,305.000=135.992,306.000=127.832,307.000=135.992,308.000=135.985,309.000=135.992,310.000=135.985,311.000=135.992,312.000=135.985,313.000=135.992,314.000=135.985,315.000=135.992,316.000=135.985,317.000=135.992,318.000=135.985,319.000=135.992,320.000=135.985,321.000=135.992,322.000=135.985,323.000=135.992,324.000=135.985,325.000=135.992,326.000=135.985,327.000=135.992,328.000=135.985,329.000=135.992,330.000=135.985,331.000=135.992,332.000=135.985,333.000=135.992,334.000=135.985,335.000=135.992,336.000=135.985,337.000=135.992,338.000=135.985,339.000=135.992,340.000=135.985,341.000=135.992,342.000=135.985,343.000=135.992,344.000=135.985,345.000=135.992,346.000=135.985,347.000=135.992,348.000=135.985,349.000=135.992,350.000=135.985,351.000=135.992,352.000=135.985,353.000=135.992,354.000=135.985,355.000=135.992,356.000=135.985,357.000=135.992,358.000=135.985,359.000=135.992,360.000=135.985,361.000=135.992,362.000=135.985,363.000=135.992,364.000=135.985,365.000=135.992,366.000=135.985,367.000=135.992,368.000=135.985,369.000=135.992,370.000=135.985,371.000=135.992,372.000=135.985,373.000=135.992,374.000=135.985,375.000=135.992,376.000=135.985,377.000=135.992,378.000=135.985,379.000=135.992,380.000=135.985,381.000=135.992,382.000=135.985,383.000=135.992,384.000=135.985,385.000=135.992,386.000=135.985,387.000=135.992,388.000=135.985,389.000=135.992,390.000=135.985,391.000=135.992,392.000=135.985,393.000=135.992,394.000=135.985,395.000=135.992,396.000=135.985,397.000=135.992,398.000=135.985,399.000=135.992,400.000=135.985,401.000=135.992,402.000=135.985,403.000=141.505,404.000=135.985,405.000=135.992,406.000=135.985,407.000=135.992,408.000=135.985,409.000=135.992,410.000=133.199,411.000=135.992,412.000=135.985,413.000=135.992,414.000=135.985,415.000=135.992,416.000=135.985,417.000=135.992,418.000=135.985,419.000=135.992,420.000=135.985,421.000=135.992,422.000=135.985,423.000=135.992,424.000=135.985,425.000=135.992,426.000=135.985,427.000=135.992,428.000=135.985,429.000=135.992,430.000=135.985,431.000=135.992,512.000=134.677,513.000=135.992,691.000=135.076,692.000=135.992,818.000=134.739,819.000=135.992,861.000=135.985;
#STOPS:;
#BGCHANGES:;
// cache tags:
#FIRSTBEAT:31.000;
#LASTBEAT:947.000;
#SONGFILENAME:Songs/owenviau1 Simfiles 5/Brain 30 (Train Psycho 303 Mix) - [owenviau1] v1.3/Brain 30.sm;
#HASMUSIC:1;
#HASBANNER:1;
#MUSICLENGTH:420.179;
// end cache tags

//---------------dance-single - ----------------
#NOTES:
     dance-single:
     :
     Hard:
     11:
     0.883,0.929,0.038,0.010,0.991,2578.000,16.000,4.000,46.000,0.000:
0000
0000
0000
0000
,
0000
0000
0000
0000
,
0000
0000
0000
0000
,
0000
0000
0000
0000
,
0000
0000
0000
0000
,
0000
0000
0000
0000
,
0000
0000
0000
0000
,
0000
0000
0000
0000
0000
0000
0001
0100
,
1000
0010
0100
0000
0001
0000
0100
0000
0010
0001
1000
0000
0100
0000
0010
0000
,
0001
0100
0010
0000
1000
0000
0001
0000
0100
0010
1000
0000
0100
0000
0010
0000
,
0001
0010
0001
0000
0100
0000
0010
0000
1000
0100
1000
0000
0010
0000
0100
0000
,
0001
1000
0001
0000
0010
0000
0100
0000
0001
1000
0010
0000
0100
0000
0001
0000
,
1000
0100
0010
0000
0001
0000
0100
0000
0010
1000
0010
0000
0100
0000
0001
0000
,
0100
0010
1000
0000
0001
0000
0100
0000
0010
1000
0100
0000
0010
0000
0001
0000
,
0100
0001
0010
0000
0100
0000
1000
0000
0001
0100
0010
0000
1000
0000
0010
0000
,
0100
0001
0100
0000
0010
0000
1000
0000
0100
0010
0001
0000
1MM1
0000
1000
0000
,
0001
0100
0001
0000
0010
0000
0100
0000
1000
0010
1000
0000
0001
0000
0100
0000
,
0001
1000
0001
0000
0010
0000
0100
0000
1000
0100
0010
0000
0001
0000
0100
0000
,
0010
1000
0100
0000
0010
0000
0001
0000
0100
0001
0100
0000
0010
0000
1000
0000
,
0100
0010
0001
0000
1000
0000
0010
0000
1000
0001
1000
0000
0100
0000
0010
0000
,
0001
0100
0001
0000
1000
0000
0010
0000
0100
0010
0100
0000
0001
0000
0010
0000
,
0100
1000
0100
0000
0010
0000
0001
0000
0100
0001
0100
0000
0010
0000
1000
0000
,
0100
0010
0001
0000
0100
0000
0010
0000
1000
0001
0100
0000
0010
0000
1000
0000
,
0001
0010
0100
0000
1000
0000
0010
0000
1000
0001
1000
0000
M11M
0000
0001
0000
,
0010
0100
1000
0000
0100
0000
0010
0000
0001
0100
0010
0000
1000
0000
0100
0000
,
0010
0001
0010
0000
0100
0000
1000
0000
0001
0100
0010
0000
1000
0000
0001
0000
,
0100
0010
1000
0000
0001
0000
0100
0000
0010
1000
0010
0000
0100
0000
0001
0000
,
0010
0100
1000
0000
0001
0000
0100
0000
0010
1000
0001
0000
0010
0000
0100
0000
,
1000
0100
0010
0000
0001
0000
0100
0000
0010
1000
0010
0000
0100
0000
0001
0000
,
1000
0010
1000
0000
0100
0000
0010
0000
0001
0100
0001
0000
1000
0000
0010
0000
,
0100
0010
0100
0000
0001
0000
1000
0000
0100
0010
0100
0000
1000
0000
0001
0000
,
0100
0001
0100
0000
0010
0000
1000
0000
0100
0010
0001
0000
2002
0000
0003
0000
,
0000
0000
0000
0000
0000
0000
3100
0010
,
0001
0100
0001
0000
0010
0000
0100
0000
1000
0010
1000
0000
0100
0000
0010
0000
,
0001
0100
0010
0000
1000
0000
0001
0000
0100
0010
1000
0000
0100
0000
0010
0000
,
0001
0100
0001
0000
1000
0000
0010
0000
1000
0001
1000
0000
0100
0000
0010
0000
,
0001
0100
0010
0000
1000
0000
0001
0000
1000
0001
0010
0000
1MM1
0000
0001
0000
,
0010
0100
1000
0000
0001
0000
0100
0000
0010
1000
0100
0000
0010
0000
0001
0000
,
0100
0001
0100
0000
0010
0000
1000
0000
0100
0010
0001
0000
0100
0000
0010
0000
,
1000
0100
1000
0000
0010
0000
0100
0000
0001
0010
0001
0000
0100
0000
0010
0000
,
1000
0100
0010
0000
0001
0000
1000
0000
0001
1000
0010
0000
1M1M
0000
1000
0000
,
0100
0010
0001
0000
0100
0000
0010
0000
1000
0001
0010
0000
0100
0000
1000
0000
,
0010
0100
0001
0000
1000
0000
0010
0000
0100
0001
1000
0000
0010
0000
0100
0000
,
0001
0010
0100
0000
1000
0000
0010
0000
1000
0001
0100
0000
0010
0000
1000
0000
,
0001
0010
0100
0000
1000
0000
0010
0000
1000
0001
0100
0000
1M1M
0000
0010
0000
,
0100
0001
0100
0000
0010
0000
1000
0000
0100
0010
0001
0000
1000
0000
0010
0000
,
0100
0001
0010
0000
0100
0000
1000
0000
0010
0100
0001
0000
1000
0000
0001
0000
,
0100
0010
1000
0000
0001
0000
0100
0000
0010
1000
0100
0000
0010
0000
0001
0000
,
0100
0010
1000
0001
0100
0001
1001
0100
,
0010
1000
0010
0000
0100
0000
0001
0000
1000
0000
0100
0000
0010
0000
0001
0000
,
1000
0010
1000
0001
0100
0010
1000
0001
,
1000
0001
0100
0000
0010
0000
0001
0000
0010
0000
0100
0000
1000
0000
0010
0000
,
0100
0001
1000
0001
0010
0100
10M1
0001
,
1000
0100
0010
0000
0001
0000
0100
0000
0010
0000
1000
0000
0001
0000
0010
0000
,
0001
1000
0100
0001
1000
0001
0010
0100
,
1000
0001
1000
0000
0010
0000
0100
0000
0001
0000
1000
0000
0010
0000
1000
0000
,
0001
0010
0100
1000
0010
1000
1MM1
0001
,
0100
0010
1000
0000
0100
0000
0010
0000
0001
0000
1000
0000
0001
0000
0100
0000
,
0010
1000
0010
0100
0001
1000
0100
0010
,
0001
1000
0001
0000
0100
0000
0010
0000
1000
0000
0001
0000
0100
0000
0001
0000
,
1000
0010
0100
0001
1000
0010
1MM1
1000
,
0100
0010
0001
0000
1000
0000
0010
0000
0100
0000
0010
0000
1000
0000
0100
0000
,
0010
0001
0100
0001
1000
0010
0100
0001
,
0010
0100
1000
0000
0001
0000
1000
0000
0010
0000
1000
0000
0001
0000
0100
0000
,
0010
1000
0001
0010
0100
1000
MM11
0001
,
1000
0100
0010
0000
0001
0000
0010
0000
0100
0000
1000
0000
0001
0000
0100
0000
,
0010
1000
0100
0010
0001
0100
0001
1000
,
0100
0010
0001
0000
1000
0000
0001
0000
0100
0000
0010
0000
1000
0000
0010
0000
,
0100
0000
0001
0000
1000
0000
0001
0000
0010
0000
0100
0000
1000
0100
0010
0000
,
0001
0000
0010
0100
0000
0100
1000
0000
0001
1000
0010
0000
1000
0001
0100
0000
,
0010
0000
1000
0100
0000
0100
0010
0000
0001
1000
0001
0000
0100
0010
1000
0000
,
0001
0000
1000
0001
0000
0001
1000
0000
0010
0100
0001
0000
0010
0100
1000
0001
,
0100
0010
1000
0010
0100
0001
1000
0001
0100
0010
1000
0001
2000
0000
0000
0000
,
3000
0000
0000
0000
,
0000
0000
0000
0000
,
0000
0000
0000
0000
,
0000
0000
0000
0000
0000
0000
0000
0000
0000
0000
0000
0000
1000
0100
1000
0100
,
1000
0001
0100
0001
0100
0001
0100
0001
0100
0000
0000
0000
0000
0000
0000
0000
,
0000
0000
0000
0000
0000
0000
0000
0000
0000
0000
0000
0000
0010
0100
0010
0100
,
0010
1000
0001
0100
0001
0100
0001
0100
0001
0000
0000
0000
0000
0000
0000
0000
,
0000
0000
0000
0000
0000
0000
0000
0000
0000
0000
0000
0000
1000
0100
1000
0100
,
1000
0010
0100
0001
0100
0001
0100
0001
0100
0000
0000
0000
0000
0000
0000
0000
,
0000
0000
0000
0000
0000
0000
0000
0000
0000
0000
0000
0000
1000
0100
1000
0100
,
1000
0001
0100
0010
0100
0010
0100
0010
0100
0000
0000
0000
0000
0000
0000
0000
,
0000
0000
0000
0000
0000
0000
0000
0000
0000
0000
0000
0000
1000
0001
1000
0001
,
0010
0001
0100
0001
0100
0001
0100
0001
0100
0001
1000
0010
1000
0010
1000
0010
,
0100
0001
0100
0001
0100
0010
1000
0100
0010
0001
0100
0010
0100
0010
0100
0010
,
1000
0001
1000
0001
1000
0001
1000
0001
1000
0001
0100
0010
0100
0010
0100
0010
,
1000
0001
1000
0001
1000
0001
1000
0100
0010
0001
1000
0010
1000
0010
1000
0010
,
1000
0001
1000
0001
1000
0001
1000
0001
1000
0001
0010
0100
0010
0100
0010
0100
,
0001
1000
0001
1000
0001
1000
0001
0100
0010
1000
0001
0100
0001
0100
0001
0100
,
0001
1000
0010
1000
0010
1000
0010
1000
0010
1000
0001
0010
0001
0010
0001
0010
,
0001
1000
0001
1000
0001
1000
0100
0010
0001
0100
0010
1000
0010
1000
0010
1000
,
0001
0100
0001
0100
0001
0100
0001
0100
0001
0100
0001
1000
0001
1000
0001
1000
,
0010
0100
0010
0100
0010
1000
0100
0010
0001
0010
0100
1000
0100
1000
0100
1000
,
0001
0010
0001
0010
0001
0010
0001
0010
0001
0010
0100
1000
0100
1000
0100
1000
,
0001
0100
0001
0100
0001
0100
0010
1000
0010
0100
0001
0010
1M00
0001
1000
0001
,
0010
0001
0100
0001
0100
0001
0100
0001
0100
0001
1000
0010
1000
0010
1000
0010
,
0100
0001
0100
0001
0100
0010
1000
0100
0010
0001
0100
0010
M10M
0010
0100
0010
,
1000
0001
1000
0001
1MM0
0001
1000
0001
1000
0001
0100
0010
M10M
0010
0100
0010
,
1M00
0001
1000
0001
1MM0
0001
1000
0100
M010
0001
1000
0010
1000
0000
00M0
0M00
,
100M
0000
0M00
00M0
100M
0000
0M00
000M
10M0
0000
0M00
00M0
1002
0000
0000
0000
,
1000
0000
0000
0000
1000
0000
1000
0000
1000
0000
1000
0000
1003
0100
0010
0001
,
0100
0010
1000
0001
0100
0001
1000
0100
0010
0001
0010
0100
1000
0010
1000
0001
,
0100
0010
1000
0001
0100
0001
0010
0100
1000
0001
0010
0001
0100
0010
1000
0100
,
0010
0001
0100
0010
1000
0001
0100
0001
1000
0001
0010
0100
1000
0100
0010
0001
,
1000
0010
0100
0001
0010
0001
0100
0010
1000
0100
1000
0001
1000
0010
0100
0010
,
1000
0001
0010
0001
0100
0010
1000
0100
0010
0001
0100
0001
1000
0010
1000
0100
,
0010
0001
0100
0010
1000
0001
0010
0001
0100
0010
1000
0100
0010
0001
0100
0010
,
1000
0010
0100
0001
0010
0100
1000
0100
0010
0001
1000
0001
0010
0001
1000
0010
,
0100
0001
0010
0100
1000
0010
1000
0001
0010
0100
1000
0010
0100
0001
0010
0001
,
0100
0010
1000
0001
1000
0010
0100
0001
1000
0100
0010
0001
0100
0010
1000
0100
,
0001
0100
1000
0010
0001
0010
1000
0001
0010
0100
1000
0010
0100
0001
1000
0010
,
0100
0001
0010
0100
1000
0010
0100
0001
0010
0001
0100
0010
1000
0001
0010
0100
,
1000
0100
0010
0001
0100
0001
0010
0100
1000
0010
0100
0001
1000
0100
0010
0001
,
1000
0010
0100
0001
0010
0100
1000
0010
1000
0100
0010
0001
0100
0001
0010
0100
,
1000
0010
0100
0001
1000
0100
0010
0001
1000
0001
0100
0001
0010
0100
1000
0010
,
0100
0001
0010
0001
0100
0010
1000
0100
1000
0001
0100
0001
0010
0100
1000
0010
,
1000
0100
0010
0001
0010
0100
1000
0001
0100
0001
1000
0010
1000
0001
0100
0001
,
0010
0100
1000
0010
0100
0001
1000
0010
1000
0100
1000
0001
1000
0001
0010
0100
,
1000
0010
1000
0100
0010
0001
0100
0001
1000
0010
0100
0001
0010
0100
1000
0010
,
0100
0001
1000
0010
0100
0010
1000
0001
0100
0010
0100
0001
1000
0100
0010
0001
,
1000
0010
0100
0010
1000
0100
1000
0001
0010
0100
1000
0010
1000
0001
0010
0100
,
1000
0010
0100
0001
0100
0010
1000
0100
0010
0001
0100
0010
1000
0100
1000
0001
,
0010
0001
1000
0010
1000
0001
0100
0001
0010
0100
1000
0010
0100
0001
1000
0010
,
0100
0010
1000
0001
1000
0100
0010
0001
0010
0100
1000
0010
0100
0001
0100
0010
,
1000
0010
0100
0001
0010
0100
1000
0010
0100
0010
1000
0001
1000
0100
0010
0001
,
0100
0010
1000
0001
0100
0001
1000
0100
0010
0001
0010
0100
1000
0010
1000
0001
,
0100
0010
1000
0001
0100
0001
0010
0100
1000
0001
0010
0001
0100
0010
1000
0100
,
0010
0001
0100
0010
1000
0001
0100
0001
1000
0001
0010
0100
1000
0100
0010
0001
,
1000
0010
0100
0001
0010
0001
0100
0010
1000
0100
1000
0001
1000
0010
0100
0010
,
1000
0001
0010
0001
0100
0010
1000
0100
0010
0001
0100
0001
1000
0010
1000
0100
,
0010
0001
0100
0010
1000
0001
0010
0001
0100
0010
1000
0100
0010
0001
0100
0010
,
1000
0010
0100
0001
0010
0100
1000
0100
0010
0001
1000
0001
0010
0001
1000
0010
,
0100
0001
0010
0100
1000
0010
1000
0001
0010
0100
1000
0010
0100
0001
0010
0001
,
0100
0010
1000
0001
1000
0010
0100
0001
1000
0100
0010
0001
0100
0010
1000
0100
,
0001
0100
1000
0010
0001
0010
1000
0001
0010
0100
1000
0010
0100
0001
1000
0010
,
0100
0001
0010
0100
1000
0010
0100
0001
0010
0001
0100
0010
1000
0001
0010
0100
,
1000
0100
0010
0001
0100
0001
0010
0100
1000
0010
0100
0001
1000
0000
0100
0000
,
0010
0001
1000
0010
0100
0001
1000
0001
,
0010
0001
0100
0010
1000
0100
0010
0001
,
0100
0010
1000
0001
0100
0010
1000
0100
,
1000
0010
0100
0001
0010
0001
1000
0001
,
0100
0010
1000
0010
0100
0001
0100
0010
,
1000
0100
0010
0001
0010
0100
1000
0001
,
0100
0001
0010
0100
1000
0001
1000
0010
,
0100
0001
1000
0100
0010
0001
0100
0001
,
1000
0010
0100
0001
0010
0100
1000
0010
,
0100
0001
0010
0100
1000
0001
1000
0010
,
0100
0001
0100
0010
1000
0100
0010
0001
,
0010
0100
1000
0001
0100
0010
1000
0010
,
0100
0001
0010
0100
1000
0100
0010
0001
,
0100
0001
0010
0100
1000
0010
0100
0001
,
1000
0100
0010
0001
0100
0010
1000
0010
,
0100
0001
0010
0100
1000
0001
0010
0001
,
0100
0010
1000
0001
0100
0001
0010
0100
,
1000
0010
0100
0001
1000
0100
1000
0010
,
0100
0001
0100
0010
1000
0001
0100
0010
,
0100
0001
1000
0010
0100
0001
1000
0010
,
0100
1000
0001
0100
0010
0100
0001
1000
,
0010
0100
0010
1000
0001
1000
0010
1000
,
0100
0010
0001
0100
0001
0010
0100
1000
,
0010
0100
0001
0100
0010
1000
0001
1000
,
0100
0010
0001
0100
0001
0010
0100
1000
,
0010
0100
0001
1000
0001
0100
0010
1000
,
0100
0010
0001
0010
0100
1000
0001
1000
,
0010
0100
0001
1000
0001
0010
0100
1000
,
0001
0100
0010
1000
0001
1000
0100
0010
,
0001
0100
0001
0010
0100
1000
0010
1000
,
0001
0100
0001
1000
0100
0010
0001
1000
,
0100
0000
1000
0000
0001
0000
0010
0000
0100
0000
1000
0100
1000
0001
1000
0001
,
0010
0001
0100
0001
0100
0001
0100
0001
0100
0001
1000
0010
1000
0010
1000
0010
,
0100
0001
0100
0001
0100
0010
1000
0010
1000
0010
1000
0010
1000
0100
0010
0001
,
0100
0010
1000
0001
0100
0001
1000
0100
0010
0001
0010
0100
1000
0010
1000
0001
,
0100
0010
1000
0001
0100
0001
0010
0100
1000
0001
0010
0001
0100
0010
1000
0100
,
0010
0001
0100
0010
1000
0001
0100
0001
1000
0001
0010
0100
1000
0100
0010
0001
,
1000
0010
0100
0001
0010
0001
0100
0010
1000
0100
1000
0001
1000
0010
0100
0010
,
1000
0001
0010
0001
0100
0010
1000
0100
0010
0001
0100
0001
1000
0010
1000
0100
,
0010
0001
0100
0010
1000
0001
0010
0001
0100
0010
1000
0100
0010
0001
0100
0010
,
1000
0010
0100
0001
0010
0100
1000
0100
0010
0001
1000
0001
0010
0001
1000
0010
,
0100
0001
0010
0100
1000
0010
1000
0001
0010
0100
1000
0010
0100
0001
0010
0001
,
0100
0010
1000
0001
1000
0010
0100
0001
1000
0100
0010
0001
0100
0010
1000
0001
,
0100
0010
1000
0001
0100
0001
1000
0100
0010
0001
0010
0100
1000
0010
1000
0001
,
0100
0010
1000
0001
0100
0001
0010
0100
1000
0001
0010
0001
0100
0010
1000
0100
,
0010
0001
0100
0010
1000
0001
0100
0001
1000
0001
0010
0100
1000
0100
0010
0001
,
1000
0010
0100
0001
0010
0001
0100
0010
1000
0100
1000
0001
1000
0010
0100
0010
,
1000
0001
0010
0001
0100
0010
1000
0100
0010
0001
0100
0001
1000
0010
1000
0100
,
0010
0001
0100
0010
1000
0001
0010
0001
0100
0010
1000
0100
0010
0001
0100
0010
,
1000
0010
0100
0001
0010
0100
1000
0100
0010
0001
1000
0001
0010
0001
1000
0010
,
0100
0001
0010
0100
1000
0010
1000
0001
0010
0100
1000
0010
0100
0001
0010
0001
,
0100
0010
1000
0001
1000
0010
0100
0001
1000
0100
0010
0001
1000
0100
0010
0001
,
0100
0010
1000
0001
0100
0001
1000
0100
0010
0001
0010
0100
1000
0010
1000
0001
,
0100
0010
1000
0001
0100
0001
0010
0100
1000
0001
0010
0001
0100
0010
1000
0100
,
0010
0001
0100
0010
1000
0001
0100
0001
1000
0001
0010
0100
1000
0100
0010
0001
,
1000
0010
0100
0001
0010
0001
0100
0010
1000
0100
1000
0001
1000
0010
0100
0010
,
1000
0001
0010
0001
0100
0010
1000
0100
0010
0001
0100
0001
1000
0010
1000
0100
,
0010
0001
0100
0010
1000
0001
0010
0001
0100
0010
1000
0100
0010
0001
0100
0010
,
1000
0010
0100
0001
0010
0100
1000
0100
0010
0001
1000
0001
0010
0001
1000
0010
,
0100
0001
0010
0100
1000
0010
1000
0001
0010
0100
1000
0010
0100
0001
0010
0001
,
0100
0010
1000
0001
1000
0010
0100
0001
1000
0100
0010
0001
0100
0010
1000
0001
,
0100
0010
1000
0001
0100
0001
1000
0100
0010
0001
0010
0100
1000
0010
1000
0001
,
0100
0010
1000
0001
0100
0001
0010
0100
1000
0001
0010
0001
0100
0010
1000
0100
,
0010
0001
0100
0010
1000
0001
0100
0001
1000
0001
0010
0100
1000
0100
0010
0001
,
1000
0010
0100
0001
0010
0001
0100
0010
1000
0100
1000
0001
1000
0010
0100
0010
,
1000
0000
0000
0001
0000
0000
0010
0000
0000
0001
0000
0000
1000
0000
0001
0000
1000
0000
0001
0000
1000
0000
0001
0000
1000
0000
0001
0000
1000
0000
0001
0000
1000
0000
0001
0000
1000
0000
0000
0000
0000
0000
0010
0000
0000
0000
0000
0000
,
0001
1000
0001
0000
0100
0000
0001
0000
1000
0000
0100
0000
0010
0000
0001
0000
,
1000
0010
1000
0001
0100
0010
1000
0001
,
1000
0001
0100
0000
0010
0000
0001
0000
0010
0000
0100
0000
1000
0000
0010
0000
,
0100
0001
1000
0001
0010
0100
10M1
0001
,
1000
0100
0010
0000
0001
0000
0100
0000
0010
0000
1000
0000
0001
0000
0010
0000
,
0001
1000
0100
0001
1000
0001
0010
0100
,
1000
0001
1000
0000
0010
0000
0100
0000
0001
0000
1000
0000
0010
0000
1000
0000
,
0001
0010
0100
1000
0010
1000
1MM1
0001
,
0010
1000
0001
0100
0001
1000
0010
1000
,
0100
0010
0001
0010
0100
1000
0001
0100
,
0010
1000
0001
0010
0001
0100
0001
0010
,
1000
0100
0010
0001
1000
0010
1MM1
0001
,
0010
0100
1000
0001
0100
0010
1000
0100
,
0010
0001
0100
0001
1000
0010
1000
0100
,
0010
0001
0100
0010
1000
0100
0010
0001
,
0100
0001
1000
0010
0100
0001
11MM
1000
,
0100
0010
0001
0100
0001
1000
0010
0100
,
0001
1000
0001
0010
0001
0100
0010
1000
,
0100
0010
0001
0100
0010
1000
0010
0100
,
0001
0100
0010
1000
0100
0010
0001
1000
,
0010
1000
0100
0010
0001
0100
0001
1000
,
0001
1000
0010
1000
0001
0100
0001
1000
,
0001
0100
0010
1000
0100
0010
0001
0010
,
0100
1000
0001
1000
0010
0100
0001
1000
,
0001
0100
0001
1000
0010
1000
0001
0100
,
0001
1000
0100
1000
0010
0100
0010
1000
,
0001
0100
0001
1000
0010
0100
0001
0010
,
0100
1000
0001
0100
0001
1000
0010
1000
,
0001
0100
0001
1000
0100
0010
0001
0100
,
0001
1000
0010
1000
0001
0100
0001
1000
,
0100
0010
0001
1000
0010
1000
0100
0010
,
0001
0100
0010
1000
0001
0010
0000
0000
,
0000
0000
0000
0000
;

//---------------dance-single - ----------------
#NOTES:
     dance-single:
     :
     Challenge:
     12:
     1.000,0.930,0.555,0.014,1.000,2881.000,233.000,6.000,127.000,0.000:
0000
0000
0000
0000
,
0000
0000
0000
0000
,
0000
0000
0000
0000
,
0000
0000
0000
0000
,
0000
0000
0000
0000
,
0000
0000
0000
0000
,
0000
0000
0000
0000
,
0000
0000
0000
0000
0000
0000
1001
0100
,
0010
1000
0001
0000
1100
0000
0010
0000
0100
0010
0001
0000
1001
0000
0100
0000
,
1000
0100
0010
0000
1001
0000
0100
0000
0010
0100
1000
0000
0110
0000
0001
0000
,
0100
0001
0010
0000
1001
0000
0100
0000
0010
1000
0001
0000
0101
0000
0010
0000
,
1000
0100
0010
0000
0101
0000
1000
0000
0010
1000
0100
0000
1001
0000
0010
0000
,
1000
0100
0010
0000
0101
0000
0010
0000
1000
0001
0100
0000
1001
0000
0010
0000
,
1000
0100
0010
0000
1100
0000
0001
0000
0100
0010
1000
0000
0101
0000
1000
0000
,
0010
0100
0001
0000
1010
0000
0100
0000
0001
1000
0010
0000
0101
0000
1000
0000
,
0010
0100
0001
0000
1100
0000
0010
0000
0001
0010
0100
0000
1MM1
0000
0001
0000
,
0100
0010
1000
0000
0011
0000
0100
0000
0010
0001
1000
0000
0110
0000
0001
0000
,
1000
0100
0010
0000
1001
0000
0001
0000
0100
0010
1000
0000
0101
0000
0010
0000
,
0100
1000
0001
0000
1010
0000
0100
0000
0001
0010
0100
0000
1100
0000
0001
0000
,
1000
0010
0100
0000
1001
0000
0010
0000
0100
0001
1000
0000
0011
0000
0100
0000
,
0010
1000
0001
0000
1100
0000
0010
0000
0001
0010
0100
0000
1001
0000
0100
0000
,
0001
0100
0001
0000
1010
0000
0100
0000
1000
0001
0010
0000
1100
0000
1000
0000
,
0001
0100
0010
0000
1010
0000
1000
0000
0100
0010
0001
0000
1001
0000
0100
0000
,
0010
0001
1000
0000
0110
0000
0001
0000
1000
0010
0100
0000
MM11
0000
1000
0000
,
0010
1000
0001
0000
1100
0000
0010
0000
0100
0010
0001
0000
1001
0000
0100
0000
,
1000
0100
0010
0000
1001
0000
0100
0000
0010
0100
1000
0000
0110
0000
0001
0000
,
0100
0001
0010
0000
1001
0000
0100
0000
0010
1000
0001
0000
0101
0000
0010
0000
,
1000
0100
0010
0000
0101
0000
1000
0000
0010
1000
0100
0000
1001
0000
0010
0000
,
1000
0100
0010
0000
0101
0000
0010
0000
1000
0001
0100
0000
1001
0000
0010
0000
,
1000
0100
0010
0000
1100
0000
0001
0000
0100
0010
1000
0000
0101
0000
1000
0000
,
0010
0100
0001
0000
1010
0000
0100
0000
0001
1000
0010
0000
0101
0000
1000
0000
,
0010
0100
0001
0000
1100
0000
0010
0000
0001
0010
0100
0000
2MM2
0000
3000
0000
,
0000
0000
0000
0000
0000
0000
2MM3
3001
,
1000
0100
0010
0001
1000
0000
0010
0000
0100
0001
0010
0100
1000
0000
0010
0000
,
0100
0001
1000
0010
0100
0000
0001
0000
1000
0100
0010
0001
1000
0000
0010
0000
,
0100
0001
0100
0010
1000
0000
0100
0000
0010
0001
0010
0100
1000
0000
0001
0000
,
1000
0010
1000
0001
0100
0000
0010
0000
1000
0100
1000
0001
MM10
0000
0100
0000
,
1000
0001
0100
0010
1000
0000
0100
0000
0010
0001
1000
0010
0100
0000
0001
0000
,
0010
0100
1000
0001
0100
0000
0001
0000
1000
0100
0010
0001
1000
0000
0010
0000
,
0100
0001
0100
0010
1000
0000
0100
0000
0010
0001
0010
0100
1000
0000
0001
0000
,
1000
0100
0010
0001
0010
0000
0100
0000
1000
0001
0100
0010
1M00
0001
1000
0000
,
0010
0100
0001
0000
1000
0100
0010
0000
0001
0100
0010
0000
1000
0100
0010
0000
,
0001
0010
0100
0000
1000
0001
1000
0000
0010
0100
0010
0000
0001
0100
0001
0000
,
1000
0010
0100
0000
0001
0100
0010
0000
1000
0001
0100
0000
0001
1000
0010
0000
,
1000
0100
0010
0000
1000
0001
0100
0000
0010
1000
0001
0000
MM01
0010
0100
0000
,
1000
0001
0100
0000
0010
1000
0100
0000
0010
0001
0100
0000
1000
0010
0100
0000
,
0001
1000
0001
0000
0100
0010
1000
0000
0001
0100
0010
0000
1000
0100
0010
0000
,
0001
0100
0010
0000
1000
0001
0100
0000
0010
1000
0001
0000
1010
0000
0001
0000
,
0110
0100
1001
0010
1100
0001
1M1M
0100
,
0001
0010
0100
1000
0010
0000
1000
0000
0011
0000
0001
0000
0110
0000
0100
0000
,
1001
1000
0011
1000
0110
0010
1001
0100
,
1000
0010
1000
0001
0100
0000
0010
0000
1001
0000
0010
0000
0101
0000
1000
0000
,
0011
0100
1010
0001
1100
0010
1001
0100
,
0010
0100
0001
1000
0100
0000
0001
0000
1010
0000
0100
0000
0101
0000
0010
0000
,
1100
0001
0110
1000
0011
0001
1100
0010
,
0001
0010
0100
1000
0001
0000
0010
0000
1001
0000
0100
0000
0110
0000
0001
0000
,
1100
1000
0011
1000
0110
0010
1MM1
0100
,
0010
0100
0001
1000
0100
0000
0001
0000
1100
0000
0100
0000
0011
0000
1000
0000
,
0101
0100
1010
0001
0110
1000
0011
0100
,
1000
0100
0010
0001
0010
0000
0100
0000
1001
0000
0100
0000
1010
0000
0001
0000
,
0101
1000
0011
0001
1100
0010
1MM1
0100
,
0010
0001
0100
0010
1000
0000
0010
0000
1001
0000
1000
0000
0110
0000
1000
0000
,
0011
0001
1100
0001
0110
1000
1001
0100
,
0001
0010
0100
1000
0010
0000
1000
0000
0011
0000
1000
0000
0110
0000
0001
0000
,
1010
0100
0011
1000
0110
0010
1MM1
0100
,
1000
0010
1000
0001
0100
0000
0010
0000
1001
0000
0010
0000
0101
0000
1000
0000
,
0011
0100
1010
0001
1100
0010
1001
0100
,
0010
0100
0001
1000
0100
0000
0001
0000
1010
0000
0100
0000
0101
0000
0010
0000
,
1100
0000
0001
0000
0110
0000
1000
0000
0011
0000
0100
0000
1000
0100
0010
0000
,
0001
0000
0010
0100
0000
0100
1000
0000
0001
1000
0010
0000
1000
0001
0100
0000
,
0010
0000
1000
0100
0000
0100
0010
0000
0001
1000
0001
0000
0100
0010
1000
0000
,
0001
0000
1000
0001
0000
0001
1000
0000
0010
0100
0001
0000
0010
0100
1000
0001
,
0100
0000
0000
0010
0000
0000
1000
0000
0000
0010
0000
0000
0100
0000
0001
0000
0100
0000
0010
0000
1000
0000
0100
0000
0010
0000
0001
0000
1000
0000
0001
0000
0100
0000
0010
0000
2000
0000
0000
0000
0000
0000
0000
0000
0000
0000
0000
0000
,
3000
M000
M000
M000
M000
M000
M000
M000
M000
M000
M000
M000
M000
M000
M000
M000
,
M000
M000
M000
M000
M000
M000
M000
M000
M000
M000
M000
M000
M000
M000
M000
M000
,
M000
M000
M000
M000
M000
M000
M000
M000
M000
M000
M000
M000
M000
M000
M000
M000
,
M000
0000
0000
0000
0000
0000
0000
0000
0000
0000
0000
0000
1000
0100
0010
0001
,
1000
0010
0100
0001
0100
0010
1000
0001
0100
0000
000M
M000
00M0
0000
0M00
000M
,
M000
0000
00M0
M000
000M
0000
0000
0000
0000
0000
0000
0000
0010
0100
0001
0100
,
0010
1000
0001
0100
0001
1000
0100
0010
0002
0000
0000
0000
0000
0000
0000
0000
,
0000
0000
0000
0000
0000
0000
0000
0000
0000
0000
0000
0000
1003
0100
0010
0001
,
0010
0100
1000
0001
0010
0100
1000
0100
0010
0000
000M
M000
00M0
0000
0M00
000M
,
M000
0000
00M0
M000
000M
0000
0000
0000
0000
0000
0000
0000
1000
0100
1000
0001
,
0100
0001
0010
0100
1000
0010
0100
0001
0010
0000
000M
M000
00M0
0000
0M00
000M
,
M000
0000
00M0
M000
000M
0000
0000
0000
0000
0000
0000
0000
1000
0001
1000
0001
,
0010
0001
0100
0001
0100
0001
0100
0001
0100
0001
1000
0010
1000
0010
1000
0010
,
0100
0001
0100
0001
0100
0010
1000
0100
0010
0001
0100
0010
0100
0010
0100
0010
,
1000
0001
1000
0001
1000
0001
1000
0001
1000
0001
0100
0010
0100
0010
0100
0010
,
1000
0001
1000
0001
1000
0001
1000
0100
0010
0001
1000
0010
1000
0010
1000
0010
,
1000
0001
1000
0001
1000
0001
1000
0001
1000
0001
0010
0100
0010
0100
0010
0100
,
0001
1000
0001
1000
0001
1000
0001
0100
0010
1000
0001
0100
0001
0100
0001
0100
,
0001
1000
0010
1000
0010
1000
0010
1000
0010
1000
0001
0010
0001
0010
0001
0010
,
0001
1000
0001
1000
0001
1000
0100
0010
0001
0100
0010
1000
0010
1000
0010
1000
,
0001
0100
0001
0100
0001
0100
0001
0100
0001
0100
0001
1000
0001
1000
0001
1000
,
0010
0100
0010
0100
0010
1000
0100
0010
0001
0010
0100
1000
0100
1000
0100
1000
,
0001
0010
0001
0010
0001
0010
0001
0010
0001
0010
0100
1000
0100
1000
0100
1000
,
0001
0100
0001
0100
0001
0100
0010
1000
0010
0100
0001
0010
1M00
0001
1000
0001
,
0010
0001
0100
0001
0100
0001
0100
0001
0100
0001
1000
0010
1000
0010
1000
0010
,
0100
0001
0100
0001
0100
0010
1000
0100
0010
0001
0100
0010
M10M
0010
0100
0010
,
1000
0001
1000
0001
1MM0
0001
1000
0001
1000
0001
0100
0010
M10M
0010
0100
0010
,
1M00
0001
1000
0001
1MM0
0001
1000
0100
M010
0001
1000
0010
1000
0000
00M0
0M00
,
100M
0000
0M00
00M0
100M
0000
0M00
000M
10M0
0000
0M00
00M0
1002
0000
0000
0000
,
1000
0000
0000
0000
1000
0000
1000
0000
1000
0000
1000
0000
1003
0100
0010
0001
,
0100
0010
1000
0001
0100
0001
1000
0100
0010
0001
0010
0100
1000
0010
1000
0001
,
0100
0010
1000
0001
0100
0001
0010
0100
1000
0001
0010
0001
0100
0010
1000
0100
,
0010
0001
0100
0010
1000
0001
0100
0001
1000
0001
0010
0100
1000
0100
0010
0001
,
1000
0010
0100
0001
0010
0001
0100
0010
1000
0100
1000
0001
1000
0010
0100
0010
,
1000
0001
0010
0001
0100
0010
1000
0100
0010
0001
0100
0001
1000
0010
1000
0100
,
0010
0001
0100
0010
1000
0001
0010
0001
0100
0010
1000
0100
0010
0001
0100
0010
,
1000
0010
0100
0001
0010
0100
1000
0100
0010
0001
1000
0001
0010
0001
1000
0010
,
0100
0001
0010
0100
1000
0010
1000
0001
0010
0100
1000
0010
0100
0001
0010
0001
,
0100
0010
1000
0001
1000
0010
0100
0001
1000
0100
0010
0001
0100
0010
1000
0100
,
0001
0100
1000
0010
0001
0010
1000
0001
0010
0100
1000
0010
0100
0001
1000
0010
,
0100
0001
0010
0100
1000
0010
0100
0001
0010
0001
0100
0010
1000
0001
0010
0100
,
1000
0100
0010
0001
0100
0001
0010
0100
1000
0010
0100
0001
1000
0100
0010
0001
,
1000
0010
0100
0001
0010
0100
1000
0010
1000
0100
0010
0001
0100
0001
0010
0100
,
1000
0010
0100
0001
1000
0100
0010
0001
1000
0001
0100
0001
0010
0100
1000
0010
,
0100
0001
0010
0001
0100
0010
1000
0100
1000
0001
0100
0001
0010
0100
1000
0010
,
1000
0100
0010
0001
0010
0100
1000
0001
0100
0001
1000
0010
1000
0001
0100
0001
,
0010
0100
1000
0010
0100
0001
1000
0010
1000
0100
1000
0001
1000
0001
0010
0100
,
1000
0010
1000
0100
0010
0001
0100
0001
1000
0010
0100
0001
0010
0100
1000
0010
,
0100
0001
1000
0010
0100
0010
1000
0001
0100
0010
0100
0001
1000
0100
0010
0001
,
1000
0010
0100
0010
1000
0100
1000
0001
0010
0100
1000
0010
1000
0001
0010
0100
,
1000
0010
0100
0001
0100
0010
1000
0100
0010
0001
0100
0010
1000
0100
1000
0001
,
0010
0001
1000
0010
1000
0001
0100
0001
0010
0100
1000
0010
0100
0001
1000
0010
,
0100
0010
1000
0001
1000
0100
0010
0001
0010
0100
1000
0010
0100
0001
0100
0010
,
1000
0010
0100
0001
0010
0100
1000
0010
0100
0010
1000
0001
1000
0100
0010
0001
,
0100
0010
1000
0001
0100
0001
1000
0100
0010
0001
0010
0100
1000
0010
1000
0001
,
0100
0010
1000
0001
0100
0001
0010
0100
1000
0001
0010
0001
0100
0010
1000
0100
,
0010
0001
0100
0010
1000
0001
0100
0001
1000
0001
0010
0100
1000
0100
0010
0001
,
1000
0010
0100
0001
0010
0001
0100
0010
1000
0100
1000
0001
1000
0010
0100
0010
,
1000
0001
0010
0001
0100
0010
1000
0100
0010
0001
0100
0001
1000
0010
1000
0100
,
0010
0001
0100
0010
1000
0001
0010
0001
0100
0010
1000
0100
0010
0001
0100
0010
,
1000
0010
0100
0001
0010
0100
1000
0100
0010
0001
1000
0001
0010
0001
1000
0010
,
0100
0001
0010
0100
1000
0010
1000
0001
0010
0100
1000
0010
0100
0001
0010
0001
,
0100
0010
1000
0001
1000
0010
0100
0001
1000
0100
0010
0001
0100
0010
1000
0100
,
0001
0100
1000
0010
0001
0010
1000
0001
0010
0100
1000
0010
0100
0001
1000
0010
,
0100
0001
0010
0100
1000
0010
0100
0001
0010
0001
0100
0010
1000
0001
0010
0100
,
1000
0100
0010
0001
0100
0001
0010
0100
1000
0010
0100
0001
1000
0100
0010
0001
,
1000
0010
0100
0001
0010
0100
1000
0010
1000
0100
0010
0001
0100
0001
0010
0100
,
1000
0010
0100
0001
1000
0100
0010
0001
1000
0001
0100
0001
0010
0100
1000
0010
,
0100
0001
0010
0001
0100
0010
1000
0100
1000
0001
0100
0001
0010
0100
1000
0010
,
1000
0100
0010
0001
0010
0100
1000
0001
0100
0001
1000
0010
1000
0001
0100
0001
,
0010
0100
1000
0010
0100
0001
1000
0010
1000
0100
1000
0001
1000
0001
0010
0100
,
1000
0010
1000
0100
0010
0001
0100
0001
1000
0010
0100
0001
0010
0100
1000
0010
,
0100
0001
1000
0010
0100
0010
1000
0001
0100
0010
0100
0001
1000
0100
0010
0001
,
1000
0010
0100
0010
1000
0100
1000
0001
0010
0100
1000
0010
1000
0001
0010
0100
,
1000
0010
0100
0001
0100
0010
1000
0100
0010
0001
0100
0010
1000
0100
1000
0001
,
0010
0001
1000
0010
1000
0001
0100
0001
0010
0100
1000
0010
0100
0001
1000
0010
,
0100
0010
1000
0001
1000
0100
0010
0001
0010
0100
1000
0010
0100
0001
0100
0010
,
1000
0010
0100
0001
0010
0100
1000
0010
0100
0001
1000
0010
1000
0100
0010
0001
,
0100
0010
1000
0001
0100
0001
1000
0100
0010
0001
0010
0100
1000
0010
1000
0001
,
0100
0010
1000
0001
0100
0001
0010
0100
1000
0001
0010
0001
0100
0010
1000
0100
,
0010
0001
0100
0010
1000
0001
0100
0001
1000
0001
0010
0100
1000
0100
0010
0001
,
1000
0010
0100
0001
0010
0001
0100
0010
1000
0100
1000
0001
1M00
0010
0100
0010
,
1000
0001
0010
0001
0100
0010
1000
0100
0010
0001
0100
0001
1000
0010
1000
0100
,
0010
0001
0100
0010
1000
0001
0010
0001
0100
0010
1000
0100
0010
0001
0100
0010
,
1000
0010
0100
0001
0010
0100
1000
0100
0010
0001
1000
0001
0010
0001
1000
0010
,
0100
0001
0010
0100
1000
0010
1000
0001
0010
0100
1000
0010
0100
0001
0010
0001
,
0100
0010
1000
0001
1000
0010
0100
0001
1000
0100
0010
0001
0100
0010
1000
0100
,
0001
0100
1000
0010
0001
0010
1000
0001
0010
0100
1000
0010
0100
0001
1000
0010
,
0100
0001
0010
0100
1000
0010
0100
0001
0010
0001
0100
0010
1000
0001
0010
0100
,
1000
0100
0010
0001
0100
0001
0010
0100
1000
0010
0100
0001
10M0
0100
0010
0001
,
1000
0010
0100
0001
0010
0100
1000
0010
1000
0100
0010
0001
0100
0001
0010
0100
,
1000
0010
0100
0001
1000
0100
0010
0001
1000
0001
0100
0001
0010
0100
1000
0010
,
0100
0001
0010
0001
0100
0010
1000
0100
1000
0001
0100
0001
0010
0100
1000
0010
,
1000
0100
0010
0001
0010
0100
1000
0001
0100
0001
1000
0010
1000
0001
0100
0001
,
0010
0100
1000
0010
0100
0001
1000
0010
1000
0100
1000
0001
1000
0001
0010
0100
,
1000
0010
1000
0100
0010
0001
0100
0001
1000
0010
0100
0001
0010
0100
1000
0010
,
0100
0001
1000
0010
0100
0010
1000
0001
0100
0010
0100
0001
1000
0100
0010
0001
,
1000
0010
0100
0010
1000
0100
1000
0001
0010
0100
1000
0010
1000
0001
1000
0001
,
0010
0001
0100
0001
0100
0001
0100
0001
0100
0001
1000
0010
1000
0010
1000
0010
,
0100
0001
0100
0001
0100
0010
1000
0010
1000
0010
1000
0010
1000
0100
0010
0001
,
0100
0010
1000
0001
0100
0001
1000
0100
0010
0001
0010
0100
1000
0010
1000
0001
,
0100
0010
1000
0001
0100
0001
0010
0100
1000
0001
0010
0001
0100
0010
1000
0100
,
0010
0001
0100
0010
1000
0001
0100
0001
1000
0001
0010
0100
1000
0100
0010
0001
,
1000
0010
0100
0001
0010
0001
0100
0010
1000
0100
1000
0001
1000
0010
0100
0010
,
1000
0001
0010
0001
0100
0010
1000
0100
0010
0001
0100
0001
1000
0010
1000
0100
,
0010
0001
0100
0010
1000
0001
0010
0001
0100
0010
1000
0100
0010
0001
0100
0010
,
1000
0010
0100
0001
0010
0100
1000
0100
0010
0001
1000
0001
0010
0001
1000
0010
,
0100
0001
0010
0100
1000
0010
1000
0001
0010
0100
1000
0010
0100
0001
0010
0001
,
0100
0010
1000
0001
1000
0010
0100
0001
1000
0100
0010
0001
0100
0010
1000
0001
,
0100
0010
1000
0001
0100
0001
1000
0100
0010
0001
0010
0100
1000
0010
1000
0001
,
0100
0010
1000
0001
0100
0001
0010
0100
1000
0001
0010
0001
0100
0010
1000
0100
,
0010
0001
0100
0010
1000
0001
0100
0001
1000
0001
0010
0100
1000
0100
0010
0001
,
1000
0010
0100
0001
0010
0001
0100
0010
1000
0100
1000
0001
1000
0010
0100
0010
,
1000
0001
0010
0001
0100
0010
1000
0100
0010
0001
0100
0001
1000
0010
1000
0100
,
0010
0001
0100
0010
1000
0001
0010
0001
0100
0010
1000
0100
0010
0001
0100
0010
,
1000
0010
0100
0001
0010
0100
1000
0100
0010
0001
1000
0001
0010
0001
1000
0010
,
0100
0001
0010
0100
1000
0010
1000
0001
0010
0100
1000
0010
0100
0001
0010
0001
,
0100
0010
1000
0001
1000
0010
0100
0001
1000
0100
0010
0001
1000
0100
0010
0001
,
0100
0010
1000
0001
0100
0001
1000
0100
0010
0001
0010
0100
1000
0010
1000
0001
,
0100
0010
1000
0001
0100
0001
0010
0100
1000
0001
0010
0001
0100
0010
1000
0100
,
0010
0001
0100
0010
1000
0001
0100
0001
1000
0001
0010
0100
1000
0100
0010
0001
,
1000
0010
0100
0001
0010
0001
0100
0010
1000
0100
1000
0001
1000
0010
0100
0010
,
1000
0001
0010
0001
0100
0010
1000
0100
0010
0001
0100
0001
1000
0010
1000
0100
,
0010
0001
0100
0010
1000
0001
0010
0001
0100
0010
1000
0100
0010
0001
0100
0010
,
1000
0010
0100
0001
0010
0100
1000
0100
0010
0001
1000
0001
0010
0001
1000
0010
,
0100
0001
0010
0100
1000
0010
1000
0001
0010
0100
1000
0010
0100
0001
0010
0001
,
0100
0010
1000
0001
1000
0010
0100
0001
1000
0100
0010
0001
0100
0010
1000
0001
,
0100
0010
1000
0001
0100
0001
1000
0100
0010
0001
0010
0100
1000
0010
1000
0001
,
0100
0010
1000
0001
0100
0001
0010
0100
1000
0001
0010
0001
0100
0010
1000
0100
,
0010
0001
0100
0010
1000
0001
0100
0001
1000
0001
0010
0100
1000
0100
0010
0001
,
1000
0010
0100
0001
0010
0001
0100
0010
1000
0100
1000
0001
1000
0010
0100
0010
,
1000
0000
0000
0001
0000
0000
0010
0000
0000
0001
0000
0000
0010
0000
0100
0000
1000
0000
0001
0000
0100
0000
0001
0000
1000
0000
0010
0000
1000
0000
0001
0000
0100
0000
0010
0000
1M0M
0000
0000
0000
0000
0000
0100
0000
0000
0000
0000
0000
,
0001
0010
0100
1000
0010
0000
1000
0000
0011
0000
0001
0000
0110
0000
0100
0000
,
1001
1000
0011
1000
0110
0010
1001
0100
,
1000
0010
1000
0001
0100
0000
0010
0000
1001
0000
0010
0000
0101
0000
1000
0000
,
0011
0100
1010
0001
1100
0010
10M1
0100
,
0010
0100
0001
1000
0100
0000
0001
0000
1010
0000
0100
0000
0101
0000
0010
0000
,
1100
0001
0110
1000
0011
0001
1100
0010
,
0001
0010
0100
1000
0001
0000
0010
0000
1001
0000
0100
0000
0110
0000
0001
0000
,
1100
1000
0011
1000
0110
0010
1M01
0100
,
0011
1000
0110
0001
1100
0100
0011
1000
,
0101
0100
1010
0001
0110
1000
0011
0100
,
1001
0010
0110
1000
0011
1000
0110
0010
,
1001
0100
1010
0010
0101
0001
1M10
1000
,
0011
1000
0110
0010
1001
0010
1100
0001
,
1010
0100
1001
0001
0110
0001
1100
1000
,
0011
0100
0110
1000
0011
0100
1001
0010
,
0110
1000
0011
0001
1100
0001
0110
0100
,
1001
0100
0011
1000
0101
0010
1001
0100
,
1010
0001
1100
0010
1001
0100
0110
1000
,
0101
1000
0011
0001
1100
0001
0110
0010
,
1001
0010
0101
1000
0110
0001
1010
0001
,
1100
0100
0011
0100
1010
0010
0101
0001
,
1100
0001
0110
1000
1001
0010
1100
0100
,
0011
1000
0110
0010
1001
0001
0110
0001
,
1100
0100
0011
0010
1001
0010
0101
1000
,
0011
0001
1100
0001
0110
0010
0101
0010
,
1001
1000
0110
1000
0011
0100
1001
0010
,
1100
0001
0110
1000
0011
0100
1001
0100
,
1010
0001
0110
1000
0101
0001
1010
0001
,
0110
0100
1001
1000
0110
0001
0011
1000
,
0110
0100
1001
0100
0011
0001
1100
0001
,
0110
0100
1001
0010
1100
0001
0110
1000
,
0011
0100
1001
0010
0110
0001
M0M0
0000
,
0000
0000
0000
0000
;
