#TITLE:NuclearMagneticResonance;
#SUBTITLE:;
#ARTIST:TASK;
#TITLETRANSLIT:;
#SUBTITLETRANSLIT:;
#ARTISTTRANSLIT:;
#CREDIT:;
#BANNER:NuclearMagneticResonance.png;
#BACKGROUND:NuclearMagneticResonance-bg.png;
#LYRICSPATH:;
#CDTITLE:cdtitle.png;
#MUSIC:NMR.mp3;
#OFFSET:-0.512;
#SAMPLESTART:80.960;
#SAMPLELENGTH:12.000;
#SELECTABLE:YES;
#DISPLAYBPM:*;
#BPMS:0.000=286.000,120.000=143.000,124.000=286.000,182.000=71.499,183.000=143.000,184.000=286.000;
#STOPS:;
#BGCHANGES:;
// cache tags:
#FIRSTBEAT:16.000;
#LASTBEAT:576.000;
#SONGFILENAME:Songs/Japanese Collaboration Mix/NuclearMagneticResonance/NMR.sm;
#HASMUSIC:1;
#HASBANNER:1;
#MUSICLENGTH:128.182;
// end cache tags

//---------------dance-single - ----------------
#NOTES:
     dance-single:
     :
     Challenge:
     12:
     1.000,1.000,0.523,0.039,0.062,1017.000,67.000,5.000,0.000,0.000:
0000
0000
0000
0000
,
0000
0000
0000
0000
,
0000
0000
0000
0000
,
0000
0000
0000
0000
,
1000
0000
0100
0000
0010
0001
0000
0010
,
0001
0000
0100
0000
0010
1000
0000
0010
,
1000
0000
0100
0000
0010
0001
0000
1000
,
0010
1000
0200
0300
,
0010
0011
0001
1001
,
1000
1100
0100
0110
,
0010
0011
0001
1001
,
1000
1001
0001
1001
,
0001
0010
0001
0100
0001
1000
0001
0100
,
0001
0010
0100
1000
0010
0100
0001
0010
,
0001
0100
1000
0001
0010
1000
0100
0010
,
0001
0100
0010
1000
0020
0000
0030
0000
,
1000
0100
1000
0100
1000
0100
1000
0100
,
0010
0001
0010
0001
0010
0001
0010
0001
,
1000
0001
1000
0001
1000
0001
1000
0001
,
0100
0010
0100
0010
0100
0010
0100
0010
,
1000
0100
1000
0100
0010
0001
0010
0001
,
1000
0001
1000
0001
0100
0010
0100
0010
,
1000
0100
0010
0001
1000
0010
0100
0001
,
1000
0100
0001
1000
0010
0001
1000
0001
,
1000
0001
1000
0100
1000
0001
1000
0010
,
1000
0001
0010
0001
1000
0001
0100
0001
,
1000
0100
0010
0100
0001
0100
0010
0100
,
1000
0010
0100
0010
0001
0010
1000
0001
,
1000
0100
1000
0100
1000
0001
0010
0001
,
0010
0001
1000
0001
1000
0100
1000
0010
,
1000
0100
0010
0001
0100
0010
1000
0001
0100
0010
1000
0010
0100
0001
1000
0100
,
0010
0001
0100
1000
0001
0010
0100
0001
,
0010
0100
1000
0010
0100
1000
0001
0010
,
1000
0100
0001
1000
0010
0001
0100
0010
,
1000
0100
0010
0001
1000
0001
1000
0001
,
1000
0100
0001
1000
0010
0100
1000
0010
,
0001
1000
0100
0010
1000
0100
0010
1000
,
0001
0100
1000
0010
0100
0001
1000
0100
,
0010
0001
1000
0001
1000
0001
1000
0001
,
1000
0100
1000
0100
1000
0100
1000
0100
,
0010
0001
0010
0001
0010
0001
0010
0001
,
1000
0100
0010
0100
0001
0100
0010
0100
,
0010
0001
0010
0100
0010
1000
0010
0100
,
0010
0001
0100
0010
1000
0100
0010
0001
,
1000
0100
0001
1000
0010
0001
0100
0010
,
1000
0000
0000
0000
0100
0000
0000
0000
0010
0000
0000
0000
0001
0000
0000
0000
1000
0100
0010
0001
0100
0010
1000
0100
0010
0000
0001
0000
1000
0000
0001
0000
,
1000
0100
1000
0100
1000
0100
1000
0100
,
1000
0100
1000
0100
1000
0100
1000
0100
,
0001
0010
0001
0010
0001
0010
0001
0010
,
0001
0010
0001
0010
0001
0010
0001
0010
,
0100
1000
0100
1000
0100
1000
0100
1000
,
0100
1000
0100
1000
0100
1000
0100
1000
,
0010
0001
0100
0010
1000
0100
0010
0001
,
0100
1000
0100
0001
0010
1000
0010
0001
,
0100
1000
0100
1000
0100
1000
0100
1000
,
0100
1000
0100
1000
0100
1000
0100
1000
,
0100
0001
0100
0001
0100
0001
0100
0001
,
0100
0001
0100
0001
0100
0001
0100
0001
,
1000
0100
0010
0001
1000
0100
0010
0001
,
1000
0001
0100
0010
1000
0001
0100
0010
,
1000
0100
0001
1000
0001
0100
1000
0001
,
0100
0110
2002
3003
,
0001
0010
0001
0010
0001
0010
0001
0010
,
0001
0010
0001
0010
0001
0010
0001
0010
,
0100
1000
0100
1000
0100
1000
0100
1000
,
0100
1000
0100
1000
0100
1000
0100
1000
,
0001
1000
0001
1000
0001
1000
0001
1000
,
0001
1000
0001
1000
0001
1000
0001
1000
,
0010
0100
0010
0100
0010
0100
0010
0100
,
0010
0100
0010
0100
0010
0100
0010
0100
,
0001
0010
0100
1000
0010
0100
0001
1000
,
0100
0001
1000
0010
0001
0100
0010
1000
,
0100
0010
0001
0100
0010
1000
0100
0001
,
0100
1000
0010
0001
0010
1000
0100
0100
,
0001
1000
0100
0001
1000
0010
0001
0100
,
0100
1000
0010
0001
1000
0100
0001
0010
,
0001
0100
0010
1000
0100
0010
0001
0010
,
1000
0001
0100
1000
0010
0100
0001
1000
,
0100
0110
0010
0011
,
0001
1001
1000
1100
,
0100
0110
0010
0011
,
0001
1001
0110
0110
,
0011
0011
1100
1100
,
1010
1010
0101
0101
,
1001
0110
1001
0110
,
1001
0110
1001
0110
,
0100
1000
0100
0001
1000
0100
0010
0001
,
0100
0010
1000
0001
0010
1000
0001
0100
,
1000
0010
0100
0100
1000
0001
0100
0010
,
1000
0100
0001
1000
0010
0100
1000
0010
,
0100
0001
0010
0100
1000
0001
0100
0100
,
1000
0001
0010
0100
1000
0010
0100
0001
,
0010
1000
0010
0001
1000
0010
0100
0001
,
0010
0100
1000
0100
0001
0000
1001
0000
,
0001
0100
0100
1000
0001
0010
0010
1000
,
0001
0010
0100
1000
0010
1000
0001
0100
,
0001
0010
0100
0001
1000
0010
0100
1000
,
0010
0100
1000
0001
0010
1000
0100
0001
,
0100
0010
0001
0100
0001
0100
1000
0001
,
0010
0100
0001
0010
0100
1000
0010
0100
,
0001
0010
1000
0001
0100
1000
0010
0001
,
1000
0001
0010
1000
0100
0010
0001
0100
,
0010
1000
0100
0001
1000
0010
0001
0100
,
0010
0001
1000
0100
0001
0010
0001
0100
,
0100
1000
0010
0100
1000
0001
0010
0100
,
0001
0010
0100
1000
0001
0010
1000
0001
,
0100
1000
0010
0100
0001
0010
0100
1000
,
0010
0100
0001
1000
0100
0010
0001
0100
,
0001
0100
1000
0001
1000
0100
0001
0010
,
0001
0100
0010
1000
0100
0001
1000
0010
,
0001
0100
0010
1000
0010
0100
0001
0010
,
0010
1000
0100
0010
0001
0100
1000
0100
,
0010
1000
0100
0010
0001
0010
0100
0001
,
1000
0010
0100
1000
0010
0100
0001
0010
,
0100
1000
0010
0100
0001
0010
0100
1000
,
0010
0001
1000
0100
0001
1000
0100
0010
,
0100
0001
0100
0010
0100
1000
0001
0010
,
0001
1000
0001
0100
0001
1000
0001
0010
,
0001
0100
0010
0100
1000
0100
0010
0100
,
0001
0100
0010
1000
0100
0010
0001
0010
,
0100
1000
0010
0001
1000
0100
0001
1000
,
0010
0010
0001
0100
0010
1000
0100
0001
,
0100
0010
0001
0100
0010
1000
0100
0010
,
0001
0100
1000
0100
0010
1000
0100
0010
,
0001
0010
0100
1000
0010
0100
1000
0001
,
0010
0100
0001
0010
0100
1000
0010
0100
,
0010
0011
1001
1001
,
1100
1100
0011
0011
,
1001
1001
0110
0110
,
0011
0011
0110
0110
,
1100
1100
1001
1001
,
0011
0011
1100
1100
,
0110
0110
1001
1001
,
0011
0110
1100
1001
,
0001
0010
0100
1000
0010
0001
1000
0100
,
0001
0010
0100
1000
0010
0100
0001
1000
,
0100
0001
1000
0010
0001
0100
0100
1000
,
0010
0010
0001
0100
0010
0010
0001
0100
,
1000
0001
0010
0100
0001
0010
0100
1000
,
1000
0010
0001
0001
0100
1000
0010
0100
,
0001
0010
0010
1000
0100
0010
0001
0100
,
1000
0001
0010
1000
0100
0010
0100
0010
,
0200
0000
0000
0000
,
0000
0000
0000
0000
,
0300
0000
0000
0000
;
