#TITLE:CROSS†SOUL;
#SUBTITLE:;
#ARTIST:HyuN feat. Syepias;
#TITLETRANSLIT:;
#SUBTITLETRANSLIT:;
#ARTISTTRANSLIT:;
#CREDIT:Owem;
#BANNER:../banner.png;
#BACKGROUND:../bg.png;
#LYRICSPATH:;
#CDTITLE:../cdtitleowem.png;
#MUSIC:HyuN feat. Syepias - CROSSSOUL.ogg;
#OFFSET:1.382;
#SAMPLESTART:71.258;
#SAMPLELENGTH:29.999;
#SELECTABLE:YES;
#DISPLAYBPM:200.000;
#BPMS:0.000=200.000,8.000=50.000,16.000=100.000,18.000=200.000,414.000=100.000;
#STOPS:;
#BGCHANGES:;
// cache tags:
#FIRSTBEAT:8.000;
#LASTBEAT:422.833;
#SONGFILENAME:Songs/Owem's Simfiles 08 1.1/CROSSSOUL - [Owem] v1.0.3/CROSSSOUL.sm;
#HASMUSIC:1;
#HASBANNER:1;
#MUSICLENGTH:139.885;
// end cache tags

//---------------dance-single - 16 (Owem)----------------
#NOTES:
     dance-single:
     16 (Owem):
     Challenge:
     16:
     1.000,1.000,0.429,0.515,1.000,1263.000,60.000,72.000,87.000,0.000:
0000
0000
0000
0000
,
0000
0000
0000
0000
,
1MM1
1000
0000
0000
0010
0010
0000
0000
0100
0100
0000
0000
0001
0001
0000
0000
,
1000
1000
0000
0000
0100
0100
0000
0000
0010
0010
0000
0000
0001
0001
0000
0000
,
1000
0000
0000
0000
1000
0000
0010
0000
0100
0000
0000
0000
0001
1000
0001
1000
0010
0000
0000
0000
0100
0000
0001
0000
0000
0000
1000
0000
0001
0000
0000
0000
,
0020
0000
0030
0000
0100
1000
0001
0000
11MM
0000
0100
0000
0000
0000
0010
0000
,
0011
0000
0000
0000
0000
0000
0001
0000
0000
0000
0000
0000
2000
0000
0000
3000
0000
0000
0010
0000
0000
0000
0000
0000
M11M
0000
0000
0000
0000
0000
0100
0000
0000
0000
0000
0000
0001
0000
0000
0000
1000
0000
0000
0000
0001
0000
0000
0000
,
2000
0000
0000
3000
0000
0000
0100
0000
0000
0000
0000
0000
M11M
0000
0000
0000
0000
0000
0010
0000
0000
0000
0000
0000
MM01
0000
0000
0000
0010
0000
0000
0000
0001
0000
0000
0000
0100
0000
0000
0010
0000
0000
1000
0000
0000
0010
0000
0000
,
0100
0000
0000
0000
0000
0000
0000
0000
0000
0000
0001
0000
0000
0000
0000
0000
0000
0000
0000
1000
0000
0000
0000
0000
0000
0000
0000
0000
0000
0001
0000
0000
0000
0000
0000
0000
0000
0000
0010
0000
0000
0000
0000
0000
0000
0000
0000
0000
0100
0000
0000
0000
0000
0000
0000
0000
1000
0000
0000
0000
0000
0000
0000
0000
0010
0000
0000
0000
0000
0000
0000
0000
1000
0000
0000
0000
0000
0000
0000
0000
0010
0000
0000
0000
0000
0000
0000
0000
0100
0000
0000
0000
0000
0000
0000
0000
M002
0000
0000
0000
0000
0000
0000
0000
0000
0000
0000
0000
0000
0000
0000
0000
0000
0000
0000
0000
0000
0000
0000
0000
0203
0000
0000
0000
0000
0000
0000
0000
0000
0000
0000
0000
0000
0000
0000
0000
0000
0000
0000
0000
0000
0000
0000
0000
0310
0000
0000
0000
0000
0000
0000
0000
0000
0000
0000
0000
0000
0000
0000
0000
1000
0000
0000
0000
0000
0000
0000
0000
000M
0000
0000
0000
0000
0000
0000
0000
0010
0000
0000
0000
0000
0000
0000
0000
0000
0000
0000
0000
0000
0000
0000
0000
,
1000
0000
0000
0000
0001
0000
0000
0000
1000
0000
0000
0000
0040
0000
0000
0000
0000
0000
0000
0000
0000
0000
0000
0000
0230
0000
0000
0000
0000
0000
0002
0000
0000
0300
0000
0000
2000
0000
0000
0003
0000
0000
0040
0000
0000
3000
0000
0000
,
0230
0000
0000
0000
0001
0000
0000
0000
0310
1000
0010
1000
0001
0100
0010
0100
,
0004
0000
4000
0003
0010
3100
0010
0100
0010
0000
0100
0000
0002
0000
0200
0003
,
0320
0000
1000
0000
0000
0000
1030
0000
0001
0100
0010
1000
0001
1000
0010
0100
,
0020
0000
0230
0000
0302
0000
0000
0003
1001
0000
1020
0000
0130
0000
0001
0000
,
0101
0000
0000
0000
0000
0000
0200
0000
0000
0000
0000
0000
0340
0000
0000
0000
0000
0000
0000
0000
0000
0030
0000
0000
2000
0000
0000
0000
0000
0000
0000
0000
0000
3000
0000
0000
0001
0000
0000
0000
0010
0000
0000
0000
0001
0000
0000
0000
,
0200
0000
0320
0000
4030
0000
0000
0000
3002
0000
0003
0000
0020
0030
0200
0300
,
4000
0000
0000
0000
0000
0000
0000
0000
0000
0000
0000
0000
3004
0000
0000
0000
0000
0000
0000
0000
0000
0000
0000
0000
0103
0000
0000
0020
0000
0000
0000
0000
0000
0000
0000
0000
0000
0000
0000
0000
0000
0000
0030
0000
0000
0000
0000
0000
4000
0000
0000
0000
0000
0000
0000
0000
0000
0000
0000
0000
0000
0000
0000
0000
0000
0000
3000
0000
0000
0000
0000
0000
0001
0000
0000
0000
0000
0000
0000
0000
0100
0000
0000
0000
0000
0000
0000
0000
0010
0000
0000
0000
0000
0000
0000
0000
,
1000
0000
0000
0000
0001
0000
0000
0000
1000
0000
0000
0000
0200
0000
0000
0000
0000
0000
0310
0000
0000
0001
0000
0000
4000
0000
0000
0000
0000
0000
0000
0000
0000
3000
0000
0000
0010
0000
0000
0000
0100
0000
0000
0000
0001
0000
0000
0000
,
1000
0000
0000
0100
0000
0000
1000
0000
0000
0010
0000
0000
0100
0000
0000
0001
0000
0000
1000
0000
0000
0001
0000
0000
0010
0000
0000
0000
0100
0000
0000
0000
1000
0000
0000
0000
0001
0000
0000
0000
1000
0000
0000
0000
0010
0000
0000
0000
,
0100
0000
0000
0000
0010
0000
0000
0000
1000
0000
0000
0000
0001
0000
0000
0100
0000
0000
0001
0000
0000
1000
0000
0000
0100
0000
0000
0010
0000
0000
0001
0000
0000
1000
0000
0000
0001
0000
0000
0100
0000
0000
0010
0000
0000
1000
0000
0000
,
0001
0100
0010
0100
0001
1000
0010
0000
M11M
0000
0000
M1M1
0000
0000
1MM1
0000
,
11MM
0000
0000
0000
0000
0000
0100
0000
0000
0010
0000
0000
0001
0000
0000
0000
0000
0000
1000
0000
0001
0000
1000
0000
00M1
0000
0000
0100
0000
0000
0010
0000
0000
1000
0000
0000
0001
0000
0000
0100
0000
0000
0010
0000
0000
0100
0000
0000
,
0001
1000
0100
0010
0001
1000
0100
1000
0010
0100
0001
1000
0001
0100
0010
0100
,
0001
1000
0100
0010
0100
1000
0001
0010
0001
0100
0010
1000
0001
0100
0010
0100
,
0001
1000
0100
0010
0100
1000
0001
0100
0001
1000
0100
1000
0001
0100
0010
1000
,
0001
0100
0010
1000
0001
0010
0001
0100
0010
1000
0001
0100
0010
0100
0001
1000
,
0100
1000
0010
1000
0001
1000
0100
0010
0001
1000
0100
1000
0010
0100
0001
1000
,
0001
0100
0010
1000
0001
0010
0001
0100
0010
1000
0001
1000
0100
0010
0001
1000
,
0100
1000
0010
0100
0001
1000
0001
0100
0010
1000
0001
0100
0001
1000
0100
0010
,
0001
1000
0010
0100
0001
1000
0001
1000
010M
0010
0001
1000
0100
1000
0010
0100
,
0001
1000
0010
1000
0001
0100
0010
1000
0100
1000
0001
0010
0100
1000
0001
1000
,
0010
0100
0001
1000
0010
1000
0100
0010
0001
1000
0010
1000
0100
0010
0001
1000
,
0010
0100
0001
1000
0001
0100
0010
1000
0001
0100
0001
0010
0100
1000
0001
0100
,
0001
1000
0100
0010
0100
1000
0001
0010
0001
1000
0100
1000
0001
0100
0001
1000
,
0010
0100
0001
0100
0010
1000
0001
1000
0100
0010
0100
1000
0001
0010
0001
1000
,
0001
0100
0010
1000
0001
1000
0100
0010
0001
1000
0100
1000
0001
0100
0010
1000
,
0100
1000
0001
0100
0010
0000
1000
0001
0100
0000
0010
0000
0100
0000
0001
0000
,
1000
0100
0010
0001
0100
0001
1000
0010
M200
0000
0301
0000
1000
0000
0100
0000
,
M010
0001
1000
0001
M1M2
0103
0010
1M4M
,
1030
0001
MM11
0010
M11M
0200
1300
0001
,
1M01
1000
0200
0310
MM21
0031
1000
4M1M
,
3010
0100
M1M1
0001
1MM2
1003
0200
0310
,
0M11
0000
0001
0000
1000
0000
0100
0000
M21M
0000
0310
0001
1000
0000
0010
0000
,
M12M
0000
0130
0000
M1M1
0000
0001
1000
0020
0000
0130
0000
0001
0000
1000
0000
,
11MM
0000
0100
0000
0040
0030
MM11
0000
1MM1
0000
4000
0000
3010
0000
M11M
0000
,
0400
0300
0001
0000
1MM1
0000
1000
0000
11MM
0000
0100
0000
0010
0000
0001
0000
,
1M01
0000
1000
0000
0010
0000
0100
0000
M4M1
0300
0001
0000
1000
0000
11MM
0000
,
020M
0310
MM11
0001
1MM2
1003
0010
1000
,
110M
0000
0100
0000
0020
0030
0001
0000
M1M2
0000
0103
0000
0010
0000
1MM0
0000
,
1M01
0000
0001
0000
MM11
0000
0010
0100
1000
0000
0001
0000
1000
0000
0010
0000
,
0100
0010
1000
0001
1M02
1003
0100
0010
,
M021
0000
0031
0000
0100
0000
0010
1000
002M
0130
0001
1000
0200
1300
0001
0010
,
0100
1000
0010
0100
0001
1000
0001
0100
0020
0030
0000
1010
0000
0000
1001
0000
,
0101
0000
0000
0000
0000
0000
0100
0000
0000
0010
0000
0000
1000
0000
0000
0000
0000
0000
0001
0000
0100
0000
0001
0000
0100
0000
0000
0010
0000
0000
1000
0000
0000
0001
0000
0000
1000
0000
0000
0100
0000
0000
0010
0000
0000
0001
0000
0000
,
1000
0100
1000
0001
0100
0010
1000
0001
0100
0010
0100
0001
1000
0100
0010
0001
,
1000
0100
1000
0001
0100
0010
1000
0001
0100
0010
0100
0001
1000
0100
0010
0100
,
1000
0001
0100
0001
0010
0100
1000
0001
0010
0001
0100
0001
1000
0010
1000
0001
,
0100
0010
0100
0001
1000
0010
1000
0001
0100
0010
0100
0001
1000
0100
1000
0100
,
0010
0001
1000
0100
0010
0100
1000
0001
0010
0001
0100
0010
1000
0001
0100
0010
,
1000
0010
0100
0001
0100
0010
1000
0001
0100
0010
0100
0001
0100
0010
1000
0010
,
1000
0001
0100
0001
0010
0100
1000
0100
0010
0001
1000
0001
0100
0010
1000
0001
,
0100
0000
0000
0000
0000
0000
0010
0000
1000
0000
0010
0000
1000
0000
0000
0000
0000
0000
0001
0000
1000
0000
0001
0000
1000
0000
0000
0100
0000
0000
0010
0000
0000
0001
0000
0000
1000
0000
0000
0001
0000
0000
0100
0000
0000
0010
0000
0000
,
0100
0001
1000
0100
0010
0100
1000
0001
0010
0001
0100
0010
1000
0001
0100
0001
,
1000
0100
0010
0100
1000
0001
0010
0001
0100
0001
1000
0100
0010
0100
1000
0001
,
0100
0010
1000
0001
0100
0010
0100
0001
1000
0010
1000
0100
0010
0001
1000
0100
,
1000
0001
1000
0010
0100
0010
1000
0001
0100
0001
0010
0100
1000
0001
0010
0001
,
1000
0100
1000
0001
0100
0001
1000
0010
0100
0001
0100
0010
1000
0001
1000
0100
,
0010
0100
1000
0001
0010
0001
0100
0010
1000
0001
0100
0010
0100
0001
1000
0010
,
1000
0001
0100
0010
0100
0001
1000
0100
0010
0000
0000
0011
0000
0000
1001
0000
,
1010
0000
0000
0000
0000
0000
0010
0000
0100
0000
0010
0000
0100
0000
0000
0000
0000
0000
0001
0000
1000
0000
0001
0000
1000
0000
0000
0000
0000
0000
0000
0000
0000
0000
0000
0000
0100
0000
0000
0000
0000
0010
0000
0000
0000
0000
0001
0000
,
0000
1000
0000
0000
0000
0010
0000
0000
0000
1000
0000
0000
0002
0000
0000
1003
0000
0000
0020
0000
0000
0100
0000
0000
,
0000
0000
0230
0301
1002
0000
1003
0100
,
0010
0000
0000
0001
0000
0000
1000
0000
0000
0001
0000
0000
0100
0000
0000
0010
0000
0000
1000
0000
0000
0001
0000
0000
0010
0000
0000
0000
0100
0000
0000
0000
1000
0000
0000
0000
0001
0000
0000
0000
0100
0000
0000
0000
0001
0000
0000
0000
,
4000
0000
0000
0000
0000
0000
0000
0000
0000
0000
0000
0000
3010
0000
0000
0000
0100
0000
0000
0000
0001
0000
0000
0000
0201
0000
0000
0000
0000
0000
0000
0000
0000
0300
0000
0000
0001
0000
0000
0000
0000
0000
1000
0000
0000
0000
0000
0000
,
0100
0010
0001
1000
0001
0100
0010
1000
0020
0000
0000
0030
0200
0300
0002
0003
,
1000
0100
1000
0010
1000
0001
0100
0010
0100
0001
1000
0010
,
0200
0000
0000
0000
0000
0000
0301
0000
0010
0000
0001
0000
1000
0000
0010
0000
0100
0000
0001
0000
0000
1000
0000
0000
,
0002
0000
0203
0000
0310
0000
1000
0010
0200
0000
0000
0000
0001
0000
0000
0000
,
0301
0000
1000
0000
0001
0000
1000
0000
0100
0000
0010
0000
0002
0000
0000
0000
0000
0000
0000
0000
0000
0103
0000
0000
,
0010
1000
0010
0100
0004
0000
0000
0003
2MM1
0000
0000
0000
3010
0000
0100
0000
,
0001
0000
0000
1000
0000
0000
0001
0000
0000
1000
0000
0000
0100
0000
0000
0010
0000
0000
0100
0000
0000
1000
0000
0000
0001
0000
0000
0000
0100
0000
0000
0000
0010
0000
0000
0000
1000
0000
0000
0000
0001
0000
0000
0000
0100
0000
0000
0000
,
0020
0000
0000
1030
0000
0000
0001
0000
0010
0000
0100
0000
2000
0000
0000
3001
0000
0000
0100
0000
0000
0001
0000
0000
,
0010
0000
0000
0100
0000
0000
1000
0000
0000
0001
0000
0000
1000
0000
0000
0010
0000
0000
0100
0000
0000
0010
0000
0000
1000
0000
0000
0000
0100
0000
0000
0000
0010
0000
0000
0000
0001
0000
0000
0000
1000
0000
0000
0000
0001
0000
0000
0000
,
0200
0000
0310
0000
1000
0000
0001
1000
0001
0000
0010
0000
0200
0000
1300
0000
,
0010
0100
0010
0100
0001
1000
0001
0010
0100
1000
0001
1000
,
0010
0100
0001
0100
0020
0000
0130
0001
1000
0001
0100
0010
1000
0100
0010
0001
,
2000
0000
0000
3000
0000
0000
0020
0000
0000
0030
0000
0000
2000
0000
0000
3000
0000
0000
0020
0000
0000
0030
0000
0000
0200
0000
0000
0300
0000
0000
0002
0000
0000
0003
0000
0000
0200
0000
0000
0300
0000
0000
0020
0000
0000
0030
0000
0000
1000
0000
0000
0000
0000
0000
0000
0000
0001
0000
0000
0000
0000
0000
0000
0000
1000
0000
0000
0000
0000
0000
0000
0000
0100
0000
0000
0000
0000
0000
0000
0000
0010
0000
0000
0000
0000
0000
0000
0000
0001
0000
0000
0000
0000
0000
0000
0000
,
0100
0000
0000
0000
0000
0000
0010
0000
1000
0000
0010
0000
1000
0000
0000
0000
0000
0000
0001
0000
1000
0000
0001
0000
1000
0000
0000
0010
0000
0000
0100
0000
0000
0001
0000
0000
0100
0000
0000
0010
0000
0000
1000
0000
0000
0001
0000
0000
,
1000
0100
0010
0100
1000
0001
0010
0001
0100
0010
1000
0001
0100
0001
1000
0100
,
0010
0100
1000
0001
0010
0001
0100
0010
1000
0001
0100
0010
0100
0001
1000
0100
,
0010
0001
1000
0100
1000
0001
0100
0010
1000
0001
0100
0010
0100
0001
1000
0010
,
1000
0001
1000
0100
0010
0001
1000
0100
1000
0001
0010
0001
0100
0010
1000
0001
,
0100
0010
0100
0001
1000
0100
0010
0100
1000
0001
0010
0001
1000
0100
0010
0001
,
0100
0010
0100
0001
1000
0010
1000
0001
1000
0100
0010
0001
1000
0100
1000
0001
,
0100
0010
0100
0001
0100
0010
1000
0001
1000
0100
0010
0001
1000
0010
0100
0001
,
1000
0000
0000
0000
0000
0000
0010
0000
0100
0000
0010
0000
0100
0000
0000
0000
0000
0000
0001
0000
1000
0000
0001
0000
0100
0000
0000
0010
0000
0000
0100
0000
0000
0001
0000
0000
1000
0000
0000
0010
0000
0000
1000
0000
0000
0100
0000
0000
,
0010
0001
1000
0100
1000
0001
0010
0001
0100
0010
1000
0001
0100
0010
0100
0001
,
1000
0100
0010
0100
1000
0001
0010
0001
0100
0010
1000
0001
0100
0010
0100
0001
,
1000
0001
0100
0010
1000
0001
0100
0001
0010
0100
1000
0100
0010
0001
1000
0100
,
1000
0001
0100
0010
0100
0001
1000
0010
1000
0001
1000
0100
0010
0001
1000
0100
,
1000
0001
0100
0010
1000
0001
0100
0010
0100
0001
1000
0100
1000
0001
0010
0100
,
1000
0001
0010
0001
0100
0010
1000
0001
0100
0010
0100
0001
1000
0010
1000
0001
,
1000
0100
0010
0001
0100
0001
1000
0010
0100
0000
0000
0101
0000
0000
1001
0000
,
1001
0000
0000
1000
0100
0010
0001
0000
0000
1000
0010
0100
0002
0000
0000
0000
0000
0000
0003
0000
0000
0000
0000
0000
,
0000
0000
0000
M000
0000
0000
0000
0000
0000
0000
0000
0000
0000
0000
0000
0000
00M0
0000
0000
0000
0000
0000
0000
0000
,
0000
0000
0000
0M00
0000
0000
0000
0000
0000
0000
0000
0000
0000
0000
0000
0000
0000
000M
0000
0000
0000
0000
0000
0000
;
