#TITLE:Chobits;
#SUBTITLE:- Ningyo Hime;
#ARTIST:Rie Tanaka;
#TITLETRANSLIT:;
#SUBTITLETRANSLIT:;
#ARTISTTRANSLIT:;
#CREDIT:;
#BANNER:Chobits.png;
#BACKGROUND:Chobits-bg.png;
#LYRICSPATH:;
#CDTITLE:TheRedCactuar.png;
#MUSIC:Ningyo Hime.mp3;
#OFFSET:-0.720;
#SAMPLESTART:46.980;
#SAMPLELENGTH:12.000;
#SELECTABLE:YES;
#BPMS:0.000=130.200;
#STOPS:;
#BGCHANGES:;
// cache tags:
#FIRSTBEAT:0.000;
#LASTBEAT:192.500;
#SONGFILENAME:Songs/Anime Songs/Ningyo_Hime/Ningyo Hime.sm;
#HASMUSIC:1;
#HASBANNER:1;
#MUSICLENGTH:90.365;
// end cache tags

//---------------dance-single - BASIC----------------
#NOTES:
     dance-single:
     BASIC:
     Easy:
     4:
     0.304,0.320,0.255,0.631,0.304,112.000,23.000,57.000,0.000,0.000:













1001
0000
0000
0000
0000
1000
0000
0000
0000
0100
0000
0010
0000
0000
0000
0000
,
0000
0000
0000
1000
0000
0000
0020
0000
0230
0000
0000
0000
1000
0000
0310
0000
,
0000
0000
0000
0001
0000
1000
0000
0000
0000
0000
0000
0000
0000
0200
0000
0000
,
0300
0010
0000
0010
0000
0000
0000
0100
0000
0100
0000
0000
0000
1000
0000
0000
,
0001
0000
0000
0000
,
0000
0000
0220
0330
1001
1001
0000
0000
,
0000
2000
0000
3000
0100
0000
0000
0000
0010
0000
0000
0000
0001
0000
0020
0000
,
0000
0000
0000
0000
0000
0000
0030
0000
0000
1000
0000
0000
0010
0000
0000
0001
,
0000
1000
0000
0000
0200
0000
0000
0000
0000
0000
0000
0000
0300
0000
0000
0000
,
0010
0000
0000
0000
0000
0000
0000
0000
0000
0000
1000
0000
0000
0002
0000
0000
,
0000
0000
0000
0000
0000
0003
0000
0000
,
0000
0000
0000
0000
0000
0000
0000
2000
,
0000
3000
0000
0200
0000
0000
0000
0300
0000
0000
0000
0000
1000
0000
0000
0010
,
0000
0000
0000
1000
0000
0000
0000
0000
0000
0000
0000
0000
0000
0000
0000
0100
0000
0000
0000
0000
0000
0000
0000
0000
0010
0000
0000
0000
0000
0000
0000
0000
0100
0000
0000
0000
0000
0000
0000
0002
0000
0000
0000
0000
0000
0003
0000
0000
,
0000
0000
0000
0000
0200
0000
0000
0300
0010
0000
0000
2000
0000
0000
0000
3000
,
0100
0000
0000
0020
0000
0000
0001
0000
2000
0000
0000
0000
0000
0000
0000
0000
,
0000
0000
0000
0000
0000
0000
3030
0000
0000
0000
0000
0000
0000
2002
0000
0000
,
0000
0000
0000
3003
0000
0000
0000
0000
1001
0000
0000
0000
0000
0000
0000
0000
0000
0000
0000
0000
0000
0000
0000
0000
0000
0000
0000
0000
0000
0000
0220
0000
0000
0000
0000
0000
0330
0000
0000
0000
0000
0000
0000
0000
0000
0220
0000
0000
,
0000
0330
0000
0000
1000
0000
0001
0000
0000
0000
0000
0000
0000
0000
0000
0000
,
0000
0200
0000
0000
0310
0000
0000
0000
0001
0000
1000
0000
0000
0020
0000
0000
,
0000
0000
0000
0000
0000
0000
0000
0000
0000
0000
0030
0000
0000
0000
0000
1000
,
0000
0000
0000
0110
0000
0000
2002
0000
0000
0000
0000
0000
0000
0000
0000
0000
,
0000
0000
0000
0000
0000
0000
0000
0000
0000
0000
0000
0000
0000
3003
0000
0000
,
0202
0000
0000
0000
0000
0000
0000
0000
0000
0000
0000
0000
0000
0303
0000
0000
,
0000
0000
0000
0000
1000
0000
0000
2020
0000
0000
0000
0000
0000
0000
0000
0000
,
0000
0000
0000
0000
,
0000
3030
0220
0000
0000
0000
0000
0000
,
0000
0330
0000
0000
0000
0000
0000
2002
0000
3003
0000
0000
0220
0000
0000
0000
,
0330
0000
0000
0000
0000
0000
0000
0000
0000
1000
0000
0020
0000
0030
0000
0002
,
0000
0003
0100
0000
0000
0000
1000
0000
0010
0000
0000
0000
1000
0000
0200
0000
,
0300
0000
0000
0000
0000
1001
0000
0000
0000
0010
0000
0000
0000
0000
0100
0000
,
0000
0110
0000
0000
0000
0000
0000
1001
0000
2002
0000
0000
0000
3003
0000
0000
,
0000
0000
0000
0000
0000
0000
0000
0000
0100
0000
0000
0000
2000
0000
0000
3000
,
0000
0000
0000
0002
0000
0000
0000
0000
0010
0000
0000
0000
0000
0000
0000
0000
0000
0000
0003
0000
0000
0000
0000
0000
0000
0000
0000
0000
0000
0000
2000
0000
0000
0000
0000
0000
0000
0000
0000
0001
0000
0000
0000
0000
0000
0000
0000
0000
,
0000
3000
0020
0000
0000
2000
0000
0000
0000
0000
0000
0000
3030
0000
0000
0000
,
0000
0000
0100
0000
0010
0000
0000
0000
0000
0002
0000
0000
0000
0100
0000
0000
,
0100
0000
0010
0000
0000
0000
1000
0000
0100
0000
0000
0003
0000
0000
0000
0000
,
1000
0000
0000
0000
0000
0000
0000
0000
0000
0000
0000
0000
0001
0000
0000
0000
0000
0000
0000
0000
0000
0200
0000
0000
0000
0000
0000
0000
0000
0000
0300
0000
0020
0000
0000
0000
0000
0000
0000
0000
0000
0000
0000
0000
0000
0000
0000
0000
,
0000
0000
0000
0000
0000
0000
0000
0030
,
0000
1001
0000
0000
0200
0000
0000
0000
0000
0000
0000
0000
0000
0000
0000
0000
,
0000
0000
0300
0000
,
0000
2002
0000
0000
0000
0000
0000
0000
,
0000
0000
0000
3003
0000
0100
0000
0000
0000
0020
0000
0000
0000
0000
0000
0000
,
0000
0000
0000
0000
0000
0000
0000
0030
,
0000
0000
0000
0000
0000
0000
0000
0202
0000
0000
0000
0000
0000
0000
0000
0000
,
0000
0000
0000
0000
0000
0000
0303
0000
0000
0000
0000
0010
0000
0000
2020
0000
,
0000
0000
0000
0000
,
0000
0000
0000
0000
,
0000
3030
0000
0000
0000
0000
0000
0000;

//---------------dance-single - ANOTHER----------------
#NOTES:
     dance-single:
     ANOTHER:
     Medium:
     6:
     0.354,0.373,0.166,0.587,0.481,156.000,15.000,53.000,0.000,0.000:









1001
0000
0000
0000
0000
0000
0010
0000
0000
0100
0000
1010
0000
0000
0000
0000
,
0000
0000
2000
0000
3000
0002
0000
0003
1001
0000
0000
0000
0100
0000
0001
0000
,
0000
0000
0100
0000
0000
0010
0000
0000
0000
0000
0000
0000
0000
2000
0000
0000
,
0100
0000
0010
0000
0000
0000
0000
0001
0000
0010
0000
0000
0000
0100
0000
0000
,
0002
0000
0000
0000
3003
0000
0000
1001
,
0000
0000
0000
0000
2000
0000
0000
3100
0000
0010
0000
0000
0000
0000
0000
0000
,
0000
0000
0001
0000
0000
0010
0000
0002
0000
0000
0003
0010
0000
0200
0000
0000
,
0000
0000
0000
0000
0000
0000
0000
0300
0010
0000
0000
0000
1000
0000
0000
0100
,
0000
0020
0000
0000
0030
2000
0000
0000
0000
0000
0000
0000
0000
0000
0000
0000
,
3001
0000
0000
0000
0000
0000
0000
0000
0000
0200
0000
0300
0002
0000
0000
0000
,
0000
0000
0000
0000
0000
0000
0000
0000
0000
0000
0000
0003
0000
0000
0000
0000
,
0000
0000
0000
0000
1001
0000
0000
2000
,
0000
0000
3000
0002
0000
0000
0003
0000
0000
0000
0000
0000
0010
0000
0000
0001
,
0000
0100
0000
0000
0000
0010
0000
0100
0000
0000
0000
0001
0000
2000
0000
0000
,
0000
0000
0000
3000
0000
0001
0000
0000
0100
0000
0000
0001
0000
0000
0000
0010
,
0000
0000
0000
0000
0000
0000
1000
0000
0000
0000
0000
0000
0000
0000
0000
0010
0000
0000
0000
0000
0002
0000
0000
0000
0000
0000
0000
0000
0000
0000
0000
0000
0000
0000
0000
0000
0000
0000
0000
0000
0000
0000
0000
0000
0000
0000
0000
0000
,
0000
0000
0000
0000
0003
0000
0000
1001
0000
0000
0000
0000
0000
2000
0000
0000
,
0000
0000
3000
0002
0000
0000
0000
0000
0000
0000
0100
0003
0000
0010
0000
2000
,
0000
0000
0000
3010
0002
0000
0000
0000
0000
0000
0003
0000
,
0000
0100
0000
0000
0010
0000
0000
0000
1000
0000
0010
0000
0000
0200
0000
0000
,
0000
0000
0000
0000
0000
0000
0000
0000
0000
0000
0000
0000
0000
0300
0000
0000
,
0020
0000
0000
0000
0000
1000
0000
0000
0000
0100
0000
0000
0001
0000
0000
1000
,
0000
0000
0100
0000
0000
0000
0001
0000
0000
0000
0100
0000
0001
0000
0000
0032
,
0000
0000
0000
0000
0000
0000
0000
0000
0000
0000
0000
0000
0010
0000
0000
0000
0000
0000
0000
0000
0000
1000
0000
0000
0000
0000
0000
0000
0000
0000
0010
0000
0000
0000
0000
0000
0003
0000
0000
0000
1001
0000
0000
0000
0000
0000
0000
0000
,
0000
0000
0000
0100
0000
0000
0000
2000
0000
0000
0000
0100
0000
0000
0010
0000
,
0000
0001
0000
0000
0010
0000
0000
0100
0000
0000
0000
0010
0000
0000
0100
3000
,
0000
0000
0210
0000
0000
0001
0000
0000
0010
0000
0000
0001
0000
0000
0300
0010
,
0000
0010
0000
0000
1001
0000
0000
0000
0100
0000
0000
0020
0000
0000
0000
1000
,
0000
0000
0100
0000
0030
2000
0000
0000
3000
0100
0000
0001
0000
0000
0000
1001
,
0000
0000
0000
0110
0000
0000
1000
0000
0200
0000
0000
0000
0310
0000
0001
0000
,
0000
0000
0000
0000
0000
0200
0000
0000
0010
0000
0000
0300
2000
0000
3000
0002
,
0000
0000
0000
0000
0000
0000
0100
0003
0000
2000
0000
0000
0000
0000
0000
0000
,
0000
0000
0000
0000
0000
0000
0000
3010
0000
0000
0200
0000
0000
0000
0000
0000
,
0000
0010
0300
0001
0000
0000
0000
0000
0000
0000
0200
0000
0000
0300
0020
0000
,
0030
0002
0003
0000
2000
0000
0000
0000
0000
0000
0000
0000
0000
0000
0000
3000
,
0000
0200
0000
0020
0000
0000
0030
2000
0000
0000
0000
3000
0001
0000
0000
0010
,
0000
1300
0000
0000
0000
0100
0000
0002
0000
0000
0000
0000
0000
0000
0003
0200
,
0000
0000
0000
2300
0000
0000
0010
0000
3002
0000
0000
0000
0000
0000
0010
0000
,
0000
0100
0000
0000
0010
0000
0000
0000
0000
0000
0000
0010
0000
0000
0010
0000
,
2003
0000
0000
0000
0000
3200
0000
0000
1000
0000
0000
1000
0000
0000
0001
0000
,
0000
0000
0000
0000
0000
0000
0000
0000
0000
0300
0000
0000
0000
0000
0000
0000
,
0000
2002
0000
0000
0000
0000
0000
0000
0000
0000
0000
0000
0000
0000
0000
0000
,
0000
0000
0000
0000
0000
0000
0003
3100
0000
0000
0201
0000
0000
0010
0000
0000
,
0010
0000
0000
0001
0000
0000
0000
0000
0000
0000
0001
0000
0000
0001
0000
0000
,
1300
0000
0000
2020
0000
0000
0000
0000
,
0000
0000
0000
0000
0000
0000
0000
0030
0000
3200
0000
0000
0000
0300
2002
0000
,
0000
0000
0000
0000
,
0000
0000
0000
0000
,
0000
3003
0000
0000
0000
0000
0000
0000;

//---------------dance-single - MANIAC----------------
#NOTES:
     dance-single:
     MANIAC:
     Hard:
     8:
     0.525,0.530,0.741,0.564,0.647,214.000,67.000,51.000,0.000,2.000:

1001
0000
0000
0000
0000
0000
0000
0000
0000
0000
0000
0000
0000
0000
0000
2001
0000
0000
0000
0000
0000
0000
0000
0000
3100
0000
0000
0000
0000
0000
0000
0000
1001
0000
0000
0000
0000
0000
0000
0000
0000
0000
0000
0000
0000
0000
0000
0000
,
0000
0000
0000
0000
0000
0000
0000
0000
0000
1002
0000
0000
0000
0000
0000
0000
1003
0000
0000
0000
0000
0000
0000
0000
1002
0000
0000
0000
0000
0000
0000
0000
0000
0000
0000
0000
0010
0000
0000
0000
0000
0000
1000
0000
0000
0000
0000
0000
,
0000
0000
0000
0000
0000
0000
0000
0000
0000
1000
0000
0000
0000
0000
0000
0000
0100
0000
0000
0000
1000
0000
0000
0000
0000
0000
0000
0000
0000
0000
0003
0000
0000
0000
0000
0000
0201
0000
0000
0000
0000
0000
0000
0000
0000
0000
0000
0000
,
0301
0000
0000
0000
0000
0000
0000
0000
0000
0000
0000
0000
1001
0000
0000
0000
0000
0000
0000
0000
0000
0001
0000
0000
0000
0000
0000
0010
0000
0000
0000
0000
1001
0000
0000
0000
0000
0000
0000
0001
0000
0000
0000
0000
0000
0000
0000
0000
,
0210
0000
0000
0000
0001
0000
0000
0000
1000
0000
0000
0001
0300
0000
1001
0000
,
0000
0000
1001
0000
0100
2001
0000
0000
,
3000
0000
0000
0000
0000
0000
1001
0000
0000
0000
0000
0000
0000
0000
0000
0001
0000
0000
0000
0000
0000
2001
0000
0000
0000
0000
0000
0000
0000
0000
0000
0000
0000
0000
0000
0000
3001
0000
0000
0000
1020
0000
0000
0000
0000
0000
0000
0000
,
0000
0000
0000
0000
0000
0030
1001
0000
0001
0000
0000
0000
1001
0000
0000
0100
,
0000
0000
0000
1001
0000
0020
0000
0000
0000
0000
1000
0000
0000
0000
0000
0000
,
0031
0000
0000
0000
0000
0000
0000
1001
0000
0000
0001
0000
0000
2100
0000
0000
,
0001
0000
0000
0000
0010
0000
0000
0001
3000
0000
0000
0100
0000
0000
0001
0000
,
0000
0000
0000
0010
0000
0000
0000
0000
0000
0000
0000
0000
0001
0000
0000
0000
0000
0000
0000
0000
0000
0000
0000
0000
1001
0000
0000
0000
0000
0000
0000
0000
0000
0000
0000
0000
0000
0000
0000
0000
0000
0000
0000
0000
1002
0000
0000
0000
,
0000
0000
0003
2000
0000
0001
3000
0010
0000
0000
0000
0000
1002
0000
0000
1003
,
0000
0000
0000
0000
1001
0000
0000
0000
0000
0000
0000
0000
0000
0000
0000
1001
0000
0000
0020
0000
0000
0000
0000
0000
0030
0000
0000
1001
0000
0000
0000
0000
0000
1010
0000
0000
0000
0000
0000
0000
0002
0000
0000
0000
0000
1000
0000
0000
,
0000
0000
0000
0000
1000
0000
0000
0000
0003
0000
0000
0000
0000
0000
0000
0000
0000
0000
1001
0000
0000
0000
0000
0000
0000
0000
0000
0000
0100
0000
0000
0000
0000
1001
0000
0000
0000
0000
0000
0000
0000
0000
0000
0000
0000
1000
0000
0000
,
0000
0000
0000
0101
0000
0000
0000
0000
0001
0000
0000
0000
0201
0000
0000
1000
0000
0000
0000
0000
0001
0000
0000
0000
,
0010
0000
0000
1000
0000
0000
0300
1010
0000
0000
0000
0000
0000
0000
1002
0000
,
0003
2000
0000
3002
1000
0000
0003
0000
0000
0000
0000
1020
0000
2030
0000
3000
,
0020
1000
0000
0030
0001
0000
2000
0000
0001
0000
0000
0000
0000
0000
3001
0000
,
0000
0000
0000
0000
0001
0000
0000
0000
0000
0000
0000
0000
0000
0000
0000
1001
0000
0000
0000
0000
0000
0000
0000
0000
0100
0000
0000
0000
0000
0000
0000
0000
0000
1002
0000
0000
0000
0000
0000
0003
0200
0000
0000
0000
0000
0000
0000
0000
,
0000
0000
0001
0000
0000
0000
0000
0000
0000
0001
0000
0000
0300
0000
0000
0000
,
1001
0000
0000
1002
0000
0000
0100
0000
0000
1000
0000
0000
0010
0000
0000
1000
,
0000
0000
0000
0000
0000
0000
0000
0000
0000
0010
0000
0000
0000
0000
0000
0000
0000
0000
1000
0000
0000
0000
0000
0000
0000
0000
0000
0000
0010
0000
0000
0000
0000
0000
0000
0000
0000
0000
0000
1000
0000
0000
0000
0000
0000
0003
0000
0000
,
2000
0000
0000
0000
0000
0000
0000
0000
0000
0100
0000
0000
0000
0000
0000
0000
0000
0000
0000
0000
0000
0001
0000
0000
0000
0000
0000
3000
0000
0000
0101
0000
0000
0000
0000
0000
0000
0000
0000
0000
0110
0000
0000
0000
0000
0000
0000
0000
,
0000
1100
0000
0000
1000
0000
0000
0012
0000
0000
0000
0100
0000
0000
1000
0000
,
0000
0010
0000
0000
0000
1000
0000
0000
0100
0000
0000
1000
0000
0000
0100
0000
,
0000
0000
0000
0000
1000
0000
0000
0000
0000
0000
0000
0000
0000
0000
0000
0203
0000
0000
0000
0000
0000
0000
0000
0000
0001
0000
0000
0000
0000
0000
0000
0000
0000
0010
0000
0000
0000
0000
0000
0000
0000
0000
0000
0000
0000
0301
0000
0000
,
0000
0000
0000
0000
0000
0000
0001
0000
0000
0000
0000
0000
0000
0000
0000
0000
0101
0000
0000
0000
0000
0000
0000
0000
0000
0000
0000
1001
0000
0000
0000
0000
0000
0000
0000
0000
1002
0000
0000
0000
0000
0000
0000
0000
1000
0000
0000
0000
,
0000
0000
0000
0000
0000
0000
0100
0000
0000
0000
0000
0000
0000
0000
0000
1000
0003
0000
0000
0000
0000
0000
0000
0000
0000
0000
0000
0001
0000
0000
0000
0000
0010
0000
0000
0000
0000
0000
0000
1001
0000
0000
0000
0000
0110
0000
0000
0000
,
0000
0000
0000
0000
1001
0000
0000
0000
0100
0000
0000
0000
0001
0000
0000
1001
0000
0000
0010
0000
0000
0000
0100
0000
,
0000
0000
0000
1001
0000
0000
0000
0000
0000
0000
0000
0000
0000
0000
0000
0000
0000
0000
0000
0000
0201
0000
0000
0000
0000
0000
0000
0000
0000
0000
2300
0000
0000
0000
0000
0000
0000
0000
0000
0000
3002
0000
0000
0000
0000
0000
0000
0000
,
0000
0000
0000
0010
0003
0000
0000
0000
0000
0000
0000
0000
0000
0000
0000
0000
0000
0000
0000
0000
1001
0000
0000
0000
1001
0000
0000
0000
0000
0000
0000
0000
0000
0201
0000
0000
0000
0000
0000
0000
0000
0000
0010
0000
0000
0000
0000
0000
,
0000
0001
0000
0000
1000
0000
0000
0000
1002
0000
0303
2000
0000
0000
0001
0000
,
0000
3000
0010
0000
1001
0000
0000
0000
0000
0000
0000
0000
0200
0000
0000
2300
,
0000
0000
3002
0000
0000
1023
0000
0000
0000
0001
0000
0000
1000
0000
0000
1030
,
0000
0000
0000
1000
0000
1000
0000
0000
0000
0001
0000
0000
0000
1000
0000
0100
,
0000
1001
0000
0100
0110
0000
0000
0000
,
2001
0000
0000
0000
0000
0000
0000
0000
0000
0000
0000
0000
3002
0000
0000
0000
0000
0000
0003
0000
0000
1020
0000
0000
0000
0000
0000
0000
0000
0000
0000
0000
0230
0000
0000
0000
0000
0000
0000
0000
0000
0000
0001
0000
0000
0000
0000
0000
,
0000
0001
0000
0000
0001
0000
0000
0000
0000
0000
0000
0001
0000
0000
0001
0000
,
0300
1001
0000
0000
0020
0000
0000
0000
1000
0000
0000
1000
0000
0000
1000
0000
,
0000
0000
0000
0000
0000
1000
0000
0000
1030
0000
0000
0000
1001
0000
0000
0000
,
0000
0000
0000
1020
0000
0000
1000
0000
0000
1000
0000
0000
0000
0000
0000
0000
,
1000
0000
0000
1000
0000
0030
1001
0000
0000
0020
0000
0000
0000
1000
0000
0000
,
0100
0000
0000
0000
0000
0000
0000
0000
1000
0000
0000
0000
0000
0000
0000
0000
0000
0000
2000
0000
0000
0000
0000
0000
0000
0000
0000
0000
0000
0000
0000
0000
0000
3000
0000
0000
0000
0000
0000
0000
0000
0000
1000
0000
0000
0000
0000
0000
,
0000
0001
0030
0000
0000
0000
0000
1020
0000
0000
1000
0000
0000
0000
0000
0000
,
1000
0000
0000
0000
0000
0000
0000
1000
0000
0030
1001
0000
0000
0000
0020
0000
,
0000
0000
1000
0000
0000
1000
0000
0000
0000
0000
0000
0000
1000
0000
0000
0000
,
0000
0000
0000
2000
0000
0000
0000
0000
0000
0000
0000
0000
0000
0000
0000
3030;
