#TITLE:Eskalation;
#SUBTITLE:(Move It!) (NeoTune! Bootleg Mix);
#ARTIST:Rob & Chris feat. Madagascar;
#TITLETRANSLIT:;
#SUBTITLETRANSLIT:;
#ARTISTTRANSLIT:;
#CREDIT:owenviau1;
#BANNER:../owenviau1 Simfiles 5-bn.png;
#BACKGROUND:../owenviau1 Simfiles 5-bg.png;
#LYRICSPATH:;
#CDTITLE:../ov1_title.png;
#MUSIC:Rob & Chris ft Madagascar - Eskalation (Move It!) (NeoTune! Bootleg Mix).mp3;
#OFFSET:-0.144;
#SAMPLESTART:123.409;
#SAMPLELENGTH:29.999;
#SELECTABLE:YES;
#BPMS:0.000=144.000;
#STOPS:;
#BGCHANGES:;
// cache tags:
#FIRSTBEAT:0.000;
#LASTBEAT:728.000;
#SONGFILENAME:Songs/owenviau1 Simfiles 5/Eskalation - [owenviau1] v1.4/Eskalation.sm;
#HASMUSIC:1;
#HASBANNER:1;
#MUSICLENGTH:303.845;
// end cache tags

//---------------dance-single - ----------------
#NOTES:
     dance-single:
     :
     Hard:
     9:
     0.710,0.779,0.138,0.490,0.132,1319.000,42.000,149.000,8.000,2.000:
0001
0010
0100
1000
0001
1000
0100
0010
,
0001
0100
0010
1000
0001
1000
0010
0100
,
0010
1000
0100
0010
0001
0100
0001
0010
,
0100
1000
0010
1000
0001
1000
0010
0100
,
0001
0010
0001
1000
0100
0010
0001
1000
,
0010
0100
0001
0010
0100
1000
0010
1000
,
0001
1000
0010
0100
0001
0010
0001
1000
,
0010
0000
0100
0000
0001
0000
1000
0000
0100
0000
0010
0000
0002
0003
0200
0300
,
1001
0001
0100
0010
1000
0001
1000
0010
,
0100
0001
0100
0010
1000
0100
0010
0001
,
1000
0001
0010
0001
0100
0010
1000
0100
,
1000
0001
0010
0100
1000
0010
1000
0001
,
0100
0010
1000
0100
0010
0001
0100
0010
,
1000
0001
1000
0010
0100
0001
0010
0001
,
1000
0000
0001
0000
0100
0000
0010
0000
1000
0100
0010
0001
1000
0001
0010
0100
,
1000
0000
0010
0000
0100
0000
0001
0000
1000
0000
0100
0000
0010
0000
0001
1000
,
1001
0001
1000
0010
0100
0001
1000
0100
,
0010
0001
0100
0010
1000
0100
0010
0001
,
1000
0001
0010
0100
1000
0010
1000
0001
,
1000
0010
0100
0001
0010
0001
1000
0100
,
0010
0001
0100
0010
1000
0001
1000
0100
,
1000
0010
0100
0001
0010
0001
1000
0100
,
0010
0001
1000
0010
0100
0001
0010
0100
,
1000
0000
0010
0000
1000
0000
0001
0000
0100
0000
0001
0000
2000
3000
0200
0300
,
1001
0001
1000
0010
0100
0001
0010
0100
,
1000
0010
1000
0001
0100
0001
0010
0100
,
1000
0010
0100
0001
0010
0001
1000
0001
,
0100
0010
0100
0001
1000
0010
0100
0010
,
1000
0100
0010
0001
1000
0010
0100
0001
,
0010
0100
1000
0010
0100
0001
0010
0001
,
1000
0010
0100
0001
0010
0001
1000
0001
,
0100
0010
1000
0001
0100
0001
0010
0100
1000
0000
0100
0000
0020
0030
0002
0003
,
1001
1000
0001
1000
0001
1000
0001
1000
,
0001
1000
0001
1000
0001
0000
0000
0000
,
2000
0000
0000
0000
,
3002
0000
0000
0000
,
0023
0000
0000
0000
0000
0000
0130
1000
,
0010
0100
0001
1000
0002
0003
0002
0003
,
0002
2003
3020
0230
0302
0023
0230
0000
,
0300
0020
0032
0203
0320
2030
3002
0000
,
0003
0000
0020
0230
2300
3002
2003
3200
,
0320
0000
0030
0002
0003
2000
3000
0020
,
0000
0030
2000
3020
0032
0203
2300
0000
,
3000
0200
0320
0032
2003
3020
0230
0000
,
0300
0002
2003
3020
0230
0302
0023
0230
,
2300
0000
3000
0002
0003
0020
0030
0200
,
0000
0000
0300
0002
0003
2000
3000
0020
,
0000
0030
0000
0000
0000
0000
0002
0003
,
0020
0030
0200
2300
3000
0020
0030
0200
,
0000
0000
0000
0000
0000
0000
0000
0000
0301
1000
0001
1000
0001
1000
0001
1000
,
1001
0000
0000
0000
1000
0000
0000
0100
0010
0000
0001
0000
0010
0000
0100
1000
,
0000
0010
0000
0000
0100
0000
0000
0001
0010
0000
0100
0000
1000
0000
0010
0100
,
0000
0001
0000
0000
0010
0000
0000
0100
1000
0000
0010
0000
0100
0000
0001
1000
,
0000
0010
0000
0000
0100
0000
0000
1000
0010
0000
0100
0000
0001
0000
1000
0001
,
1001
0000
0000
0000
0110
0000
0000
0000
1010
0000
0000
0000
0101
0000
0000
1000
,
1001
0000
0000
0000
0101
0000
0000
0000
1010
0000
0000
0000
0011
0000
0000
0001
,
1000
0001
0010
0100
1000
0010
0100
0001
,
0010
0100
1000
0010
0100
0001
1000
0010
1000
0000
0001
0000
0020
0030
0200
0300
,
2000
3000
0200
0300
0020
0030
2000
3002
,
0023
0030
2000
3000
0002
2003
3002
0203
,
0320
0030
0002
0003
0200
0300
2000
3002
,
0203
0300
2000
3000
0002
0203
0302
2003
,
3002
0003
2000
3000
0002
0003
0200
0302
,
2003
3000
0020
0030
2000
3002
0203
0320
,
2030
3000
0200
0300
0002
0003
2000
3200
,
0320
0030
0002
0003
2000
3002
0023
0230
,
1301
0001
0010
0100
1000
0010
0100
0001
,
0010
0001
1000
0010
0100
0010
1000
0100
,
0010
0001
0100
0001
0010
0100
1000
0010
,
1000
0001
0010
0100
1000
0010
0100
0001
,
1000
0001
0010
0100
1000
0010
0100
0001
,
0010
0001
1000
0010
0100
0001
1000
0100
,
0010
0000
0001
0000
0100
0000
0001
0000
0010
0000
0100
0000
1000
0010
1000
0001
,
2000
3000
0020
0030
0200
0302
2003
3020
,
1031
0001
1000
0010
0100
0001
0010
0001
,
1000
0010
0100
0001
1000
0010
0100
0010
,
1000
0100
0010
0001
0100
0010
1000
0001
,
1000
0100
1000
0010
0100
0001
0010
0001
,
1000
0010
0100
0001
0010
0100
1000
0010
,
0100
0001
1000
0001
0010
0001
1000
0010
,
0100
0010
1000
0100
0010
0001
0100
0001
,
0010
0100
1000
0010
0100
0001
1000
0001
,
0101
0010
0001
1000
0100
0010
0001
0100
,
0010
1000
0100
0010
0001
0100
0010
1000
,
0001
1000
0100
1000
0010
0100
0001
0010
,
0001
0100
0010
1000
0100
1000
0001
0100
,
0010
1000
0100
0010
0001
0100
0001
1000
,
0001
0010
0100
1000
0001
1000
0010
0100
,
0001
0010
0001
1000
0100
0010
0001
0100
,
0001
0010
0100
1000
0010
1000
0001
0100
,
1001
1000
0010
0100
0001
0010
0001
0100
,
0010
1000
0100
0010
0001
0100
0001
1000
,
0010
1000
0001
0010
0100
1000
0010
0100
,
0001
1000
0001
0010
0001
1000
0100
0010
,
0001
0010
0100
1000
0010
0100
0001
0010
,
0001
1000
0010
0100
0001
0010
0100
1000
,
0010
0100
0001
0010
0001
1000
0010
0100
,
0001
1000
0001
1000
0010
1000
0100
0010
0001
0000
0000
0010
0100
0000
1000
0000
,
1001
0001
1000
0010
0100
0001
0010
0100
,
1000
0010
1000
0001
0100
0001
1000
0100
,
0010
0001
0100
0010
1000
0100
0010
0001
,
0100
0001
1000
0100
1000
0010
0100
0001
,
0010
0100
1000
0010
0100
0001
1000
0100
,
0010
0001
0010
0100
1000
0010
0100
0001
,
0100
0010
1000
0010
0100
0001
0010
0100
,
1000
0010
0100
0001
1000
0001
0010
0100
,
1100
1000
0001
0010
0001
1000
0100
0010
,
0001
0100
0001
1000
0010
1000
0001
0010
,
0100
0010
0001
1000
0001
0100
0010
0100
,
0001
0010
0100
1000
0010
0100
0001
0010
,
0001
1000
0001
0100
0010
0100
0001
1000
,
0100
0010
0001
0100
0001
1000
0100
0010
,
1000
0100
0010
0001
0100
0001
1000
0100
,
0010
0001
0010
0100
1000
0010
1000
0001
1000
0000
0100
0000
0010
0000
0001
0000
,
1001
0000
0000
2000
3000
0002
0003
0020
,
0000
0030
0000
0000
0000
0000
0002
0003
,
0020
0030
0200
2300
3000
0020
0030
0200
,
0000
0000
0000
0000
0000
0000
0000
0000
0301
1000
0001
1000
0001
1000
0001
1000
,
1001
0000
0000
0000
1000
0000
0000
0001
0010
0000
1000
0000
0001
0000
0100
1000
,
0000
0100
0000
0000
0010
0000
0000
1000
0001
0000
0010
0000
1000
0000
0100
0010
,
0000
0001
0000
0000
0100
0000
0000
0010
1000
0000
0100
0000
0001
0000
0010
1000
,
0000
0010
0000
0000
0100
0000
0000
0001
0010
0000
0100
0000
0001
0000
1000
0010
,
1001
0000
0000
0000
0110
0000
0000
0000
1010
0000
0000
0000
0101
0000
0000
1000
,
1001
0000
0000
0000
0101
0000
0000
0000
1010
0000
0000
0000
0011
0000
0000
1000
,
0100
0001
0100
0010
1000
0001
0010
0100
,
1000
0010
1000
0001
1000
0001
0010
0100
1000
0000
0000
0100
0010
0000
0001
0000
,
0120
0030
0000
0000
0200
0300
0000
0000
2000
3000
0000
0000
0200
0300
0002
0003
,
0020
0030
0000
0000
2000
3000
0000
0000
0002
0003
2000
3000
0020
0030
0200
0300
,
0002
0003
0000
0000
0020
0030
0000
0000
0200
0300
0000
0000
2000
3000
0002
0003
,
0200
0300
0000
0000
0020
0030
0000
0000
2000
3000
0020
0030
0002
0003
2000
3000
,
0011
1000
0100
0010
0001
1000
0010
0100
,
0001
0010
0100
1000
0010
0100
0001
1000
,
0010
1000
0001
0100
0001
0010
0100
1000
,
1001
0000
0000
0101
0000
0000
0110
0000
0000
1100
0000
0000
1001
0000
0000
0000
,
0110
0001
0100
0010
1000
0100
1000
0010
,
0100
0001
0010
0100
1000
0010
0100
0001
,
1000
0001
0100
0001
0010
0100
1000
0010
,
1000
0100
0010
0001
0100
0010
1000
0001
,
1000
0100
1000
0010
0100
0001
0010
0001
,
1000
0100
0010
0001
0100
0010
1000
0001
,
1000
0100
0010
0001
0100
0001
0010
0100
,
1000
0010
1000
0100
0010
0001
1000
0001
,
0110
0010
1000
0001
0010
0100
1000
0010
,
0100
0001
0010
0001
1000
0010
0100
0001
,
0010
0100
1000
0010
1000
0001
0100
0001
,
0010
0100
1000
0010
0100
0001
0010
0100
,
1000
0001
0100
0010
1000
0100
0010
0001
,
0100
0001
1000
0010
1000
0001
0010
0100
,
1000
0010
0100
0001
1000
0001
0010
0100
,
1000
0100
0010
0001
0100
0001
1000
0001
1000
0000
0000
0100
0010
0000
0001
0000
,
1001
0100
0010
1000
0001
0100
0010
0100
,
0001
1000
0010
0100
0001
1000
0100
0010
,
0001
0100
0010
0100
0001
0010
0100
1000
,
0010
0100
0001
0010
0001
1000
0100
1000
,
0010
1000
0001
1000
0001
0010
0001
0100
,
0010
1000
0100
1000
0001
0010
0100
1000
,
0010
0100
0001
1000
0001
0010
0100
1000
,
0100
0010
0001
1000
0001
0010
0100
1000
0001
0000
0000
0010
0100
0000
1000
0000
,
1001
0010
0100
1000
0010
0100
0001
0010
,
0001
1000
0010
0100
0001
1000
0001
0010
,
0001
0100
0010
1000
0100
1000
0010
0100
,
0001
0010
0100
1000
0010
0100
0001
1000
,
0001
0010
0001
0100
0010
1000
0100
1000
,
0001
0010
0100
1000
0010
1000
0100
0010
,
0001
1000
0001
0010
0100
1000
0010
0100
,
0001
0010
0001
1000
0100
0010
0001
1000
,
0110
0010
0100
0001
0010
0001
1000
0010
,
0100
0001
1000
0001
0010
0100
1000
0010
,
1000
0100
0010
0001
0100
0001
0010
0100
,
1000
0010
0100
0001
0010
0001
1000
0010
,
0100
0001
1000
0001
0010
0100
1000
0010
,
0100
0001
0010
0001
1000
0010
0100
0001
,
1000
0100
0010
0001
1000
0001
0010
0100
,
1000
0001
1000
0100
0010
0001
1000
0001
0010
0000
0000
0100
1000
0000
0001
0000
,
1001
0001
1000
0001
1000
0001
2M00
000M
,
0M00
000M
0M00
000M
0M00
000M
0000
0000
,
0000
0000
0000
0000
,
0000
0000
0000
0000
,
0000
0000
0000
0000
,
0000
0000
0000
0000
,
0000
0000
0000
0000
,
0000
0000
0000
0000
,
3000
0000
0000
0000
;

//---------------dance-single - ----------------
#NOTES:
     dance-single:
     :
     Challenge:
     11:
     0.997,1.000,1.000,0.589,0.199,1371.000,570.000,179.000,0.000,28.000:
1010
0100
0011
0001
1100
0001
0110
0100
,
1001
0010
0101
0100
1010
0001
0110
0010
,
1001
0010
0101
1000
0011
0001
1100
0001
,
0110
1000
0101
0010
1001
0010
0110
0001
,
1100
1000
0101
0010
1001
0010
0110
0001
,
1010
0001
1100
1000
0011
1000
0101
0010
,
1010
0100
1001
0001
0110
0001
1100
0010
,
0011
0000
0100
0000
1001
0000
0010
0000
1100
0000
0110
0000
0002
0003
2000
3000
,
0101
0010
1100
0001
0110
0100
1001
0010
,
1100
1000
0011
0001
0110
1000
1001
0010
,
1100
0001
0011
1000
0110
0010
1001
0100
,
1010
0000
0001
0000
1100
0000
1000
0000
0011
0000
0001
0000
0110
0000
1000
0001
,
0101
0000
0100
0000
1010
0000
0001
0000
0110
0000
1000
0000
0101
0000
1000
0010
,
0110
0000
0001
0000
0110
0000
0100
0000
1010
0000
0100
0000
1001
0000
0010
0100
,
0101
0000
0110
0000
1010
0000
1001
0000
0010
0100
0001
1000
0010
1000
0001
0100
,
0010
0000
1000
0100
0010
0001
1000
0000
0101
0000
1000
0000
0110
0000
0001
1000
,
1001
0100
0011
1000
0101
0001
1010
0001
,
1100
0100
0011
0100
1001
1000
0110
0010
,
1001
0001
0110
1000
0101
0010
1001
0010
,
0101
0100
1010
0001
1100
0001
0110
1000
,
0011
0010
1100
0010
0101
1000
0110
0100
,
1010
0100
1001
0001
0110
0001
1100
0010
,
0101
1000
0110
0001
1010
0100
1001
0001
,
0110
0000
1000
0001
0010
0000
0100
1000
0010
0000
0100
0001
0010
0000
1000
0001
,
1001
0010
0101
0010
1100
0001
0011
1000
,
0101
0010
0110
1000
0011
1000
1100
0001
,
1010
0001
1100
0010
1001
0010
0110
1000
,
0101
0000
0010
0000
1001
0000
0010
0000
0110
0000
0001
0000
1100
0000
0010
0100
,
1001
0000
0010
0000
0110
0000
1000
0000
1010
0000
0001
0000
0101
0000
1000
0010
,
0110
0000
0001
0000
1001
0000
0010
0000
0101
0000
1000
0000
0110
0000
1000
0001
,
0101
0110
1100
1001
0110
1100
0011
0110
,
1000
0100
0010
0001
1000
0010
0100
0001
1000
0000
0100
0010
0001
0000
0010
0100
,
1001
1000
0001
1000
0001
1000
0001
1000
,
0001
1000
0001
1000
0001
0000
0000
0000
,
2000
0000
0000
0000
,
3002
0000
0000
0000
,
0023
0000
0000
0000
0000
0000
0130
1000
,
0010
0100
0001
1000
0002
0003
0002
0003
,
0002
2003
3020
0230
0302
0023
0230
0000
,
0300
0020
0032
0203
0320
2030
3002
0000
,
0003
0000
0020
0230
2300
3002
2003
3200
,
0320
0000
0030
0002
0003
2000
3000
0020
,
0000
0030
2000
3020
0032
0203
2300
0000
,
3000
0200
0320
0032
2003
3020
0230
0000
,
0300
0002
2003
3020
0230
0302
0023
0230
,
2300
0000
3000
0002
0003
0020
0030
0200
,
0000
0000
0300
0002
0003
2000
3000
0020
,
0000
0030
0000
0000
0000
0000
0002
0003
,
0020
0030
0200
2300
3000
0020
0030
0200
,
0000
0000
0000
0000
0000
0000
0000
0000
0301
1000
0001
1000
0001
1000
0001
1000
,
1001
0000
0000
0000
1000
0000
0000
0100
0010
0000
0001
0000
0010
0000
0100
1000
,
0000
0010
0000
0000
0100
0000
0000
0001
0010
0000
0100
0000
1000
0000
0010
0100
,
0000
0001
0000
0000
0010
0000
0000
0100
1000
0000
0010
0000
0100
0000
0001
1000
,
0000
0010
0000
0000
0100
0000
0000
1000
0010
0000
0100
0000
0001
0000
1000
0010
,
1001
0000
0000
0000
0110
0000
0000
0000
1010
0000
0000
0000
0101
0000
0000
1000
,
1001
0000
0000
0000
0101
0000
0000
0000
1010
0000
0000
0000
0011
0000
0000
1000
,
1100
0110
0011
1001
0101
0110
1100
0101
,
0010
0100
1000
0010
0100
0001
1000
0010
1000
0000
0000
0010
0100
0000
1000
0001
,
2002
3003
0202
0303
0220
0330
2200
3302
,
0223
0330
2200
3300
0202
2303
3022
0233
,
2320
3030
0022
0033
2200
3300
2020
3032
,
2203
3300
0220
0330
2002
3023
0232
2303
,
3022
0033
2020
3030
0202
0303
2200
3320
,
2032
3003
0220
0330
2200
3320
0232
2303
,
3022
0033
2002
3003
2020
3030
0202
2303
,
3220
0330
2002
3003
0220
2330
3022
0233
,
1301
0001
1010
1000
0101
0010
1001
1000
,
0110
0001
1010
0001
1100
0001
0110
1000
,
0011
0100
1001
0010
0110
0001
1010
0010
,
0101
0000
0010
0000
1001
0000
1000
0000
0110
0000
0001
0000
1100
0000
0001
0100
,
0110
0000
1000
0000
1001
0000
0010
0000
0110
0000
0001
0000
1010
0000
0001
1000
,
1100
0000
0001
0000
1010
0000
0100
0000
1001
0000
1000
0000
0110
0000
0001
0010
,
1100
0000
0101
0000
1001
0000
0110
0000
1010
0000
0101
0000
1000
0100
0010
0001
,
2002
3003
2020
3030
0202
0323
2230
3320
,
1031
0010
1100
0001
0110
0100
1001
0010
,
0101
1000
1010
0001
0110
0010
1001
0100
,
0011
0001
1100
0010
0101
0010
1001
0010
,
0110
0001
1010
0001
0101
1000
0110
1000
,
1001
0010
0101
1000
0110
0001
1001
0100
,
1010
0001
0101
0010
1100
0010
0011
1000
,
0110
0010
1001
0100
0011
1000
1100
0001
,
1010
0001
0110
0010
1001
0101
1100
0110
,
1001
0010
0101
0100
1010
0001
1100
0010
,
0011
1000
0101
0010
1010
0001
0110
0001
,
1001
0010
0110
1000
0011
1000
0110
0100
,
1001
0010
0110
0001
1010
0001
0110
1000
,
0011
0100
1100
0010
0101
1000
0110
0010
,
1001
0100
1010
0001
0110
1000
0101
1000
,
0011
0100
1001
0010
1100
0001
0110
0001
,
1010
0100
0101
1000
0011
1000
0110
0010
,
1001
0100
0110
1000
0011
1000
0101
0010
,
1100
0001
0110
0001
1010
0001
1100
0010
,
0011
1000
0110
0100
1010
0100
1001
0001
,
0110
1000
0101
0010
1100
0100
0011
0100
,
1001
0000
0010
0000
0110
0000
0001
0000
1010
0000
0001
0000
0110
0000
1000
0010
,
0101
0000
0010
0000
1001
0000
1000
0000
0110
0000
0001
0000
1010
0000
0001
0010
,
1001
1010
0110
0101
1001
0110
1100
0011
,
1000
0010
1000
0001
0010
0100
1000
0010
0100
0000
0001
1000
0100
0000
1000
0001
,
1001
1000
0110
0010
0101
0010
1001
0100
,
1010
0001
0110
0010
1001
0100
0011
1000
,
1010
0010
0101
0010
1001
0001
0110
0001
,
1010
0100
0101
0010
1001
0001
0110
0010
,
1100
0001
0011
1000
0110
0100
1010
0100
,
1001
0010
0101
1000
0110
0001
1010
0100
,
1001
0001
0110
1000
0011
0010
1100
0001
,
0110
0010
1001
0010
0101
1000
0110
0001
,
1100
0010
1001
0010
0110
1000
0101
0010
,
1010
0001
0110
0010
1001
0100
0011
0010
,
1100
0001
1010
0100
0101
0010
1001
0100
,
0110
0000
0001
0000
1100
0000
0010
0000
0011
0000
1000
0000
0101
0000
1000
0010
,
0110
0000
1000
0000
1001
0000
0010
0000
0101
0000
0010
0000
1100
0000
0001
0100
,
1010
0000
0100
0000
0110
0000
0001
0000
1010
0000
0010
0000
0101
0000
1000
0100
,
1001
1010
0101
1100
0011
0110
1001
0101
,
1000
0010
0100
0010
1000
0001
0100
0010
1000
0000
0001
0100
0010
0000
1000
0001
,
1001
0000
0000
2000
3000
0002
0003
0020
,
0000
0030
0000
0000
0000
0000
0002
0003
,
0020
0030
0200
2300
3000
0020
0030
0200
,
0000
0000
0000
0000
0000
0000
0000
0000
0301
1000
0001
1000
0001
1000
0001
1000
,
1001
0000
0000
0000
1000
0000
0000
0001
0010
0000
1000
0000
0001
0000
0100
1000
,
0000
0100
0000
0000
0010
0000
0000
1000
0001
0000
0010
0000
1000
0000
0100
0010
,
0000
0001
0000
0000
0100
0000
0000
0010
1000
0000
0100
0000
0001
0000
0010
1000
,
0000
0010
0000
0000
0100
0000
0000
0001
0010
0000
0100
0000
0001
0000
1000
0010
,
1001
0000
0000
0000
0110
0000
0000
0000
1010
0000
0000
0000
0101
0000
0000
1000
,
1001
0000
0000
0000
0101
0000
0000
0000
1010
0000
0000
0000
0011
0000
0000
1000
,
1100
0110
0011
1001
0101
0110
1100
0101
,
0010
0100
1000
0010
0100
0001
1000
0010
1000
0000
0000
0010
0100
0000
1000
0001
,
0020
0030
0000
0000
0200
0300
0000
0000
2000
3000
0000
0000
0200
0300
0002
0003
,
0020
0030
0000
0000
2000
3000
0000
0000
0002
0003
2000
3000
0020
0030
0200
0300
,
0002
0003
0000
0000
0020
0030
0000
0000
0200
0300
0000
0000
2000
3000
0002
0003
,
0200
0300
0000
0000
0020
0030
0000
0000
2000
3000
0020
0030
0002
0003
2000
3000
,
0011
1000
0110
0010
1001
0100
1010
0001
,
0110
1000
0101
0010
1100
0001
0110
0100
,
1001
1010
0110
0011
1001
0110
1100
0101
,
1001
0000
0000
0101
0000
0000
1010
0000
0000
1100
0000
0000
1001
0000
0010
0000
,
0110
0001
1100
0010
0101
0010
1001
0100
,
0011
1000
1100
0001
0110
0010
1001
0010
,
0101
0001
1010
1000
0110
1000
0011
1000
,
0110
0010
1001
0100
1010
0001
0011
0100
,
1001
0100
0011
0001
1100
0001
0110
1000
,
0101
1000
0110
0001
1100
0100
0011
1000
,
0110
0001
1010
1000
0101
0010
1001
0001
,
0110
0001
1100
0001
0110
1000
0101
1010
,
1100
1000
0011
0100
1010
0100
1001
0001
,
0110
1000
0011
0001
1100
0001
0110
1000
,
0101
0010
1100
0100
0011
1000
0110
0001
,
1010
0000
0100
0000
1001
0000
0010
0000
0110
0000
1000
0000
0101
0000
0010
0100
,
1001
0000
0010
0000
1100
0000
0001
0000
0110
0000
0001
0000
1010
0000
0001
0100
,
0011
0000
1000
0000
0110
0000
0001
0000
1100
0000
0010
0000
0101
0000
1000
0010
,
0110
0011
1100
1010
0101
1001
0011
0110
,
1000
0010
1000
0001
0100
0001
0010
0100
1000
0000
0010
0100
0001
0000
0010
0100
,
1001
0010
1100
0001
0011
1000
0101
0010
,
1001
0010
0110
0001
1100
0001
0011
0100
,
1010
0001
1100
0010
0101
1000
0011
0100
,
1001
0000
0010
0000
0110
0000
0001
0000
1100
0000
0001
0000
0110
0000
1000
0100
,
0011
0000
1000
0000
0110
0000
0001
0000
1100
0000
0010
0000
0101
0000
0010
0001
,
1001
0000
0010
0000
0110
0000
0001
0000
1010
0000
0100
0000
1001
0000
0010
1000
,
0101
1100
0110
1001
0011
1100
0110
0101
,
1000
0010
0100
0001
0010
0001
1000
0010
0100
0000
1000
0001
0010
0000
0001
1000
,
1010
0100
0011
1000
0110
0010
1001
0100
,
1010
0001
0110
1000
0101
0010
1001
0100
,
1010
0001
0110
1000
0011
1000
1100
0001
,
1010
0000
0100
0000
1001
0000
0010
0000
0101
0000
0010
0000
0110
0000
1000
0001
,
0101
0010
1100
0001
0110
1000
0011
1000
,
0101
0010
1010
0100
1001
0010
0110
0001
,
1100
0001
0011
1000
0110
0010
1001
0100
,
1010
0001
0110
0010
1001
0100
0011
0010
,
1001
0100
0110
0001
1100
0010
0101
0100
,
1010
0001
0110
0010
1001
0100
0011
1000
,
0110
0001
1100
0010
1001
0100
1010
0001
,
0110
0000
1000
0000
0101
0000
0010
0000
1001
0000
0100
0000
0011
0000
1000
0010
,
0101
0000
0010
0000
1100
0000
0010
0000
0101
0000
0100
0000
1010
0000
0001
1000
,
0110
0000
1000
0000
0101
0000
0010
0000
1001
0000
0100
0000
1010
0000
0100
0001
,
1010
0101
1001
0110
1100
0011
1010
0101
,
1000
0100
0010
0001
1000
0010
0100
0001
0010
0000
1000
0100
0010
0000
0001
1000
,
1001
0001
1000
0001
1000
0001
2000
0001
,
0100
0001
0100
0001
0100
0001
0000
0000
,
0000
0000
0000
0000
,
0000
0000
0000
0000
,
0000
0000
0000
0000
,
0000
0000
0000
0000
,
0000
0000
0000
0000
,
0000
0000
0000
0000
,
3000
0000
0000
0000
;
