#TITLE:Rusty Ruin Zone;
#SUBTITLE:- Sonic 3D Blast (Saturn) - Act 2;
#ARTIST:Richard Jaques;
#TITLETRANSLIT:;
#SUBTITLETRANSLIT:;
#ARTISTTRANSLIT:;
#CREDIT:;
#BANNER:Rusty Ruin - Act 2 - Banner.PNG;
#BACKGROUND:Rusty Ruin - Act 2 - Background.PNG;
#LYRICSPATH:;
#CDTITLE:;
#MUSIC:Rusty Ruin Zone - Act 2.mp3;
#OFFSET:-0.100;
#SAMPLESTART:59.988;
#SAMPLELENGTH:12.000;
#SELECTABLE:YES;
#BPMS:0.000=100.020;
#STOPS:;
#BGCHANGES:;
// cache tags:
#FIRSTBEAT:0.000;
#LASTBEAT:240.000;
#SONGFILENAME:Songs/dragon force/Sonic 3D Blast (Saturn) - Rusty Ruin Zone - Act 2 (Crazylegz Edit)/Rusty Ruin - Act 2.sm;
#HASMUSIC:1;
#HASBANNER:1;
#MUSICLENGTH:150.081;
// end cache tags

//---------------dance-single - ----------------
#NOTES:
     dance-single:
     :
     Hard:
     9:
     0.452,0.396,0.280,0.127,0.187,414.000,42.000,19.000,0.000,4.000:
0000
0000
0000
0000
,
0000
0000
0000
0000
,
1001
0000
0000
0001
0100
0000
0001
0000
0000
0000
0100
0000
0101
0000
0000
0000
,
0001
0000
0000
0001
1000
0000
0100
0000
0000
0100
1000
0000
1100
0000
0000
0000
,
1000
0000
0000
0001
0100
0000
0001
0000
0000
0000
0100
0000
1001
0000
0000
0000
,
1000
0000
0000
0000
0000
0000
0000
0000
0000
0010
0000
0000
0100
0000
0000
0000
0000
0000
0010
0000
0000
0000
0000
0000
0000
0000
0000
0000
0000
0000
2000
0000
0000
0000
0000
0000
0010
0000
0000
0000
0010
0000
3000
0000
0000
0000
0000
0000
,
1010
0000
0000
1000
0010
0000
0100
0000
0000
0000
0001
0000
0101
0000
0000
0000
,
0011
0000
0000
0001
0010
0000
0100
0000
0000
1000
0100
0000
1100
0000
0000
0000
,
1001
0000
0000
1000
0010
0000
0100
0000
0000
0000
0010
0000
0110
0000
0000
0000
,
0101
0000
0000
0000
0000
0000
0000
0000
0000
0100
0000
0000
0001
0000
0000
0000
0000
0000
0010
0000
0000
0000
0000
0000
0000
0000
0000
0000
0000
0000
0002
0000
0000
0000
0000
0000
0010
0000
0000
0000
0010
0000
0003
0000
0000
0000
0000
0000
,
0010
0200
0000
1000
0300
1000
1001
0000
,
0001
0000
0000
1000
0001
0000
0100
0000
0000
0001
0100
0000
0001
0000
0010
0000
,
0100
2000
0001
3001
0000
1000
0001
0000
,
0100
0000
0000
0000
0000
0000
0000
0000
0000
0001
0000
0000
0100
0000
0000
0000
0000
0000
0001
0000
0000
0000
0000
0000
0000
0000
0000
0000
0000
0000
0200
0000
0000
0000
0000
0000
0010
0000
0000
0000
0010
0000
0300
0000
0000
0000
0000
0000
,
1000
0000
0100
0010
0001
0000
0100
0000
0000
0000
0001
0000
0101
0000
0000
0000
,
0001
0000
0000
1000
0010
0000
1000
0000
0000
1000
0010
0000
1000
0000
0001
0000
,
0100
0002
1000
1003
0000
0001
1001
0000
,
1000
0000
0000
0000
0000
0000
0000
0000
0000
0001
0000
0000
1000
0000
0000
0000
0000
0000
0001
0000
0000
0000
0000
0000
0000
0000
0000
0100
0000
0000
0002
0000
0000
0000
0000
0000
0100
0000
0000
0000
0103
0000
0000
0000
0000
0000
0000
0000
,
0001
1000
0001
0010
0001
1000
0001
0010
,
0001
0000
1000
0000
0010
0000
1000
0000
0001
0000
1000
0000
0010
0000
1000
0001
,
1000
0100
1000
0100
0000
1000
1100
0000
,
0011
0000
0000
0000
0000
0000
0000
0000
0000
0010
0000
0000
0001
0000
0000
0000
0000
0000
0010
0000
0000
0000
0000
0000
0000
0000
0000
0001
0000
0000
1000
0000
0000
0000
0000
0000
0001
0000
0000
0000
0001
0000
1000
0000
0000
0000
0000
0000
,
0001
1000
0010
0100
0001
1000
0010
0100
,
0001
0000
0010
0000
0100
0000
1000
0000
0001
0000
0010
0000
0100
1000
0100
1000
,
0001
0100
0001
0101
0000
1000
1100
0000
,
1001
0101
0011
0101
,
1002
1000
0003
1000
0000
0001
1000
0000
,
0010
0000
0000
1000
0010
0000
0100
0000
0000
0010
1000
0000
0001
0000
0010
0000
,
0100
2000
0010
3010
0000
1000
1010
0000
,
1100
0000
0000
0000
0000
0000
0000
0000
0000
1000
0000
0000
0001
0000
0000
0000
0000
0000
0010
0000
0000
0000
0000
0000
0000
0000
0000
1000
0000
0000
0002
0000
0000
0000
0000
0000
1000
0000
0000
0000
1000
0000
0003
0000
0000
0000
0000
0000
,
0001
0100
0001
1000
0001
0100
0001
1000
,
0010
0100
0010
0001
0010
0100
0001
0010
,
0100
2000
0001
3001
0000
1000
1001
0000
,
1000
0000
0000
0000
0000
0000
0000
0000
0000
0001
0000
0000
1000
0000
0000
0000
0000
0000
0001
0000
0000
0000
0000
0000
0000
0000
0000
0000
0000
0000
0001
0000
0000
0000
0001
0000
1000
0000
0000
0000
0001
0000
0010
0000
0000
0000
0100
0000
,
0010
0001
0100
0010
0100
0001
0100
0010
,
0100
0010
0100
0001
0100
0010
0100
1000
,
0100
0001
1000
0100
1000
0001
1000
0100
,
1000
0000
0000
0010
0000
0000
0100
0000
0000
0010
0000
0000
1000
0000
0000
0010
0000
0000
0100
0000
0100
0001
0000
0000
,
0010
0100
1000
0100
0010
0001
0010
0100
,
0100
0010
0001
1000
0001
0010
0010
0001
,
1000
0001
1001
1000
0001
0100
0101
0010
,
1001
0101
1001
1100
,
2001
3010
1000
0001
0000
0100
0101
0001
,
1000
0000
0010
1000
0100
0000
1000
0000
0000
0000
1000
0000
1100
0000
1000
0000
,
0100
0000
0010
0000
0001
0000
0100
0000
0000
0000
0001
0000
0100
0000
0010
0100
,
0010
0000
0000
0000
0000
0000
1000
0000
0000
0000
0000
0000
0100
0000
0000
0000
0000
0000
1000
0000
0000
0000
0000
0000
0000
0000
0000
0100
0000
0000
2000
0000
0000
0000
0000
0000
0100
0000
0000
0000
0100
0000
3000
0000
0000
0000
0000
0000
,
1000
0001
0100
0001
0000
1000
0100
0000
,
0001
0000
1000
0100
1000
0000
0100
0000
0000
0001
0100
0000
0001
0000
0000
0000
,
0101
0000
1001
0000
1000
0000
0010
0000
0000
0000
0100
0000
0001
0000
0010
0100
,
2000
0000
0000
0000
0000
0000
0000
0000
0000
0000
0000
0000
0001
0000
0000
0000
0000
0000
0001
0000
0000
0000
0000
0000
3000
0000
0000
0100
0000
0000
1000
0000
0000
0000
0000
0000
0001
0000
0000
0000
0001
0000
0000
0000
0000
0000
0000
0000
,
0100
0000
0001
0000
0100
0000
0010
0000
0100
0000
0001
0000
0100
0000
0010
0100
,
0001
0010
0001
1000
0001
0010
0001
1000
,
0001
0000
1000
0000
0010
0000
1000
0000
0001
0000
1000
0000
0010
0000
1000
0100
,
1000
0000
0000
0002
0000
0000
0200
0000
0000
0010
0000
1000
0010
0000
1313
0000
,
1000
0000
0001
0000
0100
0000
0010
0000
1000
0000
0010
0000
0100
0000
0010
1000
,
0100
1000
0001
1000
0100
0010
0001
0100
,
0102
0000
0000
1003
0000
0001
0010
0100
,
2100
0000
0000
0000
0000
0000
0000
0000
0000
3001
0000
0000
0000
0000
0000
0000
0000
0000
0100
0000
0100
0000
0000
0000
,
1010
0000
0000
0000
0000
0000
0000
0000
0000
1000
0000
0000
0010
0000
0000
0000
0000
0000
0100
0000
0000
0000
0000
0000
1001
0000
0000
0000
0000
0000
0000
0000
0000
0000
0000
0000
0000
0000
0000
0000
0000
0000
0001
0000
0000
0000
0001
0000
,
2000
0000
3000
0000
;

//---------------dance-single - ----------------
#NOTES:
     dance-single:
     :
     Medium:
     6:
     0.335,0.340,0.133,0.240,0.007,296.000,20.000,36.000,0.000,0.000:
0000
0000
0000
0000
,
0000
0000
0000
0000
,
1000
0001
0100
0001
0000
0100
0001
0000
,
0001
1000
0100
1000
0000
0100
1000
0000
,
1000
0010
0100
0010
0000
1000
0010
0000
,
1000
0001
0010
0001
0000
0010
0001
0000
,
1100
0000
1001
0000
0001
0100
0001
0100
,
0001
0000
1000
0000
0100
1000
0100
0010
,
0001
0000
0011
0000
0001
0010
0100
1000
,
0100
1000
0010
0110
,
2001
3001
0000
1000
0000
0001
0100
0000
,
0010
0000
1000
0000
0100
0000
1000
0100
,
0010
0002
0000
0100
0003
1000
0100
0000
,
1000
0010
0100
0001
,
0010
0001
0000
1000
0000
0001
0100
0000
,
0001
0000
1000
0000
0100
0000
1000
0010
,
0100
0002
0000
1000
0003
0010
0100
0000
,
1000
0000
1010
0000
1000
0001
0020
0000
,
0031
0020
0001
0000
0100
0000
0001
0000
,
0130
1000
0200
0000
1000
0000
0010
0000
,
1300
0001
0100
0001
0000
0100
0001
0000
,
1001
0000
1000
0000
0100
0000
0010
0001
,
0010
0200
1000
0000
0010
0000
1000
0000
,
0310
0001
0020
0000
0001
0000
0130
0010
,
0001
0010
0100
0000
1100
0000
1001
0000
,
0101
0000
1001
0000
1000
0010
0100
0001
,
1000
2000
0000
0001
3000
0001
0100
0000
,
0001
0002
0000
1000
0000
1003
0100
0010
,
0001
0010
0000
0010
0000
0001
0100
0000
,
0010
1000
0010
0100
0001
0100
0010
1000
,
0010
2000
0000
0001
3000
0001
0010
0000
,
0010
0002
0000
1000
0000
1003
0001
0100
,
0010
1000
0000
1001
0000
0001
1000
0000
,
1000
0100
0000
0010
0001
1000
0001
0100
,
0010
1000
0000
1010
0000
1000
0001
0000
,
0010
0001
0000
0011
0000
0001
1000
0000
,
1000
0001
1000
0001
0000
0100
0001
0000
,
1000
0010
1000
0010
0000
1000
0100
0020
,
0032
0023
0030
0001
0000
1000
0001
0000
,
1000
0010
0000
0100
0000
0001
1000
0200
,
0320
0032
0023
0030
0100
0000
1000
0000
,
0001
0100
0001
1000
0001
0100
0001
1000
,
0001
0100
0000
0001
0000
0001
0100
1000
,
0100
0001
0000
1000
0000
0100
1000
0100
,
0010
0001
0000
0010
0000
0001
1000
0010
,
0100
0110
1010
1100
,
1002
1003
0000
0001
0000
1000
0001
1000
,
0001
0100
0000
0001
0000
0100
0001
1000
,
0100
1000
0000
0100
0000
1000
0010
0000
,
0200
0302
0023
0230
,
1300
0020
0000
0000
0000
0000
0000
0130
,
0002
0023
0230
2300
,
3100
2000
0000
0000
0000
0000
0000
3100
,
1000
0000
0000
0010
0000
0000
0100
0000
0000
0001
0000
0000
0010
0000
0001
0000
,
1000
0200
0000
0000
0000
0000
0000
1300
,
0002
0000
0000
0000
0000
0000
0000
0103
,
0200
0000
0000
0020
0000
0000
0330
0000
,
1010
0000
0000
0101
0000
0000
0001
0000
,
1000
0000
0100
0000
2000
0000
0000
0100
,
0200
0000
0000
0000
,
3300
0000
0000
0000
;

//---------------dance-single - Copied from----------------
#NOTES:
     dance-single:
     Copied from:
     Easy:
     4:
     0.197,0.216,0.040,0.113,0.007,184.000,6.000,17.000,0.000,0.000:
0000
0000
0000
0000
,
0000
0000
0000
0000
,
1000
0001
0001
0001
,
1001
1000
1000
1000
,
1010
0010
0010
0010
,
1000
0001
0100
0001
,
0100
0001
0010
0100
,
1000
1000
0100
1000
,
0001
0001
0001
0010
,
0100
1000
0010
1000
,
0002
0000
1003
0001
,
0010
0000
1000
0010
,
0200
0000
0310
0010
,
1010
0000
0100
0001
,
0010
0001
1000
0001
,
0001
1000
0100
1000
,
1000
0001
0100
0010
,
1000
0010
1000
0001
,
0010
0002
0000
0000
0000
0000
0000
0000
,
0200
0000
0000
0303
,
1000
0001
0100
0010
,
1000
0000
0100
0000
0010
0000
0000
0001
,
0010
0200
0000
0000
0000
0000
0000
0000
,
2000
0000
0000
3300
,
1000
0010
0100
0001
,
0001
0010
1000
0010
,
0001
1000
0000
0000
0001
0000
0001
0000
,
0001
0000
1000
1000
,
1000
0010
0001
0010
,
1000
0100
0010
0001
,
1000
0001
0000
0000
0010
0000
0001
0000
,
0010
0000
0100
1000
,
0100
1000
0001
0001
,
1000
0100
0010
0010
,
0001
2000
0000
0000
0000
0000
0000
0000
,
0002
0000
0000
3003
,
1000
0001
0100
0101
,
0100
0000
0010
0000
1000
0000
0000
0100
,
1000
0200
0000
0000
0000
0000
0000
0000
,
0020
0000
0000
0330
,
0010
0001
0100
0010
,
1000
0001
1000
0001
,
1000
0100
0000
0000
0001
0000
0001
0000
,
0100
0000
1000
1000
,
0100
0000
0010
0001
,
0010
0010
0100
1000
,
0001
0100
0000
0000
0001
0000
1000
0000
,
0100
0000
1000
0001
,
0100
1000
0100
0010
,
0200
0300
0020
0030
,
1000
0020
0000
0000
0000
0000
0000
0000
,
2000
0000
0000
3030
,
1000
0200
0000
0000
0000
0000
0300
0010
,
0001
0000
0000
0001
0000
0000
0001
0000
0000
0001
0000
0000
0001
0000
0000
0000
,
1000
0200
0000
0000
0000
0000
0000
0000
,
2000
0000
0000
0000
3300
0000
0000
0100
,
1000
0000
0000
0001
0000
0000
0000
0000
,
0101
0000
0000
1000
0000
0000
0000
0000
,
0010
0100
1000
0000
,
1001
0000
0000
0000
;

//---------------dance-single - ----------------
#NOTES:
     dance-single:
     :
     Challenge:
     10:
     0.584,0.654,0.300,0.073,0.453,558.000,45.000,11.000,10.000,4.000:
1000
1000
0001
0001
0100
0100
0010
0010
,
1000
1000
0100
0100
0010
0010
0001
0001
,
0012
0100
1000
0100
0013
0001
0001
1000
,
0020
1000
0100
0001
0130
0010
0010
1000
,
0200
1000
0010
0001
0010
1000
1300
0001
,
1000
0000
0000
0001
0000
0000
0100
0000
0000
0010
0000
0000
1000
0000
0000
0010
0000
0000
0100
0000
0100
0000
0000
0000
,
0001
0010
0001
0100
1000
0100
0001
0010
,
0001
1000
0010
0100
1000
0001
0010
0100
,
0001
0001
1000
1000
0010
0010
0100
0100
,
0001
1000
0010
0100
0001
1000
0010
0100
,
1001
0000
1000
0000
0000
0001
1000
0000
1000
0001
0000
0001
1000
0000
0000
0000
0000
0001
0010
0000
0010
0001
0000
0001
,
0010
0000
0000
0000
0000
0001
0010
0000
0010
0100
0000
0100
1000
0000
1000
0010
0000
0010
1000
0000
1000
0010
0000
0010
,
0100
0000
0000
0000
0000
0001
0100
0000
0010
1000
0000
0100
1000
0000
0000
0000
0000
1000
0100
0000
0010
0001
0000
0100
,
0001
0000
0000
0000
0000
0100
0010
0000
1000
0001
0000
0010
0100
0000
1000
0100
0000
0010
0001
0000
0100
0010
0000
0010
,
0100
0000
0000
0000
0000
0100
0001
0000
1000
0001
0000
0010
1000
0000
0000
0000
0000
0010
0001
0000
0100
0010
0000
1000
,
0001
0000
0000
0000
0000
1000
0010
0000
0100
0001
0000
0010
0001
0000
0001
0010
0000
0010
0100
0000
0100
1000
0000
1000
,
0001
0000
0000
0000
0000
0100
0010
0000
0010
0100
0000
0100
0001
0000
0000
0000
0000
1000
0010
0000
0001
0010
0000
0100
,
0001
0000
0000
0000
0000
0010
0001
0000
1000
0100
0000
0001
0100
0000
0000
1000
0000
0000
0010
0000
0000
0100
0000
0000
,
0101
0101
0010
0100
1000
0100
0010
1000
,
1100
0000
0110
0000
0010
0000
0001
0000
0010
0000
0100
0000
1000
0000
0100
1000
,
0001
0000
0000
0100
0000
0000
0010
0000
0000
1000
0000
0000
0000
0000
0001
0100
0000
0001
1000
0000
0000
0000
0000
0010
,
0100
0000
0010
1000
0000
0000
0000
0000
0010
1000
0000
0010
0100
0000
0001
0010
0000
0010
0001
0000
0001
0000
0000
0000
,
0100
1000
0100
0010
1000
0100
0110
0100
,
1000
0010
0001
0010
0100
0001
0011
0100
,
1000
0001
0010
1000
0010
0001
0101
0100
,
0001
0010
1001
0100
0011
1000
0110
0001
,
1100
0000
0000
0010
0000
0000
1001
0000
0000
0100
0000
0000
0000
0000
0000
0001
0000
0000
0010
0000
0010
0100
0000
0100
,
1000
0000
1000
0100
0000
0000
0010
0000
0000
0001
0000
0000
0000
0000
0000
0100
0000
0000
0101
0000
0000
1000
0000
0000
,
1010
0000
0000
0010
0000
0000
0220
0000
0000
0001
0000
0000
0330
0000
0000
1000
0000
0000
1001
0000
0001
1000
0000
1000
,
0001
0000
0001
0100
0000
0000
0001
0000
0000
0101
0000
0000
0000
0000
0001
1000
0000
0000
0010
0000
0010
0000
0000
0000
,
1000
0000
0000
0010
0000
0000
0100
0000
0000
0010
0000
0010
1000
0000
1000
0010
0000
0000
0100
0000
0000
0001
0000
0000
,
0010
0000
0000
0001
0000
0000
1000
0000
0000
0100
0000
0001
0100
0000
0100
0001
0000
0000
0100
0000
0000
1000
0000
0000
,
0001
0000
0000
0100
0000
0000
0010
0000
0000
1000
0000
0010
1000
0000
1000
0010
0000
0000
1010
0000
0000
0100
0000
0000
,
0001
0000
0000
0010
0000
0000
0100
0000
0000
0010
0000
0001
0010
0000
0010
0001
0000
0000
0012
0000
0010
0000
0000
0000
,
1003
0010
0100
0001
0100
0010
1000
0010
,
0100
0000
0001
0000
0010
0000
0001
0000
0100
0000
0010
0000
1000
0000
0001
0100
,
0001
0000
0000
0010
0000
0000
0100
0000
0000
1100
0000
0000
0000
0000
0000
0001
0000
0000
1001
0000
0001
1000
0000
0010
,
1000
0000
0000
0010
0000
0000
0100
0000
0000
0101
0000
0000
0000
0000
0001
0010
0000
0000
0100
0000
0100
0000
0000
0000
,
1000
0010
0100
0001
0010
0001
1000
0001
,
0010
0000
0000
0100
0000
0000
1000
0000
0000
0010
0000
0000
0100
0000
0000
0010
0000
0000
1000
0000
0010
0100
0000
0100
,
0001
0100
0001
0011
0000
0100
1001
0000
,
1010
0010
0110
0100
0101
0001
1001
1000
,
1100
0000
0000
0100
0000
0000
0010
0000
0000
0001
0000
0000
0000
0000
0001
1000
0000
1000
0100
0000
0000
0010
0000
0000
,
0100
0000
0000
1000
0000
0000
0001
0000
0000
1000
0000
0000
0000
0000
1000
0010
0000
0010
0100
0000
0000
0001
0000
0000
,
0010
0000
0000
0000
0000
0000
0001
0000
0000
0000
0000
0000
1000
0000
0000
0000
0000
0000
1100
0000
0000
0000
0000
0000
0000
0000
0000
0000
1000
0000
0100
0000
0000
0000
0100
0000
0010
0000
0000
0000
0000
0000
0001
0000
0000
1000
0000
0000
,
0001
0000
0000
0010
0000
0000
0100
0000
0000
0110
0000
0000
0000
0000
0100
1000
0000
0000
0010
0000
0010
0000
0000
0000
,
1000
0000
0010
0100
0000
0100
0001
0000
0001
0010
0000
0010
0100
0000
0100
1000
0000
1000
0001
0000
0001
0100
0000
0100
,
0010
0000
0010
1000
0000
0001
0100
0000
0010
0001
0000
0010
1000
0000
0100
0010
0000
0001
1000
0000
0100
0010
0000
1000
,
0010
0000
0001
0010
0000
0100
1000
0000
0010
0100
0000
0001
0010
0000
0100
1000
0000
0010
0001
0000
1000
0100
0000
0001
,
1000
0000
0100
0010
0000
0001
1000
0000
1000
0010
0000
0010
0100
0000
0100
0001
0000
0000
1000
0000
1000
0000
0000
0000
,
0110
0000
0101
0000
0001
0000
0010
0000
0001
0000
0100
0000
0010
0000
1000
0001
,
0100
0001
0010
0100
1000
0001
1000
1000
,
1100
0000
0110
0000
0001
0000
1000
0000
0001
0000
0010
0000
0100
0000
0001
0100
,
1000
0000
1000
0010
0000
0010
0100
0000
0100
0001
1000
0010
1000
0000
0010
0000
,
0110
0000
1010
0000
1000
0000
0100
0000
0010
0000
0001
0000
1000
0000
0001
0010
,
0100
1000
0010
0001
0010
1000
0110
1010
,
2M02
0000
00M0
0000
0000
0000
0M10
0000
3003
0000
0000
0000
0202
00M0
M000
0000
,
1000
0000
0000
00M0
0000
0000
M000
0000
0000
0000
0000
0000
00M0
0000
0000
0000
0000
0000
0010
0000
0000
M000
0000
0000
03M3
0000
0000
0000
0000
0000
0000
0000
0000
0000
0000
0000
0010
0000
0000
0000
0010
0000
0000
0000
0000
0000
0000
0000
,
1000
0000
0000
0000
0000
0000
0000
0000
0000
0001
0000
0000
0101
0000
0000
0000
0000
0000
0010
0000
0000
0000
0000
0000
1001
0000
0000
0000
0000
0000
0000
0000
0000
0000
0000
0000
0000
0000
0000
0000
0000
0000
0010
0000
0000
0000
1000
0000
,
0002
0000
0003
0000
;
