#TITLE:Dark Demon's Song;
#SUBTITLE:Dynamite Headdy;
#ARTIST:Katsuhiku Suzuki;
#TITLETRANSLIT:;
#SUBTITLETRANSLIT:;
#ARTISTTRANSLIT:;
#CREDIT:Kairon;
#BANNER:Dark Demon's Song-banner.png;
#BACKGROUND:Dark Demon's Song-bg.png;
#LYRICSPATH:;
#CDTITLE:!Kairon-cdtitle.png;
#MUSIC:25-dark-demon-s-song.mp3;
#OFFSET:-0.406;
#SAMPLESTART:43.924;
#SAMPLELENGTH:12.000;
#SELECTABLE:YES;
#BPMS:0.000=112.572,1.000=112.572,2.000=112.572,3.000=112.572,4.000=112.572,5.000=112.572,6.000=112.572,7.000=112.572,8.000=112.572,9.000=112.572,10.000=112.572,11.000=112.572,12.000=112.572,13.000=112.572,14.000=112.572,15.000=112.572,16.000=112.572,17.000=112.572,18.000=112.572,19.000=112.572,20.000=112.572,21.000=112.572,22.000=112.572,23.000=112.572,24.000=112.572,25.000=112.572,26.000=112.572,27.000=112.572,28.000=112.572,29.000=112.572,30.000=112.572,31.000=112.428,32.000=125.166,33.000=125.160,34.000=125.160,35.000=125.160,36.000=120.131,37.000=119.739,38.000=119.739,39.000=119.739,40.000=119.739,41.000=119.739,42.000=119.739,43.000=119.739,44.000=119.739,45.000=119.739,46.000=119.739,47.000=119.739,48.000=119.739,49.000=119.739,50.000=119.739,51.000=119.739,52.000=119.739,53.000=119.739,54.000=119.739,55.000=119.739,56.000=119.739,57.000=119.739,58.000=119.739,59.000=119.739,60.000=119.739,61.000=119.739,62.000=119.739,63.000=119.739,64.000=119.739,65.000=119.739,66.000=119.739,67.000=119.739,68.000=119.739,69.000=119.626,70.000=239.739,71.000=239.739,72.000=239.739,73.000=239.739,74.000=239.739,75.000=239.739,76.000=239.739,77.000=239.739,78.000=239.739,79.000=239.739,80.000=239.739,81.000=239.739,82.000=239.739,83.000=239.739,84.000=239.739,85.000=239.739,86.000=239.739,87.000=239.739,88.000=239.739,89.000=239.739,90.000=239.739,91.000=239.739,92.000=239.739,93.000=239.739,94.000=239.739,95.000=239.739,96.000=239.739,97.000=239.739,98.000=239.739,99.000=239.739,100.000=239.739,101.000=239.739,102.000=239.739,103.000=239.739,104.000=239.739,105.000=239.739,106.000=239.739,107.000=239.739,108.000=239.739,109.000=239.739,110.000=239.739,111.000=239.739,112.000=239.739,113.000=239.739,114.000=239.739,115.000=239.739,116.000=239.739,117.000=239.739,118.000=239.739,119.000=239.739,120.000=239.739,121.000=239.739,122.000=239.739,123.000=239.739,124.000=239.739,125.000=239.739,126.000=239.739,127.000=239.739,128.000=239.739,129.000=239.739,130.000=239.739,131.000=239.739,132.000=239.739,133.000=239.739,134.000=239.739,135.000=239.739,136.000=239.739,137.000=239.739,138.000=239.739,139.000=239.739,140.000=239.739,141.000=239.739,142.000=239.739,143.000=239.739,144.000=239.739,145.000=239.739,146.000=239.739,147.000=239.739,148.000=239.739,149.000=239.739,150.000=239.739,151.000=239.739,152.000=239.739,153.000=239.544,154.000=119.842,155.000=119.842,156.000=119.842,157.000=119.842,158.000=119.842,159.000=119.842,160.000=119.842,161.000=119.837,162.000=239.761,163.000=239.761,164.000=239.761,165.000=239.761,166.000=239.761,167.000=239.761,168.000=239.761,169.000=239.761,170.000=239.761,171.000=239.761,172.000=239.761,173.000=239.761,174.000=239.761,175.000=239.761,176.000=239.761,177.000=239.500,178.000=119.940,179.000=119.940,180.000=119.940,181.000=119.940,182.000=119.940,183.000=119.940,184.000=119.940,185.000=119.940,186.000=239.219,187.000=239.219,188.000=239.219,189.000=239.219,190.000=239.219,191.000=239.219,192.000=239.219,193.000=239.219,194.000=239.219,195.000=239.219,196.000=239.219,197.000=239.219,198.000=239.219,199.000=239.219,200.000=239.219,201.000=239.068,202.000=239.869,203.000=239.869,204.000=239.869,205.000=239.869,206.000=239.869,207.000=239.869,208.000=239.869,209.000=239.869,210.000=239.869,211.000=239.869,212.000=239.869,213.000=239.869,214.000=239.869,215.000=239.869,216.000=239.869,217.000=239.869,218.000=239.869,219.000=239.869,220.000=239.869,221.000=239.869,222.000=239.869,223.000=239.869,224.000=239.869,225.000=239.869,226.000=239.869,227.000=239.869,228.000=239.869,229.000=239.869,230.000=239.869,231.000=239.869,232.000=239.869,233.000=239.869,234.000=239.869,235.000=239.869,236.000=239.869,237.000=239.869,238.000=239.869,239.000=239.869,240.000=239.869,241.000=239.869,242.000=239.869,243.000=239.869,244.000=239.869,245.000=239.869,246.000=239.869,247.000=239.869,248.000=239.869,249.000=239.869,250.000=239.869,251.000=239.869,252.000=239.869,253.000=239.869,254.000=239.869,255.000=239.869,256.000=239.869,257.000=239.869,258.000=239.869,259.000=239.869,260.000=239.869,261.000=239.068,262.000=251.808,263.000=251.808,264.000=251.808,265.000=251.736,266.000=257.293,267.000=257.293,268.000=257.293,269.000=257.293,270.000=257.293,271.000=257.293,272.000=257.293,273.000=257.293,274.000=257.293,275.000=257.293,276.000=257.293,277.000=257.293,278.000=257.293,279.000=257.293,280.000=257.293,281.000=257.293,282.000=257.293,283.000=257.293,284.000=257.293,285.000=257.293,286.000=257.293,287.000=257.293,288.000=257.293,289.000=257.168,290.000=257.243,291.000=257.243,292.000=257.243,293.000=257.243,294.000=257.243,295.000=257.243,296.000=257.243,297.000=257.243,298.000=257.243,299.000=257.243,300.000=257.243,301.000=257.243,302.000=257.243,303.000=257.243,304.000=257.243,305.000=257.243,306.000=257.243,307.000=257.243,308.000=257.243,309.000=257.243,310.000=257.243,311.000=257.243,312.000=257.243,313.000=257.243,314.000=257.243,315.000=257.243,316.000=257.243,317.000=257.243,318.000=257.243,319.000=257.243,320.000=257.243,321.000=257.243,322.000=257.243,323.000=257.243,324.000=257.243,325.000=257.243,326.000=257.243,327.000=257.243,328.000=257.243,329.000=257.243,330.000=257.243,331.000=257.243,332.000=257.243,333.000=257.243,334.000=257.243,335.000=257.243,336.000=257.243,337.000=256.968,338.000=257.118,339.000=257.118,340.000=257.118,341.000=257.118,342.000=257.118,343.000=257.118,344.000=257.118,345.000=257.118,346.000=257.118,347.000=257.118,348.000=257.118,349.000=257.118,350.000=257.118,351.000=257.118,352.000=257.118,353.000=257.118,354.000=257.118,355.000=257.118,356.000=257.118,357.000=257.118,358.000=257.118,359.000=257.118,360.000=257.118,361.000=257.118,362.000=257.118,363.000=257.118,364.000=257.118,365.000=257.118,366.000=257.118,367.000=257.118,368.000=257.118,369.000=256.893,370.000=263.074,371.000=263.048,372.000=126.967,373.000=261.773,374.000=261.773,375.000=261.773,376.000=261.773,377.000=261.773,378.000=261.773,379.000=261.773,380.000=261.773,381.000=261.773,382.000=261.773,383.000=261.773,384.000=261.773,385.000=261.773,386.000=261.773,387.000=261.773,388.000=261.773,389.000=261.773,390.000=261.773,391.000=261.773,392.000=261.773,393.000=261.773,394.000=261.773,395.000=261.773,396.000=261.773,397.000=261.773,398.000=261.773,399.000=261.773,400.000=261.773,401.000=261.773,402.000=261.075,403.000=131.178,404.000=261.488,405.000=261.488,406.000=261.488,407.000=261.488,408.000=261.488,409.000=261.488,410.000=261.488,411.000=261.488,412.000=261.488,413.000=261.488,414.000=261.488,415.000=261.488,416.000=261.488,417.000=261.488,418.000=261.488,419.000=261.488,420.000=261.488,421.000=261.488,422.000=261.488,423.000=261.488,424.000=261.488,425.000=261.488,426.000=261.488,427.000=261.488,428.000=261.488,429.000=261.488,430.000=261.488,431.000=260.947,432.000=260.947;
#STOPS:;
#BGCHANGES:70.000=Alt backgroundimage.jpg=1.000=1=0=1,
432.000=Dark Demon's Song-bg.png=1.000=1=0=1,
99999=-nosongbg-=1.000=0=0=0 // don't automatically add -songbackground-
;
// cache tags:
#FIRSTBEAT:0.000;
#LASTBEAT:432.000;
#SONGFILENAME:Songs/KBU/Dark Demon's Song (Kairon)/Dark Demon's Song.sm;
#HASMUSIC:1;
#HASBANNER:1;
#MUSICLENGTH:139.859;
// end cache tags

//---------------dance-single - ----------------
#NOTES:
     dance-single:
     :
     Hard:
     13:
     1.000,1.000,1.000,1.000,0.572,831.000,231.000,217.000,0.000,0.000:
0100
1000
0010
0100
0001
0020
0000
0000
0000
0000
0000
0000
0000
0000
0000
0030
,
0001
0000
0010
0000
0100
0000
2000
0000
0000
0000
0000
0000
0000
0000
0000
0000
0000
0000
0000
0000
0000
0000
0000
0000
0010
0000
0000
0001
0000
0000
0000
0000
0000
0010
0000
0000
0001
0000
0000
0010
0000
0000
0001
0000
0000
3000
0000
0000
,
0010
0001
0100
0010
1000
0200
0000
0000
0000
0000
0000
0000
0000
0000
0000
0300
,
1000
0000
0100
0000
0010
0000
0002
0000
0000
0000
0000
0000
0000
0000
0000
0000
0000
0000
0000
0000
0000
0000
0000
0000
0000
0000
0000
0000
0000
0000
0000
0000
0000
0000
0000
0000
0000
0000
0000
0000
0000
0000
0000
0000
0000
0003
0000
0000
,
1001
0100
0010
0001
1000
0100
0010
0001
1000
0100
0010
0001
1000
0100
0010
0001
,
1100
0010
0100
0001
1000
0010
0100
0001
1000
0010
0100
0001
1000
0010
0100
0001
,
1001
0010
0100
1000
0001
0010
0100
1000
0001
0010
0100
1000
0001
0010
0100
1000
,
1001
0100
0010
1000
0001
0100
0010
1000
0001
0100
0010
1000
0001
0100
0010
1000
,
0001
0000
0000
0000
0000
0000
0000
0000
0000
0000
0000
0000
0010
0000
0000
0000
0000
0000
0000
0000
0000
0000
0000
0000
0100
0000
0000
0000
0000
0000
0000
0000
0000
0000
0000
0000
1000
0000
0000
0000
0000
0000
0000
0000
0000
0000
0000
0000
0100
0000
0000
0000
0000
0000
0000
0000
0000
0000
0000
0000
0010
0000
0000
0000
0000
0000
0000
0000
0000
0000
0000
0000
0001
0000
0000
0000
0000
0000
0000
0000
0000
0000
0000
0000
0010
0000
0000
0000
0000
0000
0000
0000
0000
0000
0000
0000
1000
0000
0000
0000
0000
0000
0100
0000
0000
0000
0000
0000
0010
0000
0000
0000
0000
0000
0001
0000
0000
0000
0000
0000
0010
0000
0000
0000
0100
0000
0000
0000
1000
0000
0000
0000
0100
0000
0000
0000
0010
0000
0000
0000
0001
0000
0000
0000
0010
0000
0000
0000
0100
0000
0000
0000
0000
0000
0000
0000
0000
0000
0000
0000
0000
0000
0000
0000
0000
0000
0000
0000
0000
0000
0000
0000
0000
0000
0000
0000
0000
0000
0000
0000
0000
0000
0000
0000
0000
0000
0000
0000
0000
0000
0000
0000
,
1000
0000
1000
0011
0000
0000
1000
0000
1000
0101
0000
0010
,
0001
0000
0010
0000
0100
0000
1001
0000
0100
0010
0100
0000
2000
0000
0000
0000
0000
3000
0201
0000
0000
0000
0000
0300
,
1001
0000
0010
0000
0001
0000
0010
0001
0010
0001
0010
0000
2000
0000
0000
0000
0000
3000
0011
0000
0000
0000
0000
0000
,
1000
0000
1100
0000
0110
0000
0011
0000
1000
0100
1000
0000
0022
0000
0000
0000
0000
0033
0220
0000
0000
0000
0000
0330
,
0011
0000
1000
0000
0100
0000
1000
0100
1000
0100
1000
0000
0220
0000
0000
0000
0000
0330
1001
0000
0000
0000
0000
0000
,
1001
0000
1010
0000
1100
0000
1001
0000
0000
0000
2200
0000
0000
0000
0000
0000
0000
3300
0011
0000
0000
0000
0000
0000
,
1001
0000
0101
0000
0011
0000
1001
0000
0000
0000
0022
0000
0000
0000
0000
0000
0000
0033
1100
0000
0000
0110
0000
0000
,
0011
0001
0001
1001
0000
0000
1000
0100
0010
1001
0000
0000
,
1001
0000
1000
0000
1000
0000
1001
0000
0000
0000
0000
0000
1001
0000
0000
0100
0000
0000
1001
0000
0000
0100
0000
0000
,
1001
1100
1001
0011
1000
1000
1001
1000
,
1001
0100
0010
0001
0110
1000
1000
0101
,
1000
1000
0110
1000
0001
1000
0011
1000
,
0110
0000
1000
0000
0100
0000
0010
0000
1001
0000
1000
0100
0010
0000
1000
0000
,
0100
0010
1001
1001
1001
0100
0010
0100
,
1000
0100
0011
0110
1100
1010
0110
1010
,
1100
0110
0011
0110
2020
0000
3030
0220
,
0000
0000
0330
0000
0101
0000
0100
0000
1000
0000
0100
0010
0100
0000
1000
0000
,
1000
0100
0100
0010
0022
0033
1100
1100
,
0100
0010
0022
0033
1100
1100
0100
0010
,
0011
0110
1100
0110
0010
0100
0022
0033
,
1100
0000
1100
0000
0100
0000
0010
0000
0001
0000
0010
0001
0010
0000
0100
0000
,
0100
1000
0022
0033
1001
0010
0100
0010
,
0001
0010
1100
0110
0011
0101
0110
0101
,
0011
0110
1100
0110
0202
0000
0303
0220
,
0000
0000
0330
0000
1010
0000
0010
0000
1000
0000
0100
0010
0100
0000
1000
0000
,
1000
0100
0100
0010
2200
3300
0011
0011
,
0010
0100
2200
3300
0011
0011
0010
0100
,
1100
1010
0110
0101
0011
0101
0110
0011
,
0101
0000
0110
0000
1010
0000
1100
0000
1001
0000
1000
0001
1000
0000
0110
0000
,
2002
0000
3003
0000
2002
0000
3003
0000
1010
0100
0010
0002
0003
0020
0030
0001
,
2020
3030
0220
0330
0202
0303
2002
3003
0101
0010
0100
2000
3000
0200
0300
0010
,
0202
0303
0022
0033
2002
3003
2200
3300
2000
0000
0100
0000
0010
0000
0001
0000
,
0010
0001
0010
3100
0011
0110
0011
2100
,
0010
0000
0001
0000
0010
0000
3100
0000
0001
0010
0100
0010
0100
1000
0010
1000
,
0100
0010
0001
0010
0100
0010
0100
1000
0220
0000
0000
0000
0000
0000
0330
0000
,
2002
0000
3003
0000
0100
0000
0010
0000
1000
0010
0100
0002
0003
0200
0300
0001
,
0220
0330
2200
3300
2020
3030
0022
0033
0001
0100
0010
2000
3000
0200
0300
0001
,
2200
3300
2020
3030
2002
3003
0202
0303
0002
0000
0100
0000
0010
0000
0100
0000
,
1000
0100
0010
0103
1010
1100
1010
0102
,
0010
0000
1000
0000
0100
0000
0013
0000
1000
0100
0010
0100
0010
0001
1000
0100
,
0010
0001
0010
0100
0010
0100
0010
0100
2020
0000
0000
0000
0000
0000
3030
0000
,
0202
0303
0010
1000
0011
0100
0000
1000
,
0110
1000
0000
0010
0101
0010
0000
0100
,
1001
0100
0100
0100
0011
0100
0000
0010
,
0101
0010
0000
0001
0110
0001
0000
1000
,
0011
1000
1000
1000
2000
3020
0230
0302
,
1000
0023
0032
0203
0320
0230
2300
3002
,
0100
0023
2030
0100
3002
0203
0320
2030
,
0001
3200
2300
3020
0230
0320
0032
2003
,
0010
3200
0302
0013
1010
0100
0000
0001
,
0110
0001
0000
0010
1100
0010
0000
0100
,
1001
0100
0100
0100
1010
0100
0000
0010
,
1100
0010
0000
1000
0110
1000
0000
0001
,
1010
0001
0001
0001
2000
3020
2030
3200
,
0010
0000
0302
0023
0230
0000
2300
0000
3020
0000
0230
0000
0320
0000
2030
0000
,
0100
3002
0203
1000
0302
0203
0302
0023
,
0100
0000
2030
3200
0320
0000
0032
0000
0013
0000
0100
0000
0010
0000
0100
0000
,
1000
0000
0000
0100
0000
0000
1000
0000
0001
0000
1000
0000
0011
0000
0000
0011
0000
0000
1100
0000
0000
1100
0000
0000
,
0010
1100
0001
1100
0010
0200
0300
1000
,
0100
0010
1100
1100
0001
1100
0010
1100
,
0010
0200
0300
0100
1000
0010
0011
0011
,
1000
0011
0100
0011
1000
0200
0300
0010
,
0001
0100
0011
0011
1000
0011
0100
0011
,
1000
0200
0300
0010
2001
0000
0001
0000
,
0001
0000
0000
0000
0000
0000
0001
0000
0000
3000
0000
0000
0202
0000
0303
0000
0022
0000
0033
0000
0202
0000
0303
0000
,
1001
0100
0011
0200
0001
0000
0001
0000
,
0001
0300
0000
0000
0011
0100
1001
0100
,
0001
1000
0011
0100
1001
0100
0010
1000
,
0201
0001
0001
0001
,
0001
0000
0000
0300
1002
0000
1000
0000
,
1000
0000
0000
0000
0000
0000
1000
0000
0000
0003
0000
0000
2020
0000
3030
0000
2200
0000
3300
0000
2020
0000
3030
0000
,
1001
0010
1100
0020
1000
0000
1000
0000
,
1000
0030
0000
0000
1001
0010
1100
0010
,
1000
0100
1010
0001
1010
0001
0010
0100
,
1002
1000
1000
1000
,
1000
0003
0100
0010
0100
1000
0100
0020
,
0030
1000
0100
0002
0003
1000
0100
0020
,
0030
0100
0010
0001
1000
0001
0010
0200
,
0300
0010
0100
1000
1100
1002
0013
0100
,
1010
0001
0010
0001
0010
0000
1000
0000
0100
0000
1000
0000
0100
0000
0020
0000
,
0030
1000
0100
0002
0003
1000
0100
0020
,
0030
0100
0010
0001
1000
0001
0010
0200
,
0300
0010
0100
1000
1100
1002
0013
0100
,
1010
0001
0010
0001
0010
0000
0100
0000
1000
0000
1000
0000
1000
0000
1000
0000
,
0202
0000
0000
0303
1000
0100
1000
0000
0100
0000
0010
0100
0010
0000
0100
0000
,
1000
0100
0010
0001
0100
0010
2200
0000
0000
0000
0000
0000
0000
0000
0000
3300
0000
0000
2020
0000
0000
0000
0000
0000
,
0000
3030
0202
0303
0022
0033
1100
1010
,
0101
0011
2000
3020
0230
0302
0023
0230
,
2300
3010
0202
0000
0000
0303
2020
0000
,
0000
3030
1000
0100
0010
1000
0100
0010
,
0100
0000
0000
0001
0000
0000
0001
0000
0010
0000
0100
0000
0010
0000
0100
0000
1000
0000
0001
0000
0100
0000
0010
0000
,
0100
0000
0000
0000
0010
0000
0000
0000
1000
0000
0000
0000
0001
0000
0000
0000
0000
0000
0001
0000
0000
0000
0000
0000
0001
0000
0000
0000
0000
0000
0001
0000
0000
0000
0000
0000
2020
0000
0000
0000
0000
0000
0000
0000
0000
3030
0000
0000
,
0001
0000
0000
0010
0000
0000
0100
0000
0000
0000
0000
0000
0001
0000
0000
0000
0000
0000
0010
0000
0000
0100
0000
0000
1000
0000
0000
0000
0000
0000
0010
0000
0000
0000
0000
0000
0001
0000
0010
0000
0100
0000
1000
0000
0010
0000
0100
0000
,
0022
0000
0000
0033
0202
0000
0000
0303
,
2020
3030
2200
3300
0011
0101
1010
1100
,
0002
2003
3200
0320
2030
3002
0203
0310
,
2002
0000
0000
3003
0220
0000
0000
0330
,
2002
0000
0000
0000
,
0000
0000
0000
0000
,
3003
0000
0000
0000
;
