#TITLE:A Mid Summer Night's Groove;
#SUBTITLE:;
#ARTIST:Nobuyuki;
#TITLETRANSLIT:;
#SUBTITLETRANSLIT:;
#ARTISTTRANSLIT:;
#CREDIT:Crazylegz;
#BANNER:Summer Night's Groove - Banner.PNG;
#BACKGROUND:Summer Night's Groove - Background.PNG;
#LYRICSPATH:;
#CDTITLE:;
#MUSIC:Nobuyuki - A Mid Summer Night's Groove.mp3;
#OFFSET:-0.048;
#SAMPLESTART:50.000;
#SAMPLELENGTH:12.000;
#SELECTABLE:YES;
#BPMS:0.000=120.000;
#STOPS:;
#BGCHANGES:;
// cache tags:
#FIRSTBEAT:4.000;
#LASTBEAT:227.500;
#SONGFILENAME:Songs/mongol/A Mid Summer Night's Groove (Crazylegz Edit)/A Mid Summer Night's Gtoove.sm;
#HASMUSIC:1;
#HASBANNER:1;
#MUSICLENGTH:113.688;
// end cache tags

//---------------dance-single - ----------------
#NOTES:
     dance-single:
     :
     Hard:
     7:
     0.435,0.443,0.290,0.167,0.079,294.000,33.000,19.000,0.000,0.000:
0000
0000
0000
0000
,
1000
0000
0001
0000
0100
0000
0010
1000
,
2000
0000
0000
0000
,
3001
0010
0011
1001
,
1100
1000
0010
0100
0001
0100
0010
0001
,
0010
1000
0100
0010
,
0001
0010
0100
1000
0100
0010
0100
1000
,
0100
0000
1000
0000
0010
0000
0100
0001
,
1000
0000
0100
0000
0010
0000
0100
0010
0000
0100
0010
0000
0001
0000
0100
0000
,
0010
0000
0000
0010
0000
0000
0000
0000
0000
0000
0000
0000
1010
0000
0000
0000
,
1000
0000
0100
1000
0100
0000
1000
0010
0000
0100
0001
0000
0010
0000
0100
0000
,
2200
0000
0000
3300
0000
0000
0010
0100
,
1000
0000
0001
1000
0001
0000
1000
0010
0000
1000
0001
0000
1000
0000
0001
0000
,
0010
0000
0000
0010
0000
0000
0000
0000
0000
0000
0000
0000
0011
0000
0000
0000
,
0001
0000
0010
0100
1000
0000
0100
0010
0000
0100
1000
0000
0001
0000
0100
0000
,
0102
0000
0000
1003
,
1000
0010
0100
0001
0010
0001
0010
1000
,
0010
0100
0001
0100
0010
0001
0100
1000
,
0100
0010
1000
0001
0010
0100
1000
0001
,
2000
0001
0010
3001
,
1001
0010
1001
0100
,
1001
0010
0101
0010
,
1100
1000
0100
0010
0001
0100
0001
1000
,
0200
1000
0010
1300
,
1002
0000
0000
0000
,
0010
0000
0100
0000
1000
0000
0013
0100
,
2000
0000
0100
3100
,
2200
0000
0000
0000
0000
3300
1000
0001
,
0100
0000
0010
0000
1000
0001
1000
0010
,
1000
0000
0000
1000
0000
0000
0000
0000
0000
0000
0000
0000
1001
0000
0000
0000
,
0001
0010
1000
0010
0100
0001
0100
0010
,
0002
0000
0100
1003
,
1010
0000
0100
0000
0000
0001
0000
0000
0010
0000
0100
0000
1000
0100
0000
0000
,
2000
0000
0100
3001
,
1001
1000
0010
0100
0001
0010
0001
1000
,
0100
0000
0110
1100
,
1001
0000
0100
0000
0000
0010
0000
0000
0100
0000
0001
0000
1000
0001
0000
0000
,
2000
0000
0010
0100
,
3001
0010
0100
1000
0100
0010
0001
1000
,
0001
0000
0101
0110
,
1010
1000
0010
0100
0001
0010
0001
1000
,
0100
0001
1000
0010
0001
0100
0010
1000
,
0100
1000
0001
0010
0001
0100
1000
0100
,
0020
1000
0100
1030
,
1000
0010
0100
0001
0010
0001
0100
0010
,
1000
0100
0010
0001
0100
1000
0100
0010
,
1000
0001
0010
1000
0001
0100
1000
0001
,
2000
0001
0100
3001
,
1001
0000
1000
0010
0100
0000
0100
0001
,
0010
0000
0010
0100
1000
0100
0010
0100
,
1000
0000
1000
0001
0100
0000
0100
0010
,
1010
1001
0101
0110
,
2010
0000
0000
0000
0000
0000
0000
3000
,
0102
0000
0000
0000
0000
0000
0000
0003
,
0021
0000
0000
0000
0000
0000
0001
0030
,
1200
0000
0000
0000
0010
0000
1000
0300
,
1001
0000
0000
0000
;

//---------------dance-single - Copied from----------------
#NOTES:
     dance-single:
     Copied from:
     Challenge:
     9:
     0.567,0.616,0.352,0.413,0.440,363.000,40.000,47.000,1.000,2.000:
0000
0000
0000
0000
,
1000
0001
0100
0010
0100
0001
0010
1000
,
2000
0000
0000
0000
,
3010
0001
1000
0010
0110
0000
1001
0000
,
1100
0000
1000
0000
0010
0000
0100
0010
0000
0100
0001
0000
0010
0000
0001
0000
,
1000
1100
0110
0011
,
0001
0010
0100
1000
0200
0000
2300
0000
,
3020
0000
0030
0000
0100
0000
0100
0001
,
1000
0000
0100
0000
0010
0000
0100
0010
0000
0100
0010
0000
0001
0000
0100
0000
,
0010
0000
0000
0110
0000
0000
0000
0000
0000
0000
0000
0000
1010
0000
0000
0000
,
1000
0000
0100
1000
0100
0000
1000
0010
0000
0100
0001
0000
0010
0000
0100
0000
,
2200
0000
0000
3300
0000
0000
0010
0100
,
1000
0000
0001
1000
0001
0000
1000
0010
0000
1000
0001
0000
1000
0000
0001
0000
,
0010
0000
0000
0011
0000
0000
0000
0000
0000
0000
0000
0000
0011
0000
0000
0000
,
0001
0000
0010
0100
1000
0000
0100
0010
0000
0100
1000
0000
0001
0000
0100
0000
,
0102
0000
1000
1003
,
2000
0000
0000
0000
0000
0000
0010
0010
3000
0000
0000
0000
0000
0100
0001
0010
,
0000
0000
0010
0000
0100
0000
1000
0001
1000
0100
0000
1000
0100
0000
1000
0000
,
2100
0000
0000
0000
0000
3001
0100
0002
0000
0000
0000
0000
0000
0013
0001
0020
,
0000
0000
0001
0000
0100
0000
0031
0001
,
2000
0000
0000
0000
0000
0000
0001
0001
3000
0000
0000
0000
0000
0001
0010
0100
,
0000
0000
1000
0000
0001
0000
1000
0010
1000
0001
0000
0100
0001
0000
0100
0000
,
2010
0000
0000
0000
3000
0010
0100
0002
0000
0000
0000
0000
0000
0013
0100
2000
,
0000
0001
0010
3100
,
1001
0000
1000
0000
0010
0000
0100
0010
0000
0100
0001
0000
0010
0000
0001
0000
,
0011
0000
0000
0011
0000
0000
0000
0000
0000
0000
0000
0000
0020
0000
0130
0000
,
1000
0000
0100
1000
0100
0000
1000
0010
0000
1000
0001
0000
0100
0000
0001
0000
,
0202
0000
0000
0000
0000
0000
0000
0000
0000
0000
0300
0003
1000
0000
0001
0000
,
0100
0000
0100
0000
0010
0000
1000
1000
0000
0001
0001
0000
1000
0000
0010
0000
,
1010
0000
0000
1010
0000
0000
0000
0000
0000
0000
0000
0000
1001
0000
0000
0000
,
0001
0000
0010
1000
0010
0000
0010
0100
0000
0100
1000
0000
0010
0000
0100
0000
,
0202
0000
0000
0300
0103
0001
1000
0010
,
1010
0000
0200
0000
0000
0302
0000
0000
0023
0000
0230
0000
2300
3200
0300
0000
,
2000
0000
0100
3001
,
1001
0000
1000
1000
0010
0000
0100
0001
0000
1000
0001
0000
1000
0000
0010
0000
,
0100
0000
0101
0110
,
1010
0000
2000
0000
0000
3020
0000
0000
0230
0000
0302
0000
2003
3002
0003
0000
,
2000
0000
0010
0100
,
3001
0000
0010
0100
1000
0000
0001
0001
0000
1000
1000
0000
0001
0000
1000
0000
,
1100
0000
0000
0000
0101
0000
1001
0100
,
1002
0000
0000
0000
0000
0000
1000
0000
1003
0000
0000
0000
0000
0010
0100
0010
,
1000
0000
1000
0000
0001
0000
0010
0100
1000
0100
0000
1000
0100
0000
1000
0000
,
1002
0000
0000
0000
0000
0103
0001
0200
0000
0000
0000
0000
0000
0310
1000
0020
,
0000
0100
1000
0130
,
2001
0000
0000
0000
0000
0000
0001
3001
0000
0000
0000
0000
0000
1000
0001
1000
,
0010
0000
0010
0000
0100
0000
0001
1000
0001
0100
0000
0001
0100
0000
0101
0000
,
2001
0000
0000
0000
0000
3100
1000
0200
0000
0000
0000
0000
0000
1300
0010
2000
,
0000
0001
0100
3001
,
1001
0000
0000
0000
0001
1000
0001
0200
0000
0000
0300
0000
0100
0001
1000
0010
,
0000
0000
0010
0000
1000
0000
0100
1000
0200
0000
0000
0000
0320
0000
0001
0000
,
0031
0000
0000
0100
0001
0100
0001
0000
0000
1000
1000
0010
,
1000
1001
0100
1001
,
0020
0000
1030
0010
1000
0000
0100
1000
0100
0000
1000
0010
1000
0000
0001
0100
,
0001
0000
1000
0001
1000
0000
0010
1000
0010
0000
1000
0001
1000
0000
0000
0000
,
0001
0010
0100
1000
0100
0010
0001
0010
0100
1000
0100
0010
0001
0010
0100
1000
,
0200
0000
0010
0000
1000
0000
1001
0300
,
11M1
0000
0000
0000
;

//---------------dance-single - ----------------
#NOTES:
     dance-single:
     :
     Medium:
     5:
     0.358,0.350,0.264,0.317,0.022,219.000,30.000,36.000,0.000,0.000:
0000
0000
0000
0000
,
1000
0100
0010
0001
,
0001
0000
0000
0000
,
0001
0100
0010
1000
,
1000
0000
0001
0000
0100
0001
0100
0000
,
0001
0000
0010
0000
0100
1000
0100
0000
,
1000
0000
0010
0000
0100
0010
0100
0000
,
0001
1000
0001
1000
,
1001
0010
1001
0100
,
1001
0010
1001
0100
,
1001
0000
0001
0000
0010
0000
0100
1000
,
0200
0000
1000
1300
,
0001
0000
0100
0001
0010
0000
1000
0000
,
0010
0000
0000
0010
0000
0000
0000
0000
0000
0000
0000
0000
0020
0000
0030
0000
,
1001
0000
0100
0000
0001
1000
0010
0100
,
0002
0003
0001
0010
,
0200
0000
2300
0000
,
3020
0230
0302
0023
,
0230
0000
0000
0000
2300
0000
0000
3000
,
1002
0000
0010
0100
,
1003
0010
0100
0110
,
0100
0001
1000
1100
,
0100
0010
0001
0011
,
1001
0000
0000
0000
0001
0100
0001
0100
,
0010
0000
1000
0001
0100
0000
1000
0000
,
0001
0000
0000
0001
0000
0000
0000
0000
0000
0000
0000
0000
0020
0000
0030
0000
,
0011
0000
0010
0000
0100
1000
0100
1000
,
0100
0000
1010
1001
,
0101
0000
0100
0000
0010
1000
0010
0000
,
0100
0000
0000
0001
0000
0000
0000
0000
0000
0000
0000
0000
2000
0000
3000
0000
,
1001
0000
0001
0000
0010
0100
1000
0100
,
0010
0000
0101
1001
,
1100
0000
1000
0000
0010
0100
0010
0000
,
1000
0000
0000
1000
0000
0000
0000
0000
0000
0000
0000
0000
0002
0000
0003
0000
,
1001
0000
1000
0000
0001
0010
0100
1000
,
0100
0000
1010
0110
,
0101
0000
0001
0000
0010
0001
0010
0000
,
0001
0000
0000
0001
0000
0000
0000
0000
0000
0000
0000
0000
0020
0000
0030
0000
,
0100
0000
1000
0000
0001
1000
0010
0100
,
0001
0000
0000
0000
0100
0000
0001
0010
,
0200
0000
2300
0000
,
3002
0203
0320
2030
,
3200
0000
0320
0000
,
0032
0000
0100
0100
,
2003
0000
3020
0000
,
0230
0302
2003
3020
,
2030
0000
0000
0000
3200
0000
0000
0300
,
0220
0000
0000
0000
0000
0000
0000
0330
,
0010
0110
0100
1100
,
1000
0001
0100
0101
,
0100
0010
1000
1010
,
1000
1001
0100
1001
,
0010
0000
1000
0000
0100
0010
0001
0010
,
0100
0000
1000
0000
0010
1000
0010
1000
,
0010
0000
0100
0000
0001
0100
0001
0100
,
0001
0000
1000
0000
0100
0010
0100
1000
,
0200
0000
0000
0000
0000
0000
0000
0300
;

//---------------dance-single - Copied from----------------
#NOTES:
     dance-single:
     Copied from:
     Easy:
     3:
     0.227,0.250,0.106,0.070,0.000,161.000,12.000,8.000,0.000,0.000:
0000
0000
0000
0000
,
1000
0100
0010
0001
,
0010
0000
0000
0000
,
0001
0010
0100
1000
,
0100
0001
0100
1000
,
0001
0000
0010
0000
,
1000
0010
0100
0001
,
1000
0000
0100
0000
,
0001
0010
0100
1000
,
0200
0000
0000
0000
,
1300
0010
0100
0001
,
0200
0000
0000
0001
,
0301
0100
0010
1000
,
0020
0000
0000
1000
,
1030
0100
1000
0001
,
2000
0000
0000
0000
,
3100
0000
1000
0000
,
0010
0100
0001
0010
,
0100
0000
1000
0000
,
1001
0000
0000
0000
,
1000
0010
0100
0010
,
0100
0000
0001
0000
,
0100
0010
1000
0010
,
1000
0000
1001
0000
,
1000
0000
0001
0000
,
0001
0010
0100
1100
,
1001
0000
0100
0000
,
0010
1000
0010
0110
,
0101
0000
0010
0000
,
0100
1000
0001
1000
,
1001
0000
0010
0000
,
0010
0001
0100
0001
,
0010
0000
0100
0000
,
1000
1000
0001
1000
,
0010
0000
0100
0000
,
0001
0010
0100
1000
,
1001
0000
0010
0010
,
0001
0000
0001
0001
,
0100
0000
0100
0100
,
0010
0000
0010
0010
,
1000
0000
1000
0000
,
0001
0100
0010
1000
,
0100
0000
0010
0000
,
0001
0000
0100
0100
,
1000
0000
0010
0000
,
0100
0001
1000
0010
,
1000
0000
0100
0000
,
2200
0000
0000
3300
,
1000
0010
0100
0001
,
1000
0001
0100
0010
,
0100
0001
1000
0010
,
1010
0000
0101
0000
,
0001
1000
0100
0010
,
0100
0000
0010
0010
,
0010
0100
1000
0001
,
0100
0000
0100
0100
,
0202
0000
0000
0000
0000
0000
0000
0303
;
